  0
SECTION
  2
HEADER
  9
$ACADVER
  1
AC1012
  9
$DWGCODEPAGE
  3
dos932
  9
$INSBASE
 10
0.0
 20
0.0
 30
0.0
  9
$EXTMIN
 10
-72.85509186348054
 20
-53.5039899605955
 30
-0.0015258207003583
  9
$EXTMAX
 10
71.54087168232871
 20
31.50161763915281
 30
0.0000000349246037
  9
$LIMMIN
 10
-70.0
 20
-57.25
  9
$LIMMAX
 10
71.536552
 20
32.25
  9
$ORTHOMODE
 70
     0
  9
$REGENMODE
 70
     1
  9
$FILLMODE
 70
     1
  9
$QTEXTMODE
 70
     0
  9
$MIRRTEXT
 70
     1
  9
$DRAGMODE
 70
     2
  9
$LTSCALE
 40
1.0
  9
$OSMODE
 70
    37
  9
$ATTMODE
 70
     1
  9
$TEXTSIZE
 40
4.1672
  9
$TRACEWID
 40
0.05
  9
$TEXTSTYLE
  7
STANDARD
  9
$CLAYER
  8
0
  9
$CELTYPE
  6
CONTINUOUS
  9
$CECOLOR
 62
   256
  9
$CELTSCALE
 40
1.0
  9
$DELOBJ
 70
     1
  9
$DISPSILH
 70
     0
  9
$DIMSCALE
 40
1.0
  9
$DIMASZ
 40
0.18
  9
$DIMEXO
 40
0.0625
  9
$DIMDLI
 40
0.38
  9
$DIMRND
 40
0.0
  9
$DIMDLE
 40
0.0
  9
$DIMEXE
 40
0.18
  9
$DIMTP
 40
0.0
  9
$DIMTM
 40
0.0
  9
$DIMTXT
 40
0.18
  9
$DIMCEN
 40
0.09
  9
$DIMTSZ
 40
0.0
  9
$DIMTOL
 70
     0
  9
$DIMLIM
 70
     0
  9
$DIMTIH
 70
     1
  9
$DIMTOH
 70
     1
  9
$DIMSE1
 70
     0
  9
$DIMSE2
 70
     0
  9
$DIMTAD
 70
     0
  9
$DIMZIN
 70
     0
  9
$DIMBLK
  1

  9
$DIMASO
 70
     1
  9
$DIMSHO
 70
     1
  9
$DIMPOST
  1

  9
$DIMAPOST
  1

  9
$DIMALT
 70
     0
  9
$DIMALTD
 70
     2
  9
$DIMALTF
 40
25.4
  9
$DIMLFAC
 40
1.0
  9
$DIMTOFL
 70
     0
  9
$DIMTVP
 40
0.0
  9
$DIMTIX
 70
     0
  9
$DIMSOXD
 70
     0
  9
$DIMSAH
 70
     0
  9
$DIMBLK1
  1

  9
$DIMBLK2
  1

  9
$DIMSTYLE
  2
STANDARD
  9
$DIMCLRD
 70
     0
  9
$DIMCLRE
 70
     0
  9
$DIMCLRT
 70
     0
  9
$DIMTFAC
 40
1.0
  9
$DIMGAP
 40
0.09
  9
$DIMJUST
 70
     0
  9
$DIMSD1
 70
     0
  9
$DIMSD2
 70
     0
  9
$DIMTOLJ
 70
     1
  9
$DIMTZIN
 70
     0
  9
$DIMALTZ
 70
     0
  9
$DIMALTTZ
 70
     0
  9
$DIMFIT
 70
     3
  9
$DIMUPT
 70
     0
  9
$DIMUNIT
 70
     2
  9
$DIMDEC
 70
     4
  9
$DIMTDEC
 70
     4
  9
$DIMALTU
 70
     2
  9
$DIMALTTD
 70
     2
  9
$DIMTXSTY
  7
STANDARD
  9
$DIMAUNIT
 70
     0
  9
$LUNITS
 70
     2
  9
$LUPREC
 70
     6
  9
$SKETCHINC
 40
0.1
  9
$FILLETRAD
 40
0.0
  9
$AUNITS
 70
     0
  9
$AUPREC
 70
     4
  9
$MENU
  1
acad
  9
$ELEVATION
 40
0.0
  9
$PELEVATION
 40
0.0
  9
$THICKNESS
 40
0.0
  9
$LIMCHECK
 70
     0
  9
$BLIPMODE
 70
     0
  9
$CHAMFERA
 40
0.0
  9
$CHAMFERB
 40
0.0
  9
$CHAMFERC
 40
0.0
  9
$CHAMFERD
 40
0.0
  9
$SKPOLY
 70
     0
  9
$TDCREATE
 40
2376123.569090173
  9
$TDUPDATE
 40
2451687.712079051
  9
$TDINDWG
 40
0.0007692130
  9
$TDUSRTIMER
 40
0.0007686343
  9
$USRTIMER
 70
     1
  9
$ANGBASE
 50
0.0
  9
$ANGDIR
 70
     0
  9
$PDMODE
 70
     0
  9
$PDSIZE
 40
0.0
  9
$PLINEWID
 40
0.0
  9
$COORDS
 70
     1
  9
$SPLFRAME
 70
     0
  9
$SPLINETYPE
 70
     6
  9
$SPLINESEGS
 70
     8
  9
$ATTDIA
 70
     0
  9
$ATTREQ
 70
     1
  9
$HANDLING
 70
 10241
  9
$HANDSEED
  5
23F
  9
$SURFTAB1
 70
     6
  9
$SURFTAB2
 70
     6
  9
$SURFTYPE
 70
     6
  9
$SURFU
 70
     6
  9
$SURFV
 70
     6
  9
$UCSNAME
  2

  9
$UCSORG
 10
0.0
 20
0.0
 30
0.0
  9
$UCSXDIR
 10
1.0
 20
0.0
 30
0.0
  9
$UCSYDIR
 10
0.0
 20
1.0
 30
0.0
  9
$PUCSNAME
  2

  9
$PUCSORG
 10
0.0
 20
0.0
 30
0.0
  9
$PUCSXDIR
 10
1.0
 20
0.0
 30
0.0
  9
$PUCSYDIR
 10
0.0
 20
1.0
 30
0.0
  9
$USERI1
 70
     0
  9
$USERI2
 70
     0
  9
$USERI3
 70
     0
  9
$USERI4
 70
     0
  9
$USERI5
 70
     0
  9
$USERR1
 40
0.0
  9
$USERR2
 40
0.0
  9
$USERR3
 40
0.0
  9
$USERR4
 40
0.0
  9
$USERR5
 40
0.0
  9
$WORLDVIEW
 70
     1
  9
$SHADEDGE
 70
     3
  9
$SHADEDIF
 70
    70
  9
$TILEMODE
 70
     1
  9
$MAXACTVP
 70
    16
  9
$PINSBASE
 10
0.0
 20
0.0
 30
0.0
  9
$PLIMCHECK
 70
     0
  9
$PEXTMIN
 10
-70.0
 20
-57.25
 30
1.000000000000000E+20
  9
$PEXTMAX
 10
71.536552
 20
32.25
 30
-1.000000000000000E+20
  9
$PLIMMIN
 10
0.0
 20
0.0
  9
$PLIMMAX
 10
12.0
 20
9.0
  9
$UNITMODE
 70
     0
  9
$VISRETAIN
 70
     0
  9
$PLINEGEN
 70
     0
  9
$PSLTSCALE
 70
     1
  9
$TREEDEPTH
 70
  3020
  9
$PICKSTYLE
 70
     1
  9
$CMLSTYLE
  2
STANDARD
  9
$CMLJUST
 70
     0
  9
$CMLSCALE
 40
1.0
  9
$SAVEIMAGES
 70
     1
  0
ENDSEC
  0
SECTION
  2
CLASSES
  0
CLASS
  1
ACDBDICTIONARYWDFLT
  2
AcDbDictionaryWithDefault
  3
AutoCAD 2000
 90
    32768
280
     0
281
     0
  0
CLASS
  1
ACDBPLACEHOLDER
  2
AcDbPlaceHolder
  3
AutoCAD 2000
 90
    32768
280
     0
281
     0
  0
CLASS
  1
LAYOUT
  2
AcDbLayout
  3
AutoCAD 2000
 90
    32768
280
     0
281
     0
  0
CLASS
  1
LONG_TRANSACTION
  2
AcDbLongTransaction
  3
AutoCAD 2000
 90
    32768
280
     0
281
     0
  0
CLASS
  1
LWPOLYLINE
  2
AcDbPolyline
  3
AutoCAD 2000
 90
    32768
280
     0
281
     1
  0
CLASS
  1
HATCH
  2
AcDbHatch
  3
AutoCAD 2000
 90
    32768
280
     0
281
     1
  0
CLASS
  1
XRECORD
  2
AcDbXrecord
  3
AutoCAD 2000
 90
    32768
280
     0
281
     0
  0
ENDSEC
  0
SECTION
  2
TABLES
  0
TABLE
  2
VPORT
  5
7
330
0
100
AcDbSymbolTable
 70
     2
  0
VPORT
  5
204
330
7
100
AcDbSymbolTableRecord
100
AcDbViewportTableRecord
  2
*ACTIVE
 70
     0
 10
0.0
 20
0.0
 11
1.0
 21
1.0
 12
-0.6571100905759093
 22
-12.5
 13
0.0
 23
0.0
 14
6.349999999999999
 24
6.349999999999999
 15
6.349999999999999
 25
6.349999999999999
 16
0.0
 26
0.0
 36
1.0
 17
0.0
 27
0.0
 37
0.0
 40
90.42586206896551
 41
1.644214162348877
 42
50.0
 43
0.0
 44
0.0
 50
0.0
 51
0.0
 71
     0
 72
   100
 73
     1
 74
     1
 75
     0
 76
     0
 77
     0
 78
     0
  0
ENDTAB
  0
TABLE
  2
LTYPE
  5
4
330
0
100
AcDbSymbolTable
 70
    37
  0
LTYPE
  5
12
330
4
100
AcDbSymbolTableRecord
100
AcDbLinetypeTableRecord
  2
BYBLOCK
 70
     0
  3

 72
    65
 73
     0
 40
0.0
  0
LTYPE
  5
13
330
4
100
AcDbSymbolTableRecord
100
AcDbLinetypeTableRecord
  2
BYLAYER
 70
     0
  3

 72
    65
 73
     0
 40
0.0
  0
LTYPE
  5
14
330
4
100
AcDbSymbolTableRecord
100
AcDbLinetypeTableRecord
  2
CONTINUOUS
 70
     0
  3
DXF Default line type
 72
    65
 73
     0
 40
0.0
  0
LTYPE
  5
20
330
4
100
AcDbSymbolTableRecord
100
AcDbLinetypeTableRecord
  2
DASHED
 70
     0
  3
DXF Dashed
 72
    65
 73
     2
 40
0.75
 49
0.5
 74
     0
 49
-0.25
 74
     0
  0
LTYPE
  5
21
330
4
100
AcDbSymbolTableRecord
100
AcDbLinetypeTableRecord
  2
HIDDEN
 70
     0
  3
DXF Hidden
 72
    65
 73
     2
 40
0.375
 49
0.25
 74
     0
 49
-0.125
 74
     0
  0
LTYPE
  5
22
330
4
100
AcDbSymbolTableRecord
100
AcDbLinetypeTableRecord
  2
CENTER
 70
     0
  3
DXF Center
 72
    65
 73
     4
 40
2.0
 49
1.25
 74
     0
 49
-0.25
 74
     0
 49
0.25
 74
     0
 49
-0.25
 74
     0
  0
LTYPE
  5
23
330
4
100
AcDbSymbolTableRecord
100
AcDbLinetypeTableRecord
  2
PHANTOM
 70
     0
  3
DXF Phantom
 72
    65
 73
     6
 40
2.5
 49
1.25
 74
     0
 49
-0.25
 74
     0
 49
0.25
 74
     0
 49
-0.25
 74
     0
 49
0.25
 74
     0
 49
-0.25
 74
     0
  0
LTYPE
  5
24
330
4
100
AcDbSymbolTableRecord
100
AcDbLinetypeTableRecord
  2
DOT
 70
     0
  3
DXF DOT
 72
    65
 73
     2
 40
0.25
 49
0.0
 74
     0
 49
-0.25
 74
     0
  0
LTYPE
  5
25
330
4
100
AcDbSymbolTableRecord
100
AcDbLinetypeTableRecord
  2
DASHDOT
 70
     0
  3
DXF Dash Dot
 72
    65
 73
     4
 40
1.0
 49
0.5
 74
     0
 49
-0.25
 74
     0
 49
0.0
 74
     0
 49
-0.25
 74
     0
  0
LTYPE
  5
26
330
4
100
AcDbSymbolTableRecord
100
AcDbLinetypeTableRecord
  2
BORDER
 70
     0
  3
DXF Border
 72
    65
 73
     6
 40
1.75
 49
0.5
 74
     0
 49
-0.25
 74
     0
 49
0.5
 74
     0
 49
-0.25
 74
     0
 49
0.0
 74
     0
 49
-0.25
 74
     0
  0
LTYPE
  5
27
330
4
100
AcDbSymbolTableRecord
100
AcDbLinetypeTableRecord
  2
DIVIDE
 70
     0
  3
DXF Divide
 72
    65
 73
     6
 40
1.25
 49
0.5
 74
     0
 49
-0.25
 74
     0
 49
0.0
 74
     0
 49
-0.25
 74
     0
 49
0.0
 74
     0
 49
-0.25
 74
     0
  0
LTYPE
  5
28
330
4
100
AcDbSymbolTableRecord
100
AcDbLinetypeTableRecord
  2
C_SOLID_L
 70
     0
  3
CADAM Solid Light
 72
    65
 73
     0
 40
0.0
  0
LTYPE
  5
29
330
4
100
AcDbSymbolTableRecord
100
AcDbLinetypeTableRecord
  2
C_SOLID_M
 70
     0
  3
CADAM Solid Medium
 72
    65
 73
     0
 40
0.0
  0
LTYPE
  5
2A
330
4
100
AcDbSymbolTableRecord
100
AcDbLinetypeTableRecord
  2
C_SOLID_H
 70
     0
  3
CADAM Solid Heavy
 72
    65
 73
     0
 40
0.0
  0
LTYPE
  5
2B
330
4
100
AcDbSymbolTableRecord
100
AcDbLinetypeTableRecord
  2
C_DASHED_L
 70
     0
  3
CADAM Dashed Light
 72
    65
 73
     2
 40
0.375
 49
0.25
 74
     0
 49
-0.125
 74
     0
  0
LTYPE
  5
2C
330
4
100
AcDbSymbolTableRecord
100
AcDbLinetypeTableRecord
  2
C_DASHED_M
 70
     0
  3
CADAM Dashed Medium
 72
    65
 73
     2
 40
0.5
 49
0.375
 74
     0
 49
-0.125
 74
     0
  0
LTYPE
  5
2D
330
4
100
AcDbSymbolTableRecord
100
AcDbLinetypeTableRecord
  2
C_CENTER_L
 70
     0
  3
CADAM Center Light
 72
    65
 73
     4
 40
2.0
 49
1.25
 74
     0
 49
-0.25
 74
     0
 49
0.25
 74
     0
 49
-0.25
 74
     0
  0
LTYPE
  5
2E
330
4
100
AcDbSymbolTableRecord
100
AcDbLinetypeTableRecord
  2
C_PHANTOM_L
 70
     0
  3
CADAM Phantom Light
 72
    65
 73
     6
 40
2.5
 49
1.25
 74
     0
 49
-0.25
 74
     0
 49
0.25
 74
     0
 49
-0.25
 74
     0
 49
0.25
 74
     0
 49
-0.25
 74
     0
  0
LTYPE
  5
2F
330
4
100
AcDbSymbolTableRecord
100
AcDbLinetypeTableRecord
  2
C_BREAK_M
 70
     0
  3
CADAM Break Medium
 72
    65
 73
     4
 40
1.0
 49
0.5
 74
     0
 49
-0.25
 74
     0
 49
0.0
 74
     0
 49
-0.25
 74
     0
  0
LTYPE
  5
30
330
4
100
AcDbSymbolTableRecord
100
AcDbLinetypeTableRecord
  2
C_NC
 70
     0
  3
CADAM NC
 72
    65
 73
     0
 40
0.0
  0
LTYPE
  5
31
330
4
100
AcDbSymbolTableRecord
100
AcDbLinetypeTableRecord
  2
DSH1
 70
     0
  3
CADAM Style2 Type 1 Dashed Line
 72
    65
 73
     2
 40
0.075
 49
0.04
 74
     0
 49
-0.035
 74
     0
  0
LTYPE
  5
32
330
4
100
AcDbSymbolTableRecord
100
AcDbLinetypeTableRecord
  2
DSH2
 70
     0
  3
CADAM Style2 Type 2 Dashed Line
 72
    65
 73
     2
 40
0.15
 49
0.11
 74
     0
 49
-0.04
 74
     0
  0
LTYPE
  5
33
330
4
100
AcDbSymbolTableRecord
100
AcDbLinetypeTableRecord
  2
DSH3
 70
     0
  3
CADAM Style2 Type 3 Dashed Line
 72
    65
 73
     2
 40
0.2
 49
0.15
 74
     0
 49
-0.05
 74
     0
  0
LTYPE
  5
34
330
4
100
AcDbSymbolTableRecord
100
AcDbLinetypeTableRecord
  2
DSH4
 70
     0
  3
CADAM Style2 Type 4 Dashed Line
 72
    65
 73
     2
 40
0.36
 49
0.28
 74
     0
 49
-0.08
 74
     0
  0
LTYPE
  5
35
330
4
100
AcDbSymbolTableRecord
100
AcDbLinetypeTableRecord
  2
DSH5
 70
     0
  3
CADAM Style2 Type 5 Dashed Line
 72
    65
 73
     2
 40
0.47
 49
0.39
 74
     0
 49
-0.08
 74
     0
  0
LTYPE
  5
36
330
4
100
AcDbSymbolTableRecord
100
AcDbLinetypeTableRecord
  2
DSH6
 70
     0
  3
CADAM Style2 Type 6 Dashed Line
 72
    65
 73
     2
 40
0.9
 49
0.8100000000000001
 74
     0
 49
-0.09
 74
     0
  0
LTYPE
  5
37
330
4
100
AcDbSymbolTableRecord
100
AcDbLinetypeTableRecord
  2
PL1
 70
     0
  3
Style 2 Type 1 Phantom Line
 72
    65
 73
     6
 40
1.0
 49
0.6
 74
     0
 49
-0.08
 74
     0
 49
0.08
 74
     0
 49
-0.08
 74
     0
 49
0.08
 74
     0
 49
-0.08
 74
     0
  0
LTYPE
  5
38
330
4
100
AcDbSymbolTableRecord
100
AcDbLinetypeTableRecord
  2
PL2
 70
     0
  3
Style 2 Type 2 Phantom Line
 72
    65
 73
     6
 40
1.08
 49
0.6
 74
     0
 49
-0.08
 74
     0
 49
0.12
 74
     0
 49
-0.08
 74
     0
 49
0.12
 74
     0
 49
-0.08
 74
     0
  0
LTYPE
  5
39
330
4
100
AcDbSymbolTableRecord
100
AcDbLinetypeTableRecord
  2
PL3
 70
     0
  3
Style 2 Type 3 Phantom Line
 72
    65
 73
     6
 40
2.0
 49
1.439999999999999
 74
     0
 49
-0.08
 74
     0
 49
0.16
 74
     0
 49
-0.08
 74
     0
 49
0.16
 74
     0
 49
-0.08
 74
     0
  0
LTYPE
  5
3A
330
4
100
AcDbSymbolTableRecord
100
AcDbLinetypeTableRecord
  2
CL1
 70
     0
  3
CADAM Style 2 Type 1 Center Line
 72
    65
 73
     4
 40
0.7
 49
0.45
 74
     0
 49
-0.06
 74
     0
 49
0.13
 74
     0
 49
-0.06
 74
     0
  0
LTYPE
  5
3B
330
4
100
AcDbSymbolTableRecord
100
AcDbLinetypeTableRecord
  2
CL2
 70
     0
  3
CADAM Style 2 Type 2 Center Line
 72
    65
 73
     4
 40
1.199999999999999
 49
1.01
 74
     0
 49
-0.06
 74
     0
 49
0.11
 74
     0
 49
-0.06
 74
     0
  0
LTYPE
  5
3C
330
4
100
AcDbSymbolTableRecord
100
AcDbLinetypeTableRecord
  2
CL3
 70
     0
  3
CADAM Style 2 Type 3 Center Line
 72
    65
 73
     4
 40
1.199999999999999
 49
0.98
 74
     0
 49
-0.06
 74
     0
 49
0.1
 74
     0
 49
-0.06
 74
     0
  0
LTYPE
  5
3D
330
4
100
AcDbSymbolTableRecord
100
AcDbLinetypeTableRecord
  2
CL4
 70
     0
  3
CADAM Style 2 Type 4 Center Line
 72
    65
 73
     4
 40
2.2
 49
1.929999999999999
 74
     0
 49
-0.07
 74
     0
 49
0.13
 74
     0
 49
-0.07
 74
     0
  0
LTYPE
  5
3E
330
4
100
AcDbSymbolTableRecord
100
AcDbLinetypeTableRecord
  2
CL5
 70
     0
  3
CADAM Style 2 Type 5 Center Line
 72
    65
 73
     4
 40
2.2
 49
1.879999999999999
 74
     0
 49
-0.07
 74
     0
 49
0.18
 74
     0
 49
-0.07
 74
     0
  0
LTYPE
  5
3F
330
4
100
AcDbSymbolTableRecord
100
AcDbLinetypeTableRecord
  2
SBK1
 70
     0
  3
CADAM Style 2 Type 1 SetBack Line
 72
    65
 73
     8
 40
2.7
 49
0.1
 74
     0
 49
-0.08
 74
     0
 49
0.1
 74
     0
 49
-0.8
 74
     0
 49
0.0
 74
     0
 49
0.0
 74
     0
 49
0.0
 74
     0
 49
0.0
 74
     0
  0
LTYPE
  5
40
330
4
100
AcDbSymbolTableRecord
100
AcDbLinetypeTableRecord
  2
SBK2
 70
     0
  3
CADAM Style 2 Type 2 SetBack Line
 72
    65
 73
     8
 40
3.709999999999999
 49
0.13
 74
     0
 49
-0.08
 74
     0
 49
0.13
 74
     0
 49
-0.8
 74
     0
 49
0.0
 74
     0
 49
0.0
 74
     0
 49
0.0
 74
     0
 49
0.0
 74
     0
  0
LTYPE
  5
41
330
4
100
AcDbSymbolTableRecord
100
AcDbLinetypeTableRecord
  2
STCH
 70
     0
  3
CADAM Style2 Stitch Line
 72
    65
 73
     2
 40
0.25
 49
0.0
 74
     0
 49
-0.25
 74
     0
  0
LTYPE
  5
42
330
4
100
AcDbSymbolTableRecord
100
AcDbLinetypeTableRecord
  2
MTCH
 70
     0
  3
CADAM Style2 Match Line
 72
    65
 73
     6
 40
2.0
 49
1.439999999999999
 74
     0
 49
-0.8
 74
     0
 49
0.16
 74
     0
 49
-0.08
 74
     0
 49
0.16
 74
     0
 49
-0.08
 74
     0
  0
LTYPE
  5
43
330
4
100
AcDbSymbolTableRecord
100
AcDbLinetypeTableRecord
  2
SLD
 70
     0
  3
CADAM Solid_EXT2
 72
    65
 73
     0
 40
0.0
  0
ENDTAB
  0
TABLE
  2
LAYER
  5
2
330
0
100
AcDbSymbolTable
 70
     7
  0
LAYER
  5
15
330
2
100
AcDbSymbolTableRecord
100
AcDbLayerTableRecord
  2
0
 70
     0
 62
     7
  6
CONTINUOUS
  0
LAYER
  5
44
330
2
100
AcDbSymbolTableRecord
100
AcDbLayerTableRecord
  2
MO_001_NOSHOW
 70
     1
 62
     7
  6
CONTINUOUS
  0
LAYER
  5
45
330
2
100
AcDbSymbolTableRecord
100
AcDbLayerTableRecord
  2
MO_001_VIEW_PV
 70
     0
 62
     7
  6
CONTINUOUS
  0
LAYER
  5
46
330
2
100
AcDbSymbolTableRecord
100
AcDbLayerTableRecord
  2
OVERLAY_MAP
 70
     1
 62
     7
  6
CONTINUOUS
  0
LAYER
  5
47
330
2
100
AcDbSymbolTableRecord
100
AcDbLayerTableRecord
  2
DITTOS
 70
     0
 62
     7
  6
CONTINUOUS
  0
LAYER
  5
48
330
2
100
AcDbSymbolTableRecord
100
AcDbLayerTableRecord
  2
SYMBOLS
 70
     0
 62
     7
  6
CONTINUOUS
  0
LAYER
  5
49
330
2
100
AcDbSymbolTableRecord
100
AcDbLayerTableRecord
  2
SETS
 70
     0
 62
     7
  6
CONTINUOUS
  0
ENDTAB
  0
TABLE
  2
STYLE
  5
3
330
0
100
AcDbSymbolTable
 70
     1
  0
STYLE
  5
18
330
3
100
AcDbSymbolTableRecord
100
AcDbTextStyleTableRecord
  2
STANDARD
 70
     0
 40
4.1672
 41
1.0
 50
0.0
 71
     0
 42
4.1672
  3
monotxt
  4
BIGFONT
  0
ENDTAB
  0
TABLE
  2
VIEW
  5
5
330
0
100
AcDbSymbolTable
 70
     0
  0
ENDTAB
  0
TABLE
  2
UCS
  5
6
330
0
100
AcDbSymbolTable
 70
     1
  0
UCS
  5
4A
330
6
100
AcDbSymbolTableRecord
100
AcDbUCSTableRecord
  2
MO_001_VIEW_PV_P
 70
     0
 10
0.0
 20
0.0
 30
0.0
 11
1.0
 21
0.0
 31
0.0
 12
-0.0000000002051034
 22
1.0
 32
0.0
  0
ENDTAB
  0
TABLE
  2
APPID
  5
8
330
0
100
AcDbSymbolTable
 70
     1
  0
APPID
  5
17
330
8
100
AcDbSymbolTableRecord
100
AcDbRegAppTableRecord
  2
ACAD
 70
     0
  0
ENDTAB
  0
TABLE
  2
DIMSTYLE
  5
9
330
0
100
AcDbSymbolTable
 70
     1
  0
DIMSTYLE
105
19
102
{ACAD_REACTORS
330
138
330
13A
330
13C
330
13E
330
140
330
142
330
144
330
146
330
148
330
14A
330
15E
330
160
102
}
330
9
100
AcDbSymbolTableRecord
100
AcDbDimStyleTableRecord
  2
STANDARD
 70
     0
  3

  4

  5

  6

  7

 40
1.0
 41
0.18
 42
0.0625
 43
0.38
 44
0.18
 45
0.0
 46
0.0
 47
0.0
 48
0.0
140
0.18
141
0.09
142
0.0
143
25.4
144
1.0
145
0.0
146
1.0
147
0.09
 71
     0
 72
     0
 73
     1
 74
     1
 75
     0
 76
     0
 77
     0
 78
     0
170
     0
171
     2
172
     0
173
     0
174
     0
175
     0
176
     0
177
     0
178
     0
270
     2
271
     4
272
     4
273
     2
274
     2
340
18
275
     0
280
     0
281
     0
282
     0
283
     1
284
     0
285
     0
286
     0
287
     3
288
     0
  0
ENDTAB
  0
TABLE
  2
BLOCK_RECORD
  5
C
330
0
100
AcDbSymbolTable
 70
    12
  0
BLOCK_RECORD
  5
1E
102
{ACAD_XDICTIONARY
360
205
102
}
330
C
100
AcDbSymbolTableRecord
100
AcDbBlockTableRecord
  2
*MODEL_SPACE
  0
BLOCK_RECORD
  5
1F
102
{ACAD_XDICTIONARY
360
207
102
}
330
C
100
AcDbSymbolTableRecord
100
AcDbBlockTableRecord
  2
*PAPER_SPACE
  0
BLOCK_RECORD
  5
137
330
C
100
AcDbSymbolTableRecord
100
AcDbBlockTableRecord
  2
*D0
  0
BLOCK_RECORD
  5
139
330
C
100
AcDbSymbolTableRecord
100
AcDbBlockTableRecord
  2
*D1
  0
BLOCK_RECORD
  5
13B
330
C
100
AcDbSymbolTableRecord
100
AcDbBlockTableRecord
  2
*D2
  0
BLOCK_RECORD
  5
13D
330
C
100
AcDbSymbolTableRecord
100
AcDbBlockTableRecord
  2
*D3
  0
BLOCK_RECORD
  5
13F
330
C
100
AcDbSymbolTableRecord
100
AcDbBlockTableRecord
  2
*D4
  0
BLOCK_RECORD
  5
141
330
C
100
AcDbSymbolTableRecord
100
AcDbBlockTableRecord
  2
*D5
  0
BLOCK_RECORD
  5
143
330
C
100
AcDbSymbolTableRecord
100
AcDbBlockTableRecord
  2
*D6
  0
BLOCK_RECORD
  5
145
330
C
100
AcDbSymbolTableRecord
100
AcDbBlockTableRecord
  2
*D7
  0
BLOCK_RECORD
  5
147
330
C
100
AcDbSymbolTableRecord
100
AcDbBlockTableRecord
  2
*D8
  0
BLOCK_RECORD
  5
149
330
C
100
AcDbSymbolTableRecord
100
AcDbBlockTableRecord
  2
*D9
  0
BLOCK_RECORD
  5
15D
330
C
100
AcDbSymbolTableRecord
100
AcDbBlockTableRecord
  2
*D10
  0
BLOCK_RECORD
  5
15F
330
C
100
AcDbSymbolTableRecord
100
AcDbBlockTableRecord
  2
*D11
  0
ENDTAB
  0
ENDSEC
  0
SECTION
  2
BLOCKS
  0
BLOCK
  5
E
330
1E
100
AcDbEntity
  8
0
100
AcDbBlockBegin
  2
*MODEL_SPACE
 70
     0
 10
0.0
 20
0.0
 30
0.0
  3
*MODEL_SPACE
  1

  0
ENDBLK
  5
F
330
1E
100
AcDbEntity
  8
0
100
AcDbBlockEnd
  0
BLOCK
  5
10
330
1F
100
AcDbEntity
 67
     1
  8
0
100
AcDbBlockBegin
  2
*PAPER_SPACE
 70
     0
 10
0.0
 20
0.0
 30
0.0
  3
*PAPER_SPACE
  1

  0
ENDBLK
  5
11
330
1F
100
AcDbEntity
 67
     1
  8
0
100
AcDbBlockEnd
  0
BLOCK
  5
16D
330
137
100
AcDbEntity
  8
0
100
AcDbBlockBegin
  2
*D0
 70
     1
 10
0.0
 20
0.0
 30
0.0
  3
*D0
  1

  0
LINE
  5
16E
330
137
100
AcDbEntity
  8
MO_001_VIEW_PV
  6
BYBLOCK
100
AcDbLine
 10
12.09999999999999
 20
6.5
 30
0.0
 11
12.09999999999999
 21
10.803658
 31
0.0
  0
TEXT
  5
16F
330
137
100
AcDbEntity
  8
MO_001_VIEW_PV
  6
BYBLOCK
100
AcDbText
 10
24.214286
 20
26.625
 30
0.0
 40
1.5
  1
%%P0.5
100
AcDbText
  0
TEXT
  5
170
330
137
100
AcDbEntity
  8
MO_001_VIEW_PV
  6
BYBLOCK
100
AcDbText
 10
12.428571
 20
24.75
 30
0.0
 40
3.0
  1
12.1
100
AcDbText
  0
LINE
  5
171
330
137
100
AcDbEntity
  8
MO_001_VIEW_PV
  6
BYBLOCK
100
AcDbLine
 10
0.0
 20
24.0
 30
0.0
 11
12.09999999999999
 21
24.0
 31
0.0
  0
SOLID
  5
172
330
137
100
AcDbEntity
  8
MO_001_VIEW_PV
  6
BYBLOCK
100
AcDbTrace
 10
3.318259999999999
 20
24.583512
 30
0.0
 11
0.508
 21
24.0
 31
0.0
 12
3.318259999999999
 22
23.416488
 32
0.0
 13
3.318259999999999
 23
23.416488
 33
0.0
  0
SOLID
  5
173
330
137
100
AcDbEntity
  8
MO_001_VIEW_PV
  6
BYBLOCK
100
AcDbTrace
 10
8.781739999999999
 20
23.416488
 30
0.0
 11
11.592
 21
24.0
 31
0.0
 12
8.781739999999999
 22
24.583512
 32
0.0
 13
8.781739999999999
 23
24.583512
 33
0.0
  0
LINE
  5
174
330
137
100
AcDbEntity
  8
MO_001_VIEW_PV
  6
BYBLOCK
100
AcDbLine
 10
0.0
 20
6.299999999999999
 30
0.0
 11
0.0
 21
26.285999
 31
0.0
  0
LINE
  5
175
330
137
100
AcDbEntity
  8
MO_001_VIEW_PV
  6
BYBLOCK
100
AcDbLine
 10
12.09999999999999
 20
21.992722
 30
0.0
 11
12.09999999999999
 21
26.285999
 31
0.0
  0
LINE
  5
176
330
137
100
AcDbEntity
  8
MO_001_VIEW_PV
  6
BYBLOCK
100
AcDbLine
 10
12.09999999999999
 20
24.0
 30
0.0
 11
30.535715
 21
24.0
 31
0.0
  0
ENDBLK
  5
177
330
137
100
AcDbEntity
  8
0
100
AcDbBlockEnd
  0
BLOCK
  5
178
330
139
100
AcDbEntity
  8
0
100
AcDbBlockBegin
  2
*D1
 70
     1
 10
0.0
 20
0.0
 30
0.0
  3
*D1
  1

  0
TEXT
  5
179
330
139
100
AcDbEntity
  8
MO_001_VIEW_PV
  6
BYBLOCK
100
AcDbText
 10
-56.27607099999999
 20
30.000001
 30
0.0
 40
1.5
  1
%%P0.3
100
AcDbText
  0
TEXT
  5
17A
330
139
100
AcDbEntity
  8
MO_001_VIEW_PV
  6
BYBLOCK
100
AcDbText
 10
-65.061785
 20
27.0
 30
0.0
 40
3.0
  1
%%C13
100
AcDbText
  0
LINE
  5
17B
330
139
100
AcDbEntity
  8
MO_001_VIEW_PV
  6
BYBLOCK
100
AcDbLine
 10
-66.5
 20
24.0
 30
0.0
 11
-53.5
 21
24.0
 31
0.0
  0
LINE
  5
17C
330
139
100
AcDbEntity
  8
MO_001_VIEW_PV
  6
BYBLOCK
100
AcDbLine
 10
-66.5
 20
24.0
 30
0.0
 11
-72.85
 21
24.0
 31
0.0
  0
LINE
  5
17D
330
139
100
AcDbEntity
  8
MO_001_VIEW_PV
  6
BYBLOCK
100
AcDbLine
 10
-53.5
 20
24.0
 30
0.0
 11
-47.14999999999999
 21
24.0
 31
0.0
  0
SOLID
  5
17E
330
139
100
AcDbEntity
  8
MO_001_VIEW_PV
  6
BYBLOCK
100
AcDbTrace
 10
-69.81825999999999
 20
23.416488
 30
0.0
 11
-67.008
 21
24.0
 31
0.0
 12
-69.81825999999999
 22
24.583512
 32
0.0
 13
-69.81825999999999
 23
24.583512
 33
0.0
  0
SOLID
  5
17F
330
139
100
AcDbEntity
  8
MO_001_VIEW_PV
  6
BYBLOCK
100
AcDbTrace
 10
-50.18174000000001
 20
24.583512
 30
0.0
 11
-52.99199999999999
 21
24.0
 31
0.0
 12
-50.18174000000001
 22
23.416488
 32
0.0
 13
-50.18174000000001
 23
23.416488
 33
0.0
  0
LINE
  5
180
330
139
100
AcDbEntity
  8
MO_001_VIEW_PV
  6
BYBLOCK
100
AcDbLine
 10
-66.5
 20
0.0
 30
0.0
 11
-66.5
 21
26.285999
 31
0.0
  0
LINE
  5
181
330
139
100
AcDbEntity
  8
MO_001_VIEW_PV
  6
BYBLOCK
100
AcDbLine
 10
-53.5
 20
0.0
 30
0.0
 11
-53.5
 21
26.285999
 31
0.0
  0
LINE
  5
182
330
139
100
AcDbEntity
  8
MO_001_VIEW_PV
  6
BYBLOCK
100
AcDbLine
 10
-53.5
 20
24.0
 30
0.0
 11
-49.954643
 21
24.0
 31
0.0
  0
ENDBLK
  5
183
330
139
100
AcDbEntity
  8
0
100
AcDbBlockEnd
  0
BLOCK
  5
184
330
13B
100
AcDbEntity
  8
0
100
AcDbBlockBegin
  2
*D2
 70
     1
 10
0.0
 20
0.0
 30
0.0
  3
*D2
  1

  0
LINE
  5
185
330
13B
100
AcDbEntity
  8
MO_001_VIEW_PV
  6
BYBLOCK
100
AcDbLine
 10
-66.0
 20
18.0
 30
0.0
 11
-54.0
 21
18.0
 31
0.0
  0
SOLID
  5
186
330
13B
100
AcDbEntity
  8
MO_001_VIEW_PV
  6
BYBLOCK
100
AcDbTrace
 10
-62.68174000000001
 20
18.58351199999999
 30
0.0
 11
-65.492
 21
18.0
 31
0.0
 12
-62.68174000000001
 22
17.416488
 32
0.0
 13
-62.68174000000001
 23
17.416488
 33
0.0
  0
SOLID
  5
187
330
13B
100
AcDbEntity
  8
MO_001_VIEW_PV
  6
BYBLOCK
100
AcDbTrace
 10
-57.31825999999999
 20
17.416488
 30
0.0
 11
-54.508
 21
18.0
 31
0.0
 12
-57.31825999999999
 22
18.58351199999999
 32
0.0
 13
-57.31825999999999
 23
18.58351199999999
 33
0.0
  0
LINE
  5
188
330
13B
100
AcDbEntity
  8
MO_001_VIEW_PV
  6
BYBLOCK
100
AcDbLine
 10
-66.0
 20
3.464101999999999
 30
0.0
 11
-66.0
 21
20.285999
 31
0.0
  0
LINE
  5
189
330
13B
100
AcDbEntity
  8
MO_001_VIEW_PV
  6
BYBLOCK
100
AcDbLine
 10
-54.0
 20
3.464101999999999
 30
0.0
 11
-54.0
 21
20.285999
 31
0.0
  0
TEXT
  5
18A
330
13B
100
AcDbEntity
  8
MO_001_VIEW_PV
  6
BYBLOCK
100
AcDbText
 10
-46.07663099999999
 20
20.625
 30
0.0
 40
1.5
  1
%%P0.2
100
AcDbText
  0
TEXT
  5
18B
330
13B
100
AcDbEntity
  8
MO_001_VIEW_PV
  6
BYBLOCK
100
AcDbText
 10
-51.862345
 20
18.75
 30
0.0
 40
3.0
  1
12
100
AcDbText
  0
LINE
  5
18C
330
13B
100
AcDbEntity
  8
MO_001_VIEW_PV
  6
BYBLOCK
100
AcDbLine
 10
-54.0
 20
18.0
 30
0.0
 11
-39.755203
 21
18.0
 31
0.0
  0
ENDBLK
  5
18D
330
13B
100
AcDbEntity
  8
0
100
AcDbBlockEnd
  0
BLOCK
  5
18E
330
13D
100
AcDbEntity
  8
0
100
AcDbBlockBegin
  2
*D3
 70
     1
 10
0.0
 20
0.0
 30
0.0
  3
*D3
  1

  0
LINE
  5
18F
330
13D
100
AcDbEntity
  8
MO_001_VIEW_PV
  6
BYBLOCK
100
AcDbLine
 10
-56.099998
 20
12.0
 30
0.0
 11
-60.0
 21
12.0
 31
0.0
  0
LINE
  5
190
330
13D
100
AcDbEntity
  8
MO_001_VIEW_PV
  6
BYBLOCK
100
AcDbLine
 10
-56.099998
 20
12.0
 30
0.0
 11
-49.749999
 21
12.0
 31
0.0
  0
LINE
  5
191
330
13D
100
AcDbEntity
  8
MO_001_VIEW_PV
  6
BYBLOCK
100
AcDbLine
 10
-60.0
 20
12.0
 30
0.0
 11
-66.34999999999999
 21
12.0
 31
0.0
  0
SOLID
  5
192
330
13D
100
AcDbEntity
  8
MO_001_VIEW_PV
  6
BYBLOCK
100
AcDbTrace
 10
-52.781738
 20
12.58351199999999
 30
0.0
 11
-55.591998
 21
12.0
 31
0.0
 12
-52.781738
 22
11.416488
 32
0.0
 13
-52.781738
 23
11.416488
 33
0.0
  0
SOLID
  5
193
330
13D
100
AcDbEntity
  8
MO_001_VIEW_PV
  6
BYBLOCK
100
AcDbTrace
 10
-63.31825999999999
 20
11.416488
 30
0.0
 11
-60.508
 21
12.0
 31
0.0
 12
-63.31825999999999
 22
12.58351199999999
 32
0.0
 13
-63.31825999999999
 23
12.58351199999999
 33
0.0
  0
LINE
  5
194
330
13D
100
AcDbEntity
  8
MO_001_VIEW_PV
  6
BYBLOCK
100
AcDbLine
 10
-56.099998
 20
2.244991999999999
 30
0.0
 11
-56.099998
 21
14.286
 31
0.0
  0
LINE
  5
195
330
13D
100
AcDbEntity
  8
MO_001_VIEW_PV
  6
BYBLOCK
100
AcDbLine
 10
-60.0
 20
10.0
 30
0.0
 11
-60.0
 21
14.286
 31
0.0
  0
TEXT
  5
196
330
13D
100
AcDbEntity
  8
MO_001_VIEW_PV
  6
BYBLOCK
100
AcDbText
 10
-42.139245
 20
14.625
 30
0.0
 40
1.5
  1
%%P0.2
100
AcDbText
  0
TEXT
  5
197
330
13D
100
AcDbEntity
  8
MO_001_VIEW_PV
  6
BYBLOCK
100
AcDbText
 10
-50.92496
 20
12.75
 30
0.0
 40
3.0
  1
3.9
100
AcDbText
  0
LINE
  5
198
330
13D
100
AcDbEntity
  8
MO_001_VIEW_PV
  6
BYBLOCK
100
AcDbLine
 10
-35.817818
 20
12.0
 30
0.0
 11
-56.099998
 21
12.0
 31
0.0
  0
ENDBLK
  5
199
330
13D
100
AcDbEntity
  8
0
100
AcDbBlockEnd
  0
BLOCK
  5
19A
330
13F
100
AcDbEntity
  8
0
100
AcDbBlockBegin
  2
*D4
 70
     1
 10
0.0
 20
0.0
 30
0.0
  3
*D4
  1

  0
TEXT
  5
19B
330
13F
100
AcDbEntity
  8
MO_001_VIEW_PV
  6
BYBLOCK
100
AcDbText
 10
-32.625
 20
12.843051
 30
0.0
 40
1.5
  1
%%P0.05
 50
90.0
100
AcDbText
  0
TEXT
  5
19C
330
13F
100
AcDbEntity
  8
MO_001_VIEW_PV
  6
BYBLOCK
100
AcDbText
 10
-30.75
 20
7.057336
 30
0.0
 40
3.0
  1
%%C5
 50
90.0
100
AcDbText
  0
LINE
  5
19D
330
13F
100
AcDbEntity
  8
MO_001_VIEW_PV
  6
BYBLOCK
100
AcDbLine
 10
-30.0
 20
2.5
 30
0.0
 11
-30.0
 21
-2.5
 31
0.0
  0
LINE
  5
19E
330
13F
100
AcDbEntity
  8
MO_001_VIEW_PV
  6
BYBLOCK
100
AcDbLine
 10
-30.0
 20
2.5
 30
0.0
 11
-30.0
 21
8.849999999999999
 31
0.0
  0
LINE
  5
19F
330
13F
100
AcDbEntity
  8
MO_001_VIEW_PV
  6
BYBLOCK
100
AcDbLine
 10
-30.0
 20
-2.5
 30
0.0
 11
-30.0
 21
-8.849999999999999
 31
0.0
  0
SOLID
  5
1A0
330
13F
100
AcDbEntity
  8
MO_001_VIEW_PV
  6
BYBLOCK
100
AcDbTrace
 10
-30.583512
 20
5.818259999999999
 30
0.0
 11
-30.0
 21
3.008
 31
0.0
 12
-29.416488
 22
5.818259999999999
 32
0.0
 13
-29.416488
 23
5.818259999999999
 33
0.0
  0
SOLID
  5
1A1
330
13F
100
AcDbEntity
  8
MO_001_VIEW_PV
  6
BYBLOCK
100
AcDbTrace
 10
-29.416488
 20
-5.818259999999999
 30
0.0
 11
-30.0
 21
-3.008
 31
0.0
 12
-30.583512
 22
-5.818259999999999
 32
0.0
 13
-30.583512
 23
-5.818259999999999
 33
0.0
  0
LINE
  5
1A2
330
13F
100
AcDbEntity
  8
MO_001_VIEW_PV
  6
BYBLOCK
100
AcDbLine
 10
-17.50000199999999
 20
2.5
 30
0.0
 11
-32.28599899999999
 21
2.5
 31
0.0
  0
LINE
  5
1A3
330
13F
100
AcDbEntity
  8
MO_001_VIEW_PV
  6
BYBLOCK
100
AcDbLine
 10
-17.50000199999999
 20
-2.5
 30
0.0
 11
-32.28599899999999
 21
-2.5
 31
0.0
  0
LINE
  5
1A4
330
13F
100
AcDbEntity
  8
MO_001_VIEW_PV
  6
BYBLOCK
100
AcDbLine
 10
-30.0
 20
20.66447999999999
 30
0.0
 11
-30.0
 21
2.5
 31
0.0
  0
ENDBLK
  5
1A5
330
13F
100
AcDbEntity
  8
0
100
AcDbBlockEnd
  0
BLOCK
  5
1A6
330
141
100
AcDbEntity
  8
0
100
AcDbBlockBegin
  2
*D5
 70
     1
 10
0.0
 20
0.0
 30
0.0
  3
*D5
  1

  0
TEXT
  5
1A7
330
141
100
AcDbEntity
  8
MO_001_VIEW_PV
  6
BYBLOCK
100
AcDbText
 10
-26.625
 20
13.71428599999999
 30
0.0
 40
1.5
  1
%%P0.1
 50
90.0
100
AcDbText
  0
TEXT
  5
1A8
330
141
100
AcDbEntity
  8
MO_001_VIEW_PV
  6
BYBLOCK
100
AcDbText
 10
-24.75
 20
4.928570999999999
 30
0.0
 40
3.0
  1
1.8
 50
90.0
100
AcDbText
  0
LINE
  5
1A9
330
141
100
AcDbEntity
  8
MO_001_VIEW_PV
  6
BYBLOCK
100
AcDbLine
 10
-24.0
 20
0.9
 30
0.0
 11
-24.0
 21
-0.9
 31
0.0
  0
LINE
  5
1AA
330
141
100
AcDbEntity
  8
MO_001_VIEW_PV
  6
BYBLOCK
100
AcDbLine
 10
-24.0
 20
0.9
 30
0.0
 11
-24.0
 21
7.25
 31
0.0
  0
LINE
  5
1AB
330
141
100
AcDbEntity
  8
MO_001_VIEW_PV
  6
BYBLOCK
100
AcDbLine
 10
-24.0
 20
-0.9
 30
0.0
 11
-24.0
 21
-7.25
 31
0.0
  0
SOLID
  5
1AC
330
141
100
AcDbEntity
  8
MO_001_VIEW_PV
  6
BYBLOCK
100
AcDbTrace
 10
-24.583512
 20
4.218259999999999
 30
0.0
 11
-24.0
 21
1.408
 31
0.0
 12
-23.416488
 22
4.218259999999999
 32
0.0
 13
-23.416488
 23
4.218259999999999
 33
0.0
  0
SOLID
  5
1AD
330
141
100
AcDbEntity
  8
MO_001_VIEW_PV
  6
BYBLOCK
100
AcDbTrace
 10
-23.416488
 20
-4.218259999999999
 30
0.0
 11
-24.0
 21
-1.408
 31
0.0
 12
-24.583512
 22
-4.218259999999999
 32
0.0
 13
-24.583512
 23
-4.218259999999999
 33
0.0
  0
LINE
  5
1AE
330
141
100
AcDbEntity
  8
MO_001_VIEW_PV
  6
BYBLOCK
100
AcDbLine
 10
-17.50000199999999
 20
0.9
 30
0.0
 11
-26.285999
 21
0.9
 31
0.0
  0
LINE
  5
1AF
330
141
100
AcDbEntity
  8
MO_001_VIEW_PV
  6
BYBLOCK
100
AcDbLine
 10
-17.50000199999999
 20
-0.9
 30
0.0
 11
-26.285999
 21
-0.9
 31
0.0
  0
LINE
  5
1B0
330
141
100
AcDbEntity
  8
MO_001_VIEW_PV
  6
BYBLOCK
100
AcDbLine
 10
-24.0
 20
20.035715
 30
0.0
 11
-24.0
 21
0.9
 31
0.0
  0
ENDBLK
  5
1B1
330
141
100
AcDbEntity
  8
0
100
AcDbBlockEnd
  0
BLOCK
  5
1B2
330
143
100
AcDbEntity
  8
0
100
AcDbBlockBegin
  2
*D6
 70
     1
 10
0.0
 20
0.0
 30
0.0
  3
*D6
  1

  0
TEXT
  5
1B3
330
143
100
AcDbEntity
  8
MO_001_VIEW_PV
  6
BYBLOCK
100
AcDbText
 10
3.527747
 20
-17.45607
 30
0.0
 40
1.5
  1
%%P0.2
100
AcDbText
  0
TEXT
  5
1B4
330
143
100
AcDbEntity
  8
MO_001_VIEW_PV
  6
BYBLOCK
100
AcDbText
 10
-5.257966999999999
 20
-19.33107
 30
0.0
 40
3.0
  1
6.5
100
AcDbText
  0
LINE
  5
1B5
330
143
100
AcDbEntity
  8
MO_001_VIEW_PV
  6
BYBLOCK
100
AcDbLine
 10
-11.00000099999999
 20
-20.08107
 30
0.0
 11
-17.50000199999999
 21
-20.08107
 31
0.0
  0
LINE
  5
1B6
330
143
100
AcDbEntity
  8
MO_001_VIEW_PV
  6
BYBLOCK
100
AcDbLine
 10
-11.00000099999999
 20
-20.08107
 30
0.0
 11
-4.650001
 21
-20.08107
 31
0.0
  0
LINE
  5
1B7
330
143
100
AcDbEntity
  8
MO_001_VIEW_PV
  6
BYBLOCK
100
AcDbLine
 10
-17.50000199999999
 20
-20.08107
 30
0.0
 11
-23.85000199999999
 21
-20.08107
 31
0.0
  0
SOLID
  5
1B8
330
143
100
AcDbEntity
  8
MO_001_VIEW_PV
  6
BYBLOCK
100
AcDbTrace
 10
-7.681741
 20
-19.49755799999999
 30
0.0
 11
-10.49200099999999
 21
-20.08107
 31
0.0
 12
-7.681741
 22
-20.664582
 32
0.0
 13
-7.681741
 23
-20.664582
 33
0.0
  0
SOLID
  5
1B9
330
143
100
AcDbEntity
  8
MO_001_VIEW_PV
  6
BYBLOCK
100
AcDbTrace
 10
-20.818262
 20
-20.664582
 30
0.0
 11
-18.00800199999999
 21
-20.08107
 31
0.0
 12
-20.818262
 22
-19.49755799999999
 32
0.0
 13
-20.818262
 23
-19.49755799999999
 33
0.0
  0
LINE
  5
1BA
330
143
100
AcDbEntity
  8
MO_001_VIEW_PV
  6
BYBLOCK
100
AcDbLine
 10
-11.00000099999999
 20
-0.9
 30
0.0
 11
-11.00000099999999
 21
-22.367069
 31
0.0
  0
LINE
  5
1BB
330
143
100
AcDbEntity
  8
MO_001_VIEW_PV
  6
BYBLOCK
100
AcDbLine
 10
-17.50000199999999
 20
-2.5
 30
0.0
 11
-17.50000199999999
 21
-22.367069
 31
0.0
  0
LINE
  5
1BC
330
143
100
AcDbEntity
  8
MO_001_VIEW_PV
  6
BYBLOCK
100
AcDbLine
 10
9.849175
 20
-20.08107
 30
0.0
 11
-11.00000099999999
 21
-20.08107
 31
0.0
  0
ENDBLK
  5
1BD
330
143
100
AcDbEntity
  8
0
100
AcDbBlockEnd
  0
BLOCK
  5
1BE
330
145
100
AcDbEntity
  8
0
100
AcDbBlockBegin
  2
*D7
 70
     1
 10
0.0
 20
0.0
 30
0.0
  3
*D7
  1

  0
TEXT
  5
1BF
330
145
100
AcDbEntity
  8
MO_001_VIEW_PV
  6
BYBLOCK
100
AcDbText
 10
-5.879366
 20
26.625
 30
0.0
 40
1.5
  1
%%P0.6
100
AcDbText
  0
TEXT
  5
1C0
330
145
100
AcDbEntity
  8
MO_001_VIEW_PV
  6
BYBLOCK
100
AcDbText
 10
-17.66507999999999
 20
24.75
 30
0.0
 40
3.0
  1
17.5
100
AcDbText
  0
LINE
  5
1C1
330
145
100
AcDbEntity
  8
MO_001_VIEW_PV
  6
BYBLOCK
100
AcDbLine
 10
-17.50000199999999
 20
24.0
 30
0.0
 11
0.0
 21
24.0
 31
0.0
  0
LINE
  5
1C2
330
145
100
AcDbEntity
  8
MO_001_VIEW_PV
  6
BYBLOCK
100
AcDbLine
 10
-17.50000199999999
 20
24.0
 30
0.0
 11
-23.85000199999999
 21
24.0
 31
0.0
  0
LINE
  5
1C3
330
145
100
AcDbEntity
  8
MO_001_VIEW_PV
  6
BYBLOCK
100
AcDbLine
 10
0.0
 20
24.0
 30
0.0
 11
6.349999999999999
 21
24.0
 31
0.0
  0
SOLID
  5
1C4
330
145
100
AcDbEntity
  8
MO_001_VIEW_PV
  6
BYBLOCK
100
AcDbTrace
 10
-20.818262
 20
23.416488
 30
0.0
 11
-18.00800199999999
 21
24.0
 31
0.0
 12
-20.818262
 22
24.583512
 32
0.0
 13
-20.818262
 23
24.583512
 33
0.0
  0
SOLID
  5
1C5
330
145
100
AcDbEntity
  8
MO_001_VIEW_PV
  6
BYBLOCK
100
AcDbTrace
 10
3.318259999999999
 20
24.583512
 30
0.0
 11
0.508
 21
24.0
 31
0.0
 12
3.318259999999999
 22
23.416488
 32
0.0
 13
3.318259999999999
 23
23.416488
 33
0.0
  0
LINE
  5
1C6
330
145
100
AcDbEntity
  8
MO_001_VIEW_PV
  6
BYBLOCK
100
AcDbLine
 10
-17.50000199999999
 20
2.5
 30
0.0
 11
-17.50000199999999
 21
26.285999
 31
0.0
  0
LINE
  5
1C7
330
145
100
AcDbEntity
  8
MO_001_VIEW_PV
  6
BYBLOCK
100
AcDbLine
 10
0.0
 20
6.299999999999999
 30
0.0
 11
0.0
 21
26.285999
 31
0.0
  0
LINE
  5
1C8
330
145
100
AcDbEntity
  8
MO_001_VIEW_PV
  6
BYBLOCK
100
AcDbLine
 10
-18.629366
 20
24.0
 30
0.0
 11
-17.50000199999999
 21
24.0
 31
0.0
  0
LINE
  5
1C9
330
145
100
AcDbEntity
  8
MO_001_VIEW_PV
  6
BYBLOCK
100
AcDbLine
 10
0.0
 20
24.0
 30
0.0
 11
0.442063
 21
24.0
 31
0.0
  0
ENDBLK
  5
1CA
330
145
100
AcDbEntity
  8
0
100
AcDbBlockEnd
  0
BLOCK
  5
1CB
330
147
100
AcDbEntity
  8
0
100
AcDbBlockBegin
  2
*D8
 70
     1
 10
0.0
 20
0.0
 30
0.0
  3
*D8
  1

  0
TEXT
  5
1CC
330
147
100
AcDbEntity
  8
MO_001_VIEW_PV
  6
BYBLOCK
100
AcDbText
 10
12.522746
 20
20.625
 30
0.0
 40
1.5
  1
%%P0.5
100
AcDbText
  0
TEXT
  5
1CD
330
147
100
AcDbEntity
  8
MO_001_VIEW_PV
  6
BYBLOCK
100
AcDbText
 10
0.7370320000000001
 20
18.75
 30
0.0
 40
3.0
  1
14.3
100
AcDbText
  0
LINE
  5
1CE
330
147
100
AcDbEntity
  8
MO_001_VIEW_PV
  6
BYBLOCK
100
AcDbLine
 10
-14.3
 20
18.0
 30
0.0
 11
0.0
 21
18.0
 31
0.0
  0
SOLID
  5
1CF
330
147
100
AcDbEntity
  8
MO_001_VIEW_PV
  6
BYBLOCK
100
AcDbTrace
 10
-10.98173999999999
 20
18.58351199999999
 30
0.0
 11
-13.79199999999999
 21
18.0
 31
0.0
 12
-10.98173999999999
 22
17.416488
 32
0.0
 13
-10.98173999999999
 23
17.416488
 33
0.0
  0
SOLID
  5
1D0
330
147
100
AcDbEntity
  8
MO_001_VIEW_PV
  6
BYBLOCK
100
AcDbTrace
 10
-3.318259999999999
 20
17.416488
 30
0.0
 11
-0.508
 21
18.0
 31
0.0
 12
-3.318259999999999
 22
18.58351199999999
 32
0.0
 13
-3.318259999999999
 23
18.58351199999999
 33
0.0
  0
LINE
  5
1D1
330
147
100
AcDbEntity
  8
MO_001_VIEW_PV
  6
BYBLOCK
100
AcDbLine
 10
-14.3
 20
4.208938999999999
 30
0.0
 11
-14.3
 21
20.285999
 31
0.0
  0
LINE
  5
1D2
330
147
100
AcDbEntity
  8
MO_001_VIEW_PV
  6
BYBLOCK
100
AcDbLine
 10
0.0
 20
6.299999999999999
 30
0.0
 11
0.0
 21
20.285999
 31
0.0
  0
LINE
  5
1D3
330
147
100
AcDbEntity
  8
MO_001_VIEW_PV
  6
BYBLOCK
100
AcDbLine
 10
0.0
 20
18.0
 30
0.0
 11
18.84417499999999
 21
18.0
 31
0.0
  0
ENDBLK
  5
1D4
330
147
100
AcDbEntity
  8
0
100
AcDbBlockEnd
  0
BLOCK
  5
1D5
330
149
100
AcDbEntity
  8
0
100
AcDbBlockBegin
  2
*D9
 70
     1
 10
0.0
 20
0.0
 30
0.0
  3
*D9
  1

  0
TEXT
  5
1D6
330
149
100
AcDbEntity
  8
MO_001_VIEW_PV
  6
BYBLOCK
100
AcDbText
 10
12.784804
 20
14.625
 30
0.0
 40
1.5
  1
%%P0.2
100
AcDbText
  0
TEXT
  5
1D7
330
149
100
AcDbEntity
  8
MO_001_VIEW_PV
  6
BYBLOCK
100
AcDbText
 10
3.99909
 20
12.75
 30
0.0
 40
3.0
  1
6.4
100
AcDbText
  0
LINE
  5
1D8
330
149
100
AcDbEntity
  8
MO_001_VIEW_PV
  6
BYBLOCK
100
AcDbLine
 10
-6.4
 20
12.0
 30
0.0
 11
0.0
 21
12.0
 31
0.0
  0
LINE
  5
1D9
330
149
100
AcDbEntity
  8
MO_001_VIEW_PV
  6
BYBLOCK
100
AcDbLine
 10
-6.4
 20
12.0
 30
0.0
 11
-12.75
 21
12.0
 31
0.0
  0
LINE
  5
1DA
330
149
100
AcDbEntity
  8
MO_001_VIEW_PV
  6
BYBLOCK
100
AcDbLine
 10
0.0
 20
12.0
 30
0.0
 11
6.349999999999999
 21
12.0
 31
0.0
  0
SOLID
  5
1DB
330
149
100
AcDbEntity
  8
MO_001_VIEW_PV
  6
BYBLOCK
100
AcDbTrace
 10
-9.71826
 20
11.416488
 30
0.0
 11
-6.907999999999999
 21
12.0
 31
0.0
 12
-9.71826
 22
12.58351199999999
 32
0.0
 13
-9.71826
 23
12.58351199999999
 33
0.0
  0
SOLID
  5
1DC
330
149
100
AcDbEntity
  8
MO_001_VIEW_PV
  6
BYBLOCK
100
AcDbTrace
 10
3.318259999999999
 20
12.58351199999999
 30
0.0
 11
0.508
 21
12.0
 31
0.0
 12
3.318259999999999
 22
11.416488
 32
0.0
 13
3.318259999999999
 23
11.416488
 33
0.0
  0
LINE
  5
1DD
330
149
100
AcDbEntity
  8
MO_001_VIEW_PV
  6
BYBLOCK
100
AcDbLine
 10
-6.4
 20
3.75
 30
0.0
 11
-6.4
 21
14.286
 31
0.0
  0
LINE
  5
1DE
330
149
100
AcDbEntity
  8
MO_001_VIEW_PV
  6
BYBLOCK
100
AcDbLine
 10
0.0
 20
6.299999999999999
 30
0.0
 11
0.0
 21
14.286
 31
0.0
  0
LINE
  5
1DF
330
149
100
AcDbEntity
  8
MO_001_VIEW_PV
  6
BYBLOCK
100
AcDbLine
 10
0.0
 20
12.0
 30
0.0
 11
19.106234
 21
12.0
 31
0.0
  0
ENDBLK
  5
1E0
330
149
100
AcDbEntity
  8
0
100
AcDbBlockEnd
  0
BLOCK
  5
1E1
330
15D
100
AcDbEntity
  8
0
100
AcDbBlockBegin
  2
*D10
 70
     1
 10
0.0
 20
0.0
 30
0.0
  3
*D10
  1

  0
LINE
  5
1E2
330
15D
100
AcDbEntity
  8
MO_001_VIEW_PV
  6
BYBLOCK
100
AcDbLine
 10
43.400002
 20
3.0
 30
0.0
 11
52.0
 21
3.0
 31
0.0
  0
LINE
  5
1E3
330
15D
100
AcDbEntity
  8
MO_001_VIEW_PV
  6
BYBLOCK
100
AcDbLine
 10
43.400002
 20
3.0
 30
0.0
 11
37.050002
 21
3.0
 31
0.0
  0
LINE
  5
1E4
330
15D
100
AcDbEntity
  8
MO_001_VIEW_PV
  6
BYBLOCK
100
AcDbLine
 10
52.0
 20
3.0
 30
0.0
 11
58.35
 21
3.0
 31
0.0
  0
SOLID
  5
1E5
330
15D
100
AcDbEntity
  8
MO_001_VIEW_PV
  6
BYBLOCK
100
AcDbTrace
 10
40.081741
 20
2.416488
 30
0.0
 11
42.892002
 21
3.0
 31
0.0
 12
40.081741
 22
3.583511
 32
0.0
 13
40.081741
 23
3.583511
 33
0.0
  0
SOLID
  5
1E6
330
15D
100
AcDbEntity
  8
MO_001_VIEW_PV
  6
BYBLOCK
100
AcDbTrace
 10
55.31825999999999
 20
3.583511
 30
0.0
 11
52.508
 21
3.0
 31
0.0
 12
55.31825999999999
 22
2.416488
 32
0.0
 13
55.31825999999999
 23
2.416488
 33
0.0
  0
LINE
  5
1E7
330
15D
100
AcDbEntity
  8
MO_001_VIEW_PV
  6
BYBLOCK
100
AcDbLine
 10
43.400002
 20
-15.0
 30
0.0
 11
43.400002
 21
5.285998999999999
 31
0.0
  0
LINE
  5
1E8
330
15D
100
AcDbEntity
  8
MO_001_VIEW_PV
  6
BYBLOCK
100
AcDbLine
 10
52.0
 20
-12.728437
 30
0.0
 11
52.0
 21
5.285998999999999
 31
0.0
  0
TEXT
  5
1E9
330
15D
100
AcDbEntity
  8
MO_001_VIEW_PV
  6
BYBLOCK
100
AcDbText
 10
65.215125
 20
5.625
 30
0.0
 40
1.5
  1
%%P0.1
100
AcDbText
  0
TEXT
  5
1EA
330
15D
100
AcDbEntity
  8
MO_001_VIEW_PV
  6
BYBLOCK
100
AcDbText
 10
56.429411
 20
3.75
 30
0.0
 40
3.0
  1
8.6
100
AcDbText
  0
LINE
  5
1EB
330
15D
100
AcDbEntity
  8
MO_001_VIEW_PV
  6
BYBLOCK
100
AcDbLine
 10
52.0
 20
3.0
 30
0.0
 11
71.536552
 21
3.0
 31
0.0
  0
ENDBLK
  5
1EC
330
15D
100
AcDbEntity
  8
0
100
AcDbBlockEnd
  0
BLOCK
  5
1ED
330
15F
100
AcDbEntity
  8
0
100
AcDbBlockBegin
  2
*D11
 70
     1
 10
0.0
 20
0.0
 30
0.0
  3
*D11
  1

  0
LINE
  5
1EE
330
15F
100
AcDbEntity
  8
MO_001_VIEW_PV
  6
BYBLOCK
100
AcDbLine
 10
48.0
 20
-3.0
 30
0.0
 11
52.0
 21
-3.0
 31
0.0
  0
LINE
  5
1EF
330
15F
100
AcDbEntity
  8
MO_001_VIEW_PV
  6
BYBLOCK
100
AcDbLine
 10
48.0
 20
-3.0
 30
0.0
 11
41.65
 21
-3.0
 31
0.0
  0
LINE
  5
1F0
330
15F
100
AcDbEntity
  8
MO_001_VIEW_PV
  6
BYBLOCK
100
AcDbLine
 10
52.0
 20
-3.0
 30
0.0
 11
58.35
 21
-3.0
 31
0.0
  0
SOLID
  5
1F1
330
15F
100
AcDbEntity
  8
MO_001_VIEW_PV
  6
BYBLOCK
100
AcDbTrace
 10
44.68174
 20
-3.583512
 30
0.0
 11
47.492
 21
-3.0
 31
0.0
 12
44.68174
 22
-2.416488
 32
0.0
 13
44.68174
 23
-2.416488
 33
0.0
  0
SOLID
  5
1F2
330
15F
100
AcDbEntity
  8
MO_001_VIEW_PV
  6
BYBLOCK
100
AcDbTrace
 10
55.31825999999999
 20
-2.416488
 30
0.0
 11
52.508
 21
-3.0
 31
0.0
 12
55.31825999999999
 22
-3.583512
 32
0.0
 13
55.31825999999999
 23
-3.583512
 33
0.0
  0
LINE
  5
1F3
330
15F
100
AcDbEntity
  8
MO_001_VIEW_PV
  6
BYBLOCK
100
AcDbLine
 10
48.0
 20
-7.0
 30
0.0
 11
48.0
 21
-0.7140000000000001
 31
0.0
  0
LINE
  5
1F4
330
15F
100
AcDbEntity
  8
MO_001_VIEW_PV
  6
BYBLOCK
100
AcDbLine
 10
52.0
 20
-12.728437
 30
0.0
 11
52.0
 21
-0.7140000000000001
 31
0.0
  0
TEXT
  5
1F5
330
15F
100
AcDbEntity
  8
MO_001_VIEW_PV
  6
BYBLOCK
100
AcDbText
 10
55.92857099999999
 20
-2.25
 30
0.0
 40
3.0
  1
(4)
100
AcDbText
  0
LINE
  5
1F6
330
15F
100
AcDbEntity
  8
MO_001_VIEW_PV
  6
BYBLOCK
100
AcDbLine
 10
52.0
 20
-3.0
 30
0.0
 11
65.035713
 21
-3.0
 31
0.0
  0
ENDBLK
  5
1F7
330
15F
100
AcDbEntity
  8
0
100
AcDbBlockEnd
  0
ENDSEC
  0
SECTION
  2
ENTITIES
  0
TEXT
  5
4B
330
1E
100
AcDbEntity
  8
OVERLAY_MAP
  6
C_SOLID_L
100
AcDbText
 10
0.0
 20
6.349999999999999
 30
0.0
 40
4.1672
  1
Model Overlay Name
100
AcDbText
  0
TEXT
  5
4C
330
1E
100
AcDbEntity
  8
OVERLAY_MAP
  6
C_SOLID_L
100
AcDbText
 10
126.999998
 20
0.0
 30
0.0
 40
4.1672
  1
Number
100
AcDbText
  0
TEXT
  5
4D
330
1E
100
AcDbEntity
  8
OVERLAY_MAP
  6
C_SOLID_L
100
AcDbText
 10
177.7999969999999
 20
0.0
 30
0.0
 40
4.1672
  1
File Text
100
AcDbText
  0
TEXT
  5
4E
330
1E
100
AcDbEntity
  8
OVERLAY_MAP
  6
C_SOLID_L
100
AcDbText
 10
0.0
 20
-6.349999999999999
 30
0.0
 40
4.1672
  1
tb s50spull 
100
AcDbText
  0
TEXT
  5
4F
330
1E
100
AcDbEntity
  8
OVERLAY_MAP
  6
C_SOLID_L
100
AcDbText
 10
126.999998
 20
-6.349999999999999
 30
0.0
 40
4.1672
  1
001
100
AcDbText
  0
TEXT
  5
50
330
1E
100
AcDbEntity
  8
OVERLAY_MAP
  6
C_SOLID_L
100
AcDbText
 10
177.7999969999999
 20
-6.349999999999999
 30
0.0
 40
4.1672
  1
                                                                   00139
100
AcDbText
  0
LINE
  5
51
330
1E
100
AcDbEntity
  8
MO_001_VIEW_PV
  6
C_SOLID_M
100
AcDbLine
 10
0.6
 20
6.5
 30
0.0
 11
0.6
 21
-6.5
 31
0.0
  0
LINE
  5
52
330
1E
100
AcDbEntity
  8
MO_001_VIEW_PV
  6
C_CENTER_L
100
AcDbLine
 10
-19.887129
 20
0.0
 30
0.0
 11
13.412844
 21
0.0
 31
0.0
  0
LINE
  5
53
330
1E
100
AcDbEntity
  8
MO_001_VIEW_PV
  6
C_SOLID_M
100
AcDbLine
 10
0.2
 20
6.5
 30
0.0
 11
12.09999999999999
 21
6.5
 31
0.0
  0
LINE
  5
54
330
1E
100
AcDbEntity
  8
MO_001_VIEW_PV
  6
C_SOLID_M
100
AcDbLine
 10
0.2
 20
-6.5
 30
0.0
 11
12.09999999999999
 21
-6.5
 31
0.0
  0
LINE
  5
55
330
1E
100
AcDbEntity
  8
MO_001_VIEW_PV
  6
C_SOLID_M
100
AcDbLine
 10
12.09999999999999
 20
6.5
 30
0.0
 11
12.09999999999999
 21
-6.5
 31
0.0
  0
LINE
  5
56
330
1E
100
AcDbEntity
  8
MO_001_VIEW_PV
  6
C_SOLID_M
100
AcDbLine
 10
0.0
 20
6.299999999999999
 30
0.0
 11
0.0
 21
-6.299999999999999
 31
0.0
  0
LINE
  5
57
330
1E
100
AcDbEntity
  8
MO_001_VIEW_PV
  6
C_SOLID_M
100
AcDbLine
 10
-6.4
 20
3.75
 30
0.0
 11
-6.4
 21
-3.75
 31
0.0
  0
LINE
  5
58
330
1E
100
AcDbEntity
  8
MO_001_VIEW_PV
  6
C_SOLID_M
100
AcDbLine
 10
-5.65
 20
4.5
 30
0.0
 11
-4.275
 21
4.5
 31
0.0
  0
LINE
  5
59
330
1E
100
AcDbEntity
  8
MO_001_VIEW_PV
  6
C_SOLID_M
100
AcDbLine
 10
-5.65
 20
-4.5
 30
0.0
 11
-4.275
 21
-4.5
 31
0.0
  0
LINE
  5
5A
330
1E
100
AcDbEntity
  8
MO_001_VIEW_PV
  6
C_SOLID_M
100
AcDbLine
 10
-5.65
 20
-2.244991999999999
 30
0.0
 11
-5.65
 21
-4.5
 31
0.0
  0
LINE
  5
5B
330
1E
100
AcDbEntity
  8
MO_001_VIEW_PV
  6
C_SOLID_M
100
AcDbLine
 10
-6.4
 20
3.75
 30
0.0
 11
-4.275
 21
3.75
 31
0.0
  0
LINE
  5
5C
330
1E
100
AcDbEntity
  8
MO_001_VIEW_PV
  6
C_SOLID_M
100
AcDbLine
 10
-6.4
 20
-3.75
 30
0.0
 11
-4.275
 21
-3.75
 31
0.0
  0
LINE
  5
5D
330
1E
100
AcDbEntity
  8
MO_001_VIEW_PV
  6
C_SOLID_M
100
AcDbLine
 10
-6.4
 20
3.75
 30
0.0
 11
-5.65
 21
4.5
 31
0.0
  0
LINE
  5
5E
330
1E
100
AcDbEntity
  8
MO_001_VIEW_PV
  6
C_SOLID_M
100
AcDbLine
 10
-6.4
 20
-3.75
 30
0.0
 11
-5.65
 21
-4.5
 31
0.0
  0
ARC
  5
5F
330
1E
100
AcDbEntity
  8
MO_001_VIEW_PV
  6
C_SOLID_M
100
AcDbCircle
 10
-60.0
 20
0.0
 30
0.0
 40
6.5
100
AcDbArc
 50
337.3801349999999
 51
22.619865
  0
ARC
  5
60
330
1E
100
AcDbEntity
  8
MO_001_VIEW_PV
  6
C_SOLID_M
100
AcDbCircle
 10
-60.0
 20
0.0
 30
0.0
 40
4.5
100
AcDbArc
 50
29.92639499999999
 51
330.073618
  0
LINE
  5
61
330
1E
100
AcDbEntity
  8
MO_001_VIEW_PV
  6
C_CENTER_L
100
AcDbLine
 10
-70.0
 20
0.0
 30
0.0
 11
-50.0
 21
0.0
 31
0.0
  0
LINE
  5
62
330
1E
100
AcDbEntity
  8
MO_001_VIEW_PV
  6
C_CENTER_L
100
AcDbLine
 10
-60.0
 20
10.0
 30
0.0
 11
-60.0
 21
-10.0
 31
0.0
  0
LINE
  5
63
330
1E
100
AcDbEntity
  8
MO_001_VIEW_PV
  6
C_SOLID_M
100
AcDbLine
 10
-56.099998
 20
2.244991999999999
 30
0.0
 11
-56.099998
 21
1.688931
 31
0.0
  0
LINE
  5
64
330
1E
100
AcDbEntity
  8
MO_001_VIEW_PV
  6
C_SOLID_M
100
AcDbLine
 10
-6.249998999999999
 20
2.244991999999999
 30
0.0
 11
-4.275
 21
2.244991999999999
 31
0.0
  0
LINE
  5
65
330
1E
100
AcDbEntity
  8
MO_001_VIEW_PV
  6
C_SOLID_M
100
AcDbLine
 10
-6.249998999999999
 20
-2.244991999999999
 30
0.0
 11
-4.275
 21
-2.244991999999999
 31
0.0
  0
LINE
  5
66
330
1E
100
AcDbEntity
  8
MO_001_VIEW_PV
  6
C_SOLID_M
100
AcDbLine
 10
-6.249998999999999
 20
2.244991999999999
 30
0.0
 11
-6.249998999999999
 21
-2.244991999999999
 31
0.0
  0
LINE
  5
67
330
1E
100
AcDbEntity
  8
MO_001_VIEW_PV
  6
C_SOLID_M
100
AcDbLine
 10
-0.9
 20
-2.244991999999999
 30
0.0
 11
-0.9
 21
-4.5
 31
0.0
  0
LINE
  5
68
330
1E
100
AcDbEntity
  8
MO_001_VIEW_PV
  6
C_SOLID_M
100
AcDbLine
 10
-0.9
 20
-3.75
 30
0.0
 11
-0.15
 21
-4.5
 31
0.0
  0
LINE
  5
69
330
1E
100
AcDbEntity
  8
MO_001_VIEW_PV
  6
C_SOLID_M
100
AcDbLine
 10
-0.9
 20
3.75
 30
0.0
 11
-0.15
 21
4.5
 31
0.0
  0
LINE
  5
6A
330
1E
100
AcDbEntity
  8
MO_001_VIEW_PV
  6
C_SOLID_M
100
AcDbLine
 10
-5.65
 20
4.5
 30
0.0
 11
-5.65
 21
2.244991999999999
 31
0.0
  0
LINE
  5
6B
330
1E
100
AcDbEntity
  8
MO_001_VIEW_PV
  6
C_SOLID_M
100
AcDbLine
 10
-0.9
 20
4.5
 30
0.0
 11
-0.9
 21
2.244991999999999
 31
0.0
  0
LINE
  5
6C
330
1E
100
AcDbEntity
  8
MO_001_VIEW_PV
  6
C_SOLID_M
100
AcDbLine
 10
-17.50000199999999
 20
-0.9
 30
0.0
 11
-17.50000199999999
 21
-2.5
 31
0.0
  0
LINE
  5
6D
330
1E
100
AcDbEntity
  8
MO_001_VIEW_PV
  6
C_CENTER_L
100
AcDbLine
 10
-14.3
 20
4.208938999999999
 30
0.0
 11
-14.3
 21
-4.508083
 31
0.0
  0
LINE
  5
6E
330
1E
100
AcDbEntity
  8
MO_001_VIEW_PV
  6
C_SOLID_M
100
AcDbLine
 10
-13.5
 20
2.5
 30
0.0
 11
-7.800000999999999
 21
2.5
 31
0.0
  0
LINE
  5
6F
330
1E
100
AcDbEntity
  8
MO_001_VIEW_PV
  6
C_SOLID_M
100
AcDbLine
 10
-17.50000199999999
 20
0.9
 30
0.0
 11
-11.00000099999999
 21
0.9
 31
0.0
  0
LINE
  5
70
330
1E
100
AcDbEntity
  8
MO_001_VIEW_PV
  6
C_SOLID_M
100
AcDbLine
 10
-17.50000199999999
 20
-0.9
 30
0.0
 11
-11.00000099999999
 21
-0.9
 31
0.0
  0
LINE
  5
71
330
1E
100
AcDbEntity
  8
MO_001_VIEW_PV
  6
C_SOLID_M
100
AcDbLine
 10
-11.00000099999999
 20
0.9
 30
0.0
 11
-11.00000099999999
 21
-0.9
 31
0.0
  0
LINE
  5
72
330
1E
100
AcDbEntity
  8
MO_001_VIEW_PV
  6
C_SOLID_M
100
AcDbLine
 10
-17.50000199999999
 20
2.5
 30
0.0
 11
-17.50000199999999
 21
0.9
 31
0.0
  0
LINE
  5
73
330
1E
100
AcDbEntity
  8
MO_001_VIEW_PV
  6
C_DASHED_M
100
AcDbLine
 10
-13.5
 20
2.5
 30
0.0
 11
-13.5
 21
0.9
 31
0.0
  0
LINE
  5
74
330
1E
100
AcDbEntity
  8
MO_001_VIEW_PV
  6
C_DASHED_M
100
AcDbLine
 10
-15.09999999999999
 20
2.5
 30
0.0
 11
-15.09999999999999
 21
0.9
 31
0.0
  0
CIRCLE
  5
75
330
1E
100
AcDbEntity
  8
MO_001_VIEW_PV
  6
C_SOLID_M
100
AcDbCircle
 10
-60.0
 20
0.0
 30
0.0
 40
2.5
  0
LINE
  5
76
330
1E
100
AcDbEntity
  8
MO_001_VIEW_PV
  6
C_SOLID_M
100
AcDbLine
 10
-62.33238199999999
 20
0.9
 30
0.0
 11
-57.66761800000001
 21
0.9
 31
0.0
  0
LINE
  5
77
330
1E
100
AcDbEntity
  8
MO_001_VIEW_PV
  6
C_SOLID_M
100
AcDbLine
 10
-62.33238199999999
 20
-0.9
 30
0.0
 11
-57.66761800000001
 21
-0.9
 31
0.0
  0
LINE
  5
78
330
1E
100
AcDbEntity
  8
MO_001_VIEW_PV
  6
C_DASHED_M
100
AcDbLine
 10
-59.200005
 20
-0.9
 30
0.0
 11
-59.200005
 21
-2.368543999999999
 31
0.0
  0
LINE
  5
79
330
1E
100
AcDbEntity
  8
MO_001_VIEW_PV
  6
C_DASHED_M
100
AcDbLine
 10
-60.79999499999999
 20
-0.9
 30
0.0
 11
-60.79999499999999
 21
-2.368543999999999
 31
0.0
  0
LINE
  5
7A
330
1E
100
AcDbEntity
  8
MO_001_VIEW_PV
  6
C_DASHED_M
100
AcDbLine
 10
-60.79999499999999
 20
2.368543999999999
 30
0.0
 11
-60.79999499999999
 21
0.9
 31
0.0
  0
LINE
  5
7B
330
1E
100
AcDbEntity
  8
MO_001_VIEW_PV
  6
C_DASHED_M
100
AcDbLine
 10
-59.200005
 20
2.368543999999999
 30
0.0
 11
-59.200005
 21
0.9
 31
0.0
  0
POLYLINE
  5
7C
330
1E
100
AcDbEntity
  8
MO_001_VIEW_PV
  6
C_SOLID_M
100
AcDb2dPolyline
 66
     1
 10
0.0
 20
0.0
 30
0.0
  0
VERTEX
  5
209
330
7C
100
AcDbEntity
  8
MO_001_VIEW_PV
  6
C_SOLID_M
100
AcDbVertex
100
AcDb2dVertex
 10
-15.09999999999999
 20
2.5
 30
0.0
  0
VERTEX
  5
20A
330
7C
100
AcDbEntity
  8
MO_001_VIEW_PV
  6
C_SOLID_M
100
AcDbVertex
100
AcDb2dVertex
 10
-15.084629
 20
2.474353999999999
 30
0.0
  0
VERTEX
  5
20B
330
7C
100
AcDbEntity
  8
MO_001_VIEW_PV
  6
C_SOLID_M
100
AcDbVertex
100
AcDb2dVertex
 10
-15.046395
 20
2.45269
 30
0.0
  0
VERTEX
  5
20C
330
7C
100
AcDbEntity
  8
MO_001_VIEW_PV
  6
C_SOLID_M
100
AcDbVertex
100
AcDb2dVertex
 10
-14.994857
 20
2.434854999999999
 30
0.0
  0
VERTEX
  5
20D
330
7C
100
AcDbEntity
  8
MO_001_VIEW_PV
  6
C_SOLID_M
100
AcDbVertex
100
AcDb2dVertex
 10
-14.936856
 20
2.420441999999999
 30
0.0
  0
VERTEX
  5
20E
330
7C
100
AcDbEntity
  8
MO_001_VIEW_PV
  6
C_SOLID_M
100
AcDbVertex
100
AcDb2dVertex
 10
-14.80958699999999
 20
2.398662999999999
 30
0.0
  0
VERTEX
  5
20F
330
7C
100
AcDbEntity
  8
MO_001_VIEW_PV
  6
C_SOLID_M
100
AcDbVertex
100
AcDb2dVertex
 10
-14.696069
 20
2.385784999999999
 30
0.0
  0
VERTEX
  5
210
330
7C
100
AcDbEntity
  8
MO_001_VIEW_PV
  6
C_SOLID_M
100
AcDbVertex
100
AcDb2dVertex
 10
-14.504866
 20
2.372927
 30
0.0
  0
VERTEX
  5
211
330
7C
100
AcDbEntity
  8
MO_001_VIEW_PV
  6
C_SOLID_M
100
AcDbVertex
100
AcDb2dVertex
 10
-14.3
 20
2.368543999999999
 30
0.0
  0
VERTEX
  5
212
330
7C
100
AcDbEntity
  8
MO_001_VIEW_PV
  6
C_SOLID_M
100
AcDbVertex
100
AcDb2dVertex
 10
-13.993853
 20
2.37855
 30
0.0
  0
VERTEX
  5
213
330
7C
100
AcDbEntity
  8
MO_001_VIEW_PV
  6
C_SOLID_M
100
AcDbVertex
100
AcDb2dVertex
 10
-13.792485
 20
2.398383
 30
0.0
  0
VERTEX
  5
214
330
7C
100
AcDbEntity
  8
MO_001_VIEW_PV
  6
C_SOLID_M
100
AcDbVertex
100
AcDb2dVertex
 10
-13.669323
 20
2.419124
 30
0.0
  0
VERTEX
  5
215
330
7C
100
AcDbEntity
  8
MO_001_VIEW_PV
  6
C_SOLID_M
100
AcDbVertex
100
AcDb2dVertex
 10
-13.59678999999999
 20
2.437321999999999
 30
0.0
  0
VERTEX
  5
216
330
7C
100
AcDbEntity
  8
MO_001_VIEW_PV
  6
C_SOLID_M
100
AcDbVertex
100
AcDb2dVertex
 10
-13.554939
 20
2.452125999999999
 30
0.0
  0
VERTEX
  5
217
330
7C
100
AcDbEntity
  8
MO_001_VIEW_PV
  6
C_SOLID_M
100
AcDbVertex
100
AcDb2dVertex
 10
-13.513855
 20
2.475640999999999
 30
0.0
  0
VERTEX
  5
218
330
7C
100
AcDbEntity
  8
MO_001_VIEW_PV
  6
C_SOLID_M
100
AcDbVertex
100
AcDb2dVertex
 10
-13.5
 20
2.5
 30
0.0
  0
SEQEND
  5
219
330
7C
100
AcDbEntity
  8
MO_001_VIEW_PV
  6
C_SOLID_M
  0
LINE
  5
8E
330
1E
100
AcDbEntity
  8
MO_001_VIEW_PV
  6
C_SOLID_M
100
AcDbLine
 10
-17.50000199999999
 20
2.5
 30
0.0
 11
-15.09999999999999
 21
2.5
 31
0.0
  0
LINE
  5
8F
330
1E
100
AcDbEntity
  8
MO_001_VIEW_PV
  6
C_DASHED_M
100
AcDbLine
 10
-15.09999999999999
 20
-2.5
 30
0.0
 11
-15.09999999999999
 21
-0.9
 31
0.0
  0
LINE
  5
90
330
1E
100
AcDbEntity
  8
MO_001_VIEW_PV
  6
C_DASHED_M
100
AcDbLine
 10
-13.5
 20
-2.5
 30
0.0
 11
-13.5
 21
-0.9
 31
0.0
  0
POLYLINE
  5
91
330
1E
100
AcDbEntity
  8
MO_001_VIEW_PV
  6
C_SOLID_M
100
AcDb2dPolyline
 66
     1
 10
0.0
 20
0.0
 30
0.0
  0
VERTEX
  5
21A
330
91
100
AcDbEntity
  8
MO_001_VIEW_PV
  6
C_SOLID_M
100
AcDbVertex
100
AcDb2dVertex
 10
-13.5
 20
-2.5
 30
0.0
  0
VERTEX
  5
21B
330
91
100
AcDbEntity
  8
MO_001_VIEW_PV
  6
C_SOLID_M
100
AcDbVertex
100
AcDb2dVertex
 10
-13.515372
 20
-2.474355
 30
0.0
  0
VERTEX
  5
21C
330
91
100
AcDbEntity
  8
MO_001_VIEW_PV
  6
C_SOLID_M
100
AcDbVertex
100
AcDb2dVertex
 10
-13.553606
 20
-2.45269
 30
0.0
  0
VERTEX
  5
21D
330
91
100
AcDbEntity
  8
MO_001_VIEW_PV
  6
C_SOLID_M
100
AcDbVertex
100
AcDb2dVertex
 10
-13.605143
 20
-2.434855999999999
 30
0.0
  0
VERTEX
  5
21E
330
91
100
AcDbEntity
  8
MO_001_VIEW_PV
  6
C_SOLID_M
100
AcDbVertex
100
AcDb2dVertex
 10
-13.663145
 20
-2.420443
 30
0.0
  0
VERTEX
  5
21F
330
91
100
AcDbEntity
  8
MO_001_VIEW_PV
  6
C_SOLID_M
100
AcDbVertex
100
AcDb2dVertex
 10
-13.790413
 20
-2.398665
 30
0.0
  0
VERTEX
  5
220
330
91
100
AcDbEntity
  8
MO_001_VIEW_PV
  6
C_SOLID_M
100
AcDbVertex
100
AcDb2dVertex
 10
-13.903931
 20
-2.385787
 30
0.0
  0
VERTEX
  5
221
330
91
100
AcDbEntity
  8
MO_001_VIEW_PV
  6
C_SOLID_M
100
AcDbVertex
100
AcDb2dVertex
 10
-14.09513399999999
 20
-2.372929
 30
0.0
  0
VERTEX
  5
222
330
91
100
AcDbEntity
  8
MO_001_VIEW_PV
  6
C_SOLID_M
100
AcDbVertex
100
AcDb2dVertex
 10
-14.3
 20
-2.368545999999999
 30
0.0
  0
VERTEX
  5
223
330
91
100
AcDbEntity
  8
MO_001_VIEW_PV
  6
C_SOLID_M
100
AcDbVertex
100
AcDb2dVertex
 10
-14.60614699999999
 20
-2.378551999999999
 30
0.0
  0
VERTEX
  5
224
330
91
100
AcDbEntity
  8
MO_001_VIEW_PV
  6
C_SOLID_M
100
AcDbVertex
100
AcDb2dVertex
 10
-14.807515
 20
-2.398384
 30
0.0
  0
VERTEX
  5
225
330
91
100
AcDbEntity
  8
MO_001_VIEW_PV
  6
C_SOLID_M
100
AcDbVertex
100
AcDb2dVertex
 10
-14.930677
 20
-2.419125
 30
0.0
  0
VERTEX
  5
226
330
91
100
AcDbEntity
  8
MO_001_VIEW_PV
  6
C_SOLID_M
100
AcDbVertex
100
AcDb2dVertex
 10
-15.00321
 20
-2.437323
 30
0.0
  0
VERTEX
  5
227
330
91
100
AcDbEntity
  8
MO_001_VIEW_PV
  6
C_SOLID_M
100
AcDbVertex
100
AcDb2dVertex
 10
-15.04506199999999
 20
-2.452125999999999
 30
0.0
  0
VERTEX
  5
228
330
91
100
AcDbEntity
  8
MO_001_VIEW_PV
  6
C_SOLID_M
100
AcDbVertex
100
AcDb2dVertex
 10
-15.086146
 20
-2.475640999999999
 30
0.0
  0
VERTEX
  5
229
330
91
100
AcDbEntity
  8
MO_001_VIEW_PV
  6
C_SOLID_M
100
AcDbVertex
100
AcDb2dVertex
 10
-15.09999999999999
 20
-2.5
 30
0.0
  0
SEQEND
  5
22A
330
91
100
AcDbEntity
  8
MO_001_VIEW_PV
  6
C_SOLID_M
  0
LINE
  5
A3
330
1E
100
AcDbEntity
  8
MO_001_VIEW_PV
  6
C_SOLID_M
100
AcDbLine
 10
-13.5
 20
-2.5
 30
0.0
 11
-7.800000999999999
 21
-2.5
 31
0.0
  0
LINE
  5
A4
330
1E
100
AcDbEntity
  8
MO_001_VIEW_PV
  6
C_SOLID_M
100
AcDbLine
 10
-17.50000199999999
 20
-2.5
 30
0.0
 11
-15.09999999999999
 21
-2.5
 31
0.0
  0
LINE
  5
A5
330
1E
100
AcDbEntity
  8
MO_001_VIEW_PV
  6
C_SOLID_M
100
AcDbLine
 10
-7.2
 20
4.25
 30
0.0
 11
-7.2
 21
-4.25
 31
0.0
  0
LINE
  5
A6
330
1E
100
AcDbEntity
  8
MO_001_VIEW_PV
  6
C_SOLID_M
100
AcDbLine
 10
-7.2
 20
4.25
 30
0.0
 11
-6.4
 21
4.25
 31
0.0
  0
LINE
  5
A7
330
1E
100
AcDbEntity
  8
MO_001_VIEW_PV
  6
C_SOLID_M
100
AcDbLine
 10
-7.2
 20
-4.25
 30
0.0
 11
-6.4
 21
-4.25
 31
0.0
  0
LINE
  5
A8
330
1E
100
AcDbEntity
  8
MO_001_VIEW_PV
  6
C_CENTER_L
100
AcDbLine
 10
-54.0
 20
3.464101999999999
 30
0.0
 11
-54.0
 21
-3.464101999999999
 31
0.0
  0
LINE
  5
A9
330
1E
100
AcDbEntity
  8
MO_001_VIEW_PV
  6
C_CENTER_L
100
AcDbLine
 10
-66.0
 20
3.464101999999999
 30
0.0
 11
-66.0
 21
-3.464098999999999
 31
0.0
  0
LINE
  5
AA
330
1E
100
AcDbEntity
  8
MO_001_VIEW_PV
  6
C_CENTER_L
100
AcDbLine
 10
-66.0
 20
3.464096
 30
0.0
 11
-59.99999599999999
 21
6.9282
 31
0.0
  0
LINE
  5
AB
330
1E
100
AcDbEntity
  8
MO_001_VIEW_PV
  6
C_CENTER_L
100
AcDbLine
 10
-60.0
 20
-6.928208
 30
0.0
 11
-54.000003
 21
-3.464107999999999
 31
0.0
  0
LINE
  5
AC
330
1E
100
AcDbEntity
  8
MO_001_VIEW_PV
  6
C_CENTER_L
100
AcDbLine
 10
-60.00000299999999
 20
-6.928196
 30
0.0
 11
-66.0
 21
-3.464096
 31
0.0
  0
LINE
  5
AD
330
1E
100
AcDbEntity
  8
MO_001_VIEW_PV
  6
C_CENTER_L
100
AcDbLine
 10
-54.000003
 20
3.464107999999999
 30
0.0
 11
-60.0
 21
6.928208
 31
0.0
  0
LINE
  5
AE
330
1E
100
AcDbEntity
  8
MO_001_VIEW_PV
  6
C_SOLID_M
100
AcDbLine
 10
-3.739101
 20
6.928203999999999
 30
0.0
 11
-2.810899
 21
6.928203999999999
 31
0.0
  0
LINE
  5
AF
330
1E
100
AcDbEntity
  8
MO_001_VIEW_PV
  6
C_SOLID_M
100
AcDbLine
 10
-3.739101
 20
3.464101999999999
 30
0.0
 11
-2.810899
 21
3.464101999999999
 31
0.0
  0
LINE
  5
B0
330
1E
100
AcDbEntity
  8
MO_001_VIEW_PV
  6
C_SOLID_M
100
AcDbLine
 10
-3.739101
 20
-3.464101999999999
 30
0.0
 11
-2.810899
 21
-3.464101999999999
 31
0.0
  0
LINE
  5
B1
330
1E
100
AcDbEntity
  8
MO_001_VIEW_PV
  6
C_SOLID_M
100
AcDbLine
 10
-4.275
 20
6.0
 30
0.0
 11
-4.275
 21
-6.0
 31
0.0
  0
LINE
  5
B2
330
1E
100
AcDbEntity
  8
MO_001_VIEW_PV
  6
C_SOLID_M
100
AcDbLine
 10
-2.274999999999999
 20
6.0
 30
0.0
 11
-2.274999999999999
 21
-6.0
 31
0.0
  0
CIRCLE
  5
B3
330
1E
100
AcDbEntity
  8
MO_001_VIEW_PV
  6
C_SOLID_M
100
AcDbCircle
 10
-60.0
 20
0.0
 30
0.0
 40
6.0
  0
LINE
  5
B4
330
1E
100
AcDbEntity
  8
MO_001_VIEW_PV
  6
C_CENTER_L
100
AcDbLine
 10
-54.000003
 20
-3.464107999999999
 30
0.0
 11
-60.0
 21
-6.928208
 31
0.0
  0
LINE
  5
B5
330
1E
100
AcDbEntity
  8
MO_001_VIEW_PV
  6
C_SOLID_M
100
AcDbLine
 10
-3.739101
 20
6.928203999999999
 30
0.0
 11
-4.275
 21
6.0
 31
0.0
  0
LINE
  5
B6
330
1E
100
AcDbEntity
  8
MO_001_VIEW_PV
  6
C_SOLID_M
100
AcDbLine
 10
-2.810899
 20
6.928202999999999
 30
0.0
 11
-2.274999999999999
 21
6.0
 31
0.0
  0
ARC
  5
B7
330
1E
100
AcDbEntity
  8
MO_001_VIEW_PV
  6
C_SOLID_M
100
AcDbCircle
 10
-1.208013999999999
 20
5.196152999999999
 30
0.0
 40
3.066985999999999
100
AcDbArc
 50
180.000009
 51
214.38426
  0
LINE
  5
B8
330
1E
100
AcDbEntity
  8
MO_001_VIEW_PV
  6
C_SOLID_M
100
AcDbLine
 10
-2.274999999999999
 20
4.5
 30
0.0
 11
0.0
 21
4.5
 31
0.0
  0
LINE
  5
B9
330
1E
100
AcDbEntity
  8
MO_001_VIEW_PV
  6
C_SOLID_M
100
AcDbLine
 10
-2.274999999999999
 20
3.75
 30
0.0
 11
-0.9
 21
3.75
 31
0.0
  0
LINE
  5
BA
330
1E
100
AcDbEntity
  8
MO_001_VIEW_PV
  6
C_SOLID_M
100
AcDbLine
 10
-2.274999999999999
 20
2.244991999999999
 30
0.0
 11
0.0
 21
2.244991999999999
 31
0.0
  0
LINE
  5
BB
330
1E
100
AcDbEntity
  8
MO_001_VIEW_PV
  6
C_SOLID_M
100
AcDbLine
 10
-2.274999999999999
 20
-2.244991999999999
 30
0.0
 11
0.0
 21
-2.244991999999999
 31
0.0
  0
LINE
  5
BC
330
1E
100
AcDbEntity
  8
MO_001_VIEW_PV
  6
C_SOLID_M
100
AcDbLine
 10
-2.274999999999999
 20
-3.75
 30
0.0
 11
-0.9
 21
-3.75
 31
0.0
  0
LINE
  5
BD
330
1E
100
AcDbEntity
  8
MO_001_VIEW_PV
  6
C_SOLID_M
100
AcDbLine
 10
-2.274999999999999
 20
-4.5
 30
0.0
 11
0.0
 21
-4.5
 31
0.0
  0
ARC
  5
BE
330
1E
100
AcDbEntity
  8
MO_001_VIEW_PV
  6
C_SOLID_M
100
AcDbCircle
 10
-5.341986
 20
5.196152999999999
 30
0.0
 40
3.066985999999999
100
AcDbArc
 50
325.6157379999999
 51
359.999991
  0
ARC
  5
BF
330
1E
100
AcDbEntity
  8
MO_001_VIEW_PV
  6
C_SOLID_M
100
AcDbCircle
 10
-1.208013999999999
 20
-5.196152999999999
 30
0.0
 40
3.066985999999999
100
AcDbArc
 50
145.6157399999999
 51
179.9999909999999
  0
ARC
  5
C0
330
1E
100
AcDbEntity
  8
MO_001_VIEW_PV
  6
C_SOLID_M
100
AcDbCircle
 10
-5.341986
 20
-5.196152999999999
 30
0.0
 40
3.066985999999999
100
AcDbArc
 50
0.0
 51
34.384265
  0
LINE
  5
C1
330
1E
100
AcDbEntity
  8
MO_001_VIEW_PV
  6
C_SOLID_M
100
AcDbLine
 10
-3.739101
 20
-6.928203999999999
 30
0.0
 11
-4.275
 21
-6.0
 31
0.0
  0
LINE
  5
C2
330
1E
100
AcDbEntity
  8
MO_001_VIEW_PV
  6
C_SOLID_M
100
AcDbLine
 10
-2.810899
 20
-6.928202999999999
 30
0.0
 11
-2.274999999999999
 21
-6.0
 31
0.0
  0
LINE
  5
C3
330
1E
100
AcDbEntity
  8
MO_001_VIEW_PV
  6
C_SOLID_M
100
AcDbLine
 10
-3.739101
 20
-6.928203999999999
 30
0.0
 11
-2.810899
 21
-6.928203999999999
 31
0.0
  0
ARC
  5
C4
330
1E
100
AcDbEntity
  8
MO_001_VIEW_PV
  6
C_SOLID_M
100
AcDbCircle
 10
7.189091999999999
 20
0.0
 30
0.0
 40
11.464091
100
AcDbArc
 50
162.412036
 51
197.5879609999999
  0
LINE
  5
C5
330
1E
100
AcDbEntity
  8
MO_001_VIEW_PV
  6
C_SOLID_M
100
AcDbLine
 10
-2.810899
 20
-6.928202999999999
 30
0.0
 11
-2.274999999999999
 21
-5.999998999999999
 31
0.0
  0
LINE
  5
C6
330
1E
100
AcDbEntity
  8
MO_001_VIEW_PV
  6
C_SOLID_M
100
AcDbLine
 10
-3.739101
 20
-6.928203999999999
 30
0.0
 11
-4.275
 21
-6.0
 31
0.0
  0
LINE
  5
C7
330
1E
100
AcDbEntity
  8
MO_001_VIEW_PV
  6
C_SOLID_M
100
AcDbLine
 10
-2.810899
 20
-6.928203999999999
 30
0.0
 11
-3.739101
 21
-6.928203999999999
 31
0.0
  0
ARC
  5
C8
330
1E
100
AcDbEntity
  8
MO_001_VIEW_PV
  6
C_SOLID_M
100
AcDbCircle
 10
-13.739092
 20
0.0
 30
0.0
 40
11.464091
100
AcDbArc
 50
342.412039
 51
17.587964
  0
ARC
  5
C9
330
1E
100
AcDbEntity
  8
MO_001_VIEW_PV
  6
C_SOLID_M
100
AcDbCircle
 10
-60.0
 20
0.0
 30
0.0
 40
3.5
100
AcDbArc
 50
310.190647
 51
229.809364
  0
ARC
  5
CA
330
1E
100
AcDbEntity
  8
MO_001_VIEW_PV
  6
C_SOLID_M
100
AcDbCircle
 10
-60.0
 20
0.0
 30
0.0
 40
2.6
100
AcDbArc
 50
7.494717999999999
 51
52.505283
  0
ARC
  5
CB
330
1E
100
AcDbEntity
  8
MO_001_VIEW_PV
  6
C_SOLID_M
100
AcDbCircle
 10
-60.0
 20
0.0
 30
0.0
 40
2.6
100
AcDbArc
 50
127.4947149999999
 51
172.505279
  0
ARC
  5
CC
330
1E
100
AcDbEntity
  8
MO_001_VIEW_PV
  6
C_SOLID_M
100
AcDbCircle
 10
-62.28035
 20
0.299999
 30
0.0
 40
0.3
100
AcDbArc
 50
172.505279
 51
223.422769
  0
ARC
  5
CD
330
1E
100
AcDbEntity
  8
MO_001_VIEW_PV
  6
C_SOLID_M
100
AcDbCircle
 10
-57.71965
 20
0.299999
 30
0.0
 40
0.3
100
AcDbArc
 50
316.577229
 51
7.494717
  0
ARC
  5
CE
330
1E
100
AcDbEntity
  8
MO_001_VIEW_PV
  6
C_SOLID_M
100
AcDbCircle
 10
-61.399986
 20
1.824840999999999
 30
0.0
 40
0.3
100
AcDbArc
 50
76.57728100000001
 51
127.4947149999999
  0
ARC
  5
CF
330
1E
100
AcDbEntity
  8
MO_001_VIEW_PV
  6
C_SOLID_M
100
AcDbCircle
 10
-58.600014
 20
1.824840999999999
 30
0.0
 40
0.3
100
AcDbArc
 50
52.50528599999999
 51
103.422718
  0
LINE
  5
D0
330
1E
100
AcDbEntity
  8
MO_001_VIEW_PV
  6
C_SOLID_M
100
AcDbLine
 10
-58.388381
 20
-1.911215999999999
 30
0.0
 11
-58.224687
 21
-2.522129999999999
 31
0.0
  0
LINE
  5
D1
330
1E
100
AcDbEntity
  8
MO_001_VIEW_PV
  6
C_SOLID_M
100
AcDbLine
 10
-61.775265
 20
-2.522136999999999
 30
0.0
 11
-61.61157199999999
 21
-1.911225999999999
 31
0.0
  0
ARC
  5
D2
330
1E
100
AcDbEntity
  8
MO_001_VIEW_PV
  6
C_SOLID_M
100
AcDbCircle
 10
-62.065063
 20
-2.444484999999999
 30
0.0
 40
0.3
100
AcDbArc
 50
229.809341
 51
344.9999859999999
  0
ARC
  5
D3
330
1E
100
AcDbEntity
  8
MO_001_VIEW_PV
  6
C_SOLID_M
100
AcDbCircle
 10
-57.93493699999999
 20
-2.444484999999999
 30
0.0
 40
0.3
100
AcDbArc
 50
195.000006
 51
310.190664
  0
LINE
  5
D4
330
1E
100
AcDbEntity
  8
MO_001_VIEW_PV
  6
C_SOLID_M
100
AcDbLine
 10
-7.800000999999999
 20
3.5
 30
0.0
 11
-7.800000999999999
 21
-2.744483999999999
 31
0.0
  0
LINE
  5
D5
330
1E
100
AcDbEntity
  8
MO_001_VIEW_PV
  6
C_SOLID_M
100
AcDbLine
 10
-7.800000999999999
 20
3.5
 30
0.0
 11
-7.2
 21
3.5
 31
0.0
  0
LINE
  5
D6
330
1E
100
AcDbEntity
  8
MO_001_VIEW_PV
  6
C_SOLID_M
100
AcDbLine
 10
-7.800000999999999
 20
-2.744483999999999
 30
0.0
 11
-7.2
 21
-2.744483999999999
 31
0.0
  0
LINE
  5
D7
330
1E
100
AcDbEntity
  8
MO_001_VIEW_PV
  6
C_SOLID_M
100
AcDbLine
 10
0.2
 20
6.500001
 30
0.0
 11
0.0
 21
6.300000999999999
 31
0.0
  0
LINE
  5
D8
330
1E
100
AcDbEntity
  8
MO_001_VIEW_PV
  6
C_SOLID_M
100
AcDbLine
 10
0.0
 20
-6.299999999999999
 30
0.0
 11
0.2
 21
-6.5
 31
0.0
  0
LINE
  5
D9
330
1E
100
AcDbEntity
  8
MO_001_VIEW_PV
  6
C_SOLID_M
100
AcDbLine
 10
0.2
 20
6.5
 30
0.0
 11
0.2
 21
-6.5
 31
0.0
  0
LINE
  5
DA
330
1E
100
AcDbEntity
  8
MO_001_VIEW_PV
  6
C_SOLID_M
100
AcDbLine
 10
-6.4
 20
-3.75
 30
0.0
 11
-6.4
 21
-4.25
 31
0.0
  0
LINE
  5
DB
330
1E
100
AcDbEntity
  8
MO_001_VIEW_PV
  6
C_SOLID_M
100
AcDbLine
 10
-6.4
 20
4.25
 30
0.0
 11
-6.4
 21
3.75
 31
0.0
  0
CIRCLE
  5
DC
330
1E
100
AcDbEntity
  8
MO_001_VIEW_PV
  6
C_SOLID_M
100
AcDbCircle
 10
-60.0
 20
0.0
 30
0.0
 40
4.25
  0
LINE
  5
DD
330
1E
100
AcDbEntity
  8
MO_001_VIEW_PV
  6
C_SOLID_M
100
AcDbLine
 10
-56.099998
 20
-1.688931
 30
0.0
 11
-56.099998
 21
-2.244991999999999
 31
0.0
  0
ARC
  5
DE
330
1E
100
AcDbEntity
  8
MO_001_VIEW_PV
  6
C_SOLID_M
100
AcDbCircle
 10
-60.0
 20
0.0
 30
0.0
 40
6.5
100
AcDbArc
 50
157.3801399999999
 51
202.619857
  0
ARC
  5
DF
330
1E
100
AcDbEntity
  8
MO_001_VIEW_PV
  6
C_SOLID_M
100
AcDbCircle
 10
-60.0
 20
0.0
 30
0.0
 40
6.5
100
AcDbArc
 50
217.3800899999999
 51
262.61991
  0
ARC
  5
E0
330
1E
100
AcDbEntity
  8
MO_001_VIEW_PV
  6
C_SOLID_M
100
AcDbCircle
 10
-60.0
 20
0.0
 30
0.0
 40
6.5
100
AcDbArc
 50
277.3801329999999
 51
322.619867
  0
ARC
  5
E1
330
1E
100
AcDbEntity
  8
MO_001_VIEW_PV
  6
C_SOLID_M
100
AcDbCircle
 10
-60.0
 20
0.0
 30
0.0
 40
6.5
100
AcDbArc
 50
37.380133
 51
82.61986699999999
  0
ARC
  5
E2
330
1E
100
AcDbEntity
  8
MO_001_VIEW_PV
  6
C_SOLID_M
100
AcDbCircle
 10
-60.0
 20
0.0
 30
0.0
 40
6.5
100
AcDbArc
 50
97.38008999999999
 51
142.6198689999999
  0
LINE
  5
E3
330
1E
100
AcDbEntity
  8
MO_001_VIEW_PV
  6
C_SOLID_M
100
AcDbLine
 10
-59.57249799999999
 20
-12.48920299999999
 30
0.0
 11
-60.000025
 21
-7.602546
 31
0.0
  0
LINE
  5
E4
330
1E
100
AcDbEntity
  8
MO_001_VIEW_PV
  6
C_SOLID_M
100
AcDbLine
 10
-58.118062
 20
-12.361956
 30
0.0
 11
-58.64344
 21
-6.356862999999999
 31
0.0
  0
ARC
  5
E5
330
1E
100
AcDbEntity
  8
MO_001_VIEW_PV
  6
C_SOLID_M
100
AcDbCircle
 10
-59.18447099999999
 20
-12.736385
 30
0.0
 40
0.4600680000000001
100
AcDbArc
 50
42.499373
 51
147.500572
  0
ARC
  5
E6
330
1E
100
AcDbEntity
  8
MO_001_VIEW_PV
  6
C_SOLID_M
100
AcDbCircle
 10
-59.23328399999999
 20
-12.178381
 30
0.0
 40
0.4600680000000001
100
AcDbArc
 50
222.4994399999999
 51
327.500597
  0
ARC
  5
E7
330
1E
100
AcDbEntity
  8
MO_001_VIEW_PV
  6
C_SOLID_M
100
AcDbCircle
 10
-58.50605
 20
-12.114758
 30
0.0
 40
0.4600680000000001
100
AcDbArc
 50
222.499577
 51
327.501144
  0
LINE
  5
E8
330
1E
100
AcDbEntity
  8
MO_001_VIEW_PV
  6
C_SOLID_M
100
AcDbLine
 10
-57.290043
 20
-21.82580199999999
 30
0.0
 11
-58.030862
 21
-13.358145
 31
0.0
  0
LINE
  5
E9
330
1E
100
AcDbEntity
  8
MO_001_VIEW_PV
  6
C_SOLID_M
100
AcDbLine
 10
-58.744478
 20
-21.953049
 30
0.0
 11
-59.485298
 21
-13.48539099999999
 31
0.0
  0
ARC
  5
EA
330
1E
100
AcDbEntity
  8
MO_001_VIEW_PV
  6
C_SOLID_M
100
AcDbCircle
 10
-58.370079
 20
-13.668959
 30
0.0
 40
0.4600680000000001
100
AcDbArc
 50
42.49942800000001
 51
147.500626
  0
ARC
  5
EB
330
1E
100
AcDbEntity
  8
MO_001_VIEW_PV
  6
C_SOLID_M
100
AcDbCircle
 10
-58.418892
 20
-13.110954
 30
0.0
 40
0.4600680000000001
100
AcDbArc
 50
222.499399
 51
327.500556
  0
ARC
  5
EC
330
1E
100
AcDbEntity
  8
MO_001_VIEW_PV
  6
C_SOLID_M
100
AcDbCircle
 10
-59.097298
 20
-13.732582
 30
0.0
 40
0.4600680000000001
100
AcDbArc
 50
42.49957799999999
 51
147.501145
  0
LINE
  5
ED
330
1E
100
AcDbEntity
  8
MO_001_VIEW_PV
  6
C_SOLID_M
100
AcDbLine
 10
-58.744525
 20
-21.953059
 30
0.0
 11
-57.29009
 21
-21.82581199999999
 31
0.0
  0
LINE
  5
EE
330
1E
100
AcDbEntity
  8
MO_001_VIEW_PV
  6
C_SOLID_M
100
AcDbLine
 10
-57.768205
 20
-21.867635
 30
0.0
 11
-57.332423
 21
-26.848597
 31
0.0
  0
LINE
  5
EF
330
1E
100
AcDbEntity
  8
MO_001_VIEW_PV
  6
C_SOLID_M
100
AcDbLine
 10
-58.266302
 20
-21.91121199999999
 30
0.0
 11
-57.83051999999999
 21
-26.892175
 31
0.0
  0
LINE
  5
F0
330
1E
100
AcDbEntity
  8
MO_001_VIEW_PV
  6
C_SOLID_M
100
AcDbLine
 10
-57.830571
 20
-26.892184
 30
0.0
 11
-57.33247399999999
 21
-26.848606
 31
0.0
  0
ARC
  5
F1
330
1E
100
AcDbEntity
  8
MO_001_VIEW_PV
  6
C_SOLID_M
100
AcDbCircle
 10
-61.493958
 20
-12.114758
 30
0.0
 40
0.4600680000000001
100
AcDbArc
 50
212.4994419999999
 51
317.500599
  0
ARC
  5
F2
330
1E
100
AcDbEntity
  8
MO_001_VIEW_PV
  6
C_SOLID_M
100
AcDbCircle
 10
-61.542778
 20
-12.67276
 30
0.0
 40
0.4600680000000001
100
AcDbArc
 50
32.499375
 51
137.5005739999999
  0
ARC
  5
F3
330
1E
100
AcDbEntity
  8
MO_001_VIEW_PV
  6
C_SOLID_M
100
AcDbCircle
 10
-60.76672399999999
 20
-12.178381
 30
0.0
 40
0.4600680000000001
100
AcDbArc
 50
212.499579
 51
317.501146
  0
ARC
  5
F4
330
1E
100
AcDbEntity
  8
MO_001_VIEW_PV
  6
C_SOLID_M
100
AcDbCircle
 10
-60.902702
 20
-13.732584
 30
0.0
 40
0.4600680000000001
100
AcDbArc
 50
32.49943
 51
137.500628
  0
ARC
  5
F5
330
1E
100
AcDbEntity
  8
MO_001_VIEW_PV
  6
C_SOLID_M
100
AcDbCircle
 10
-60.85388199999999
 20
-13.17458
 30
0.0
 40
0.4600680000000001
100
AcDbArc
 50
212.4994009999999
 51
317.500558
  0
ARC
  5
F6
330
1E
100
AcDbEntity
  8
MO_001_VIEW_PV
  6
C_SOLID_M
100
AcDbCircle
 10
-61.629921
 20
-13.66896099999999
 30
0.0
 40
0.4600680000000001
100
AcDbArc
 50
32.49958
 51
137.501147
  0
LINE
  5
F7
330
1E
100
AcDbEntity
  8
MO_001_VIEW_PV
  6
C_SOLID_M
100
AcDbLine
 10
-62.709931
 20
-21.82580199999999
 30
0.0
 11
-61.969103
 21
-13.358142
 31
0.0
  0
LINE
  5
F8
330
1E
100
AcDbEntity
  8
MO_001_VIEW_PV
  6
C_SOLID_M
100
AcDbLine
 10
-61.255488
 20
-21.95305
 30
0.0
 11
-60.51466
 21
-13.48538999999999
 31
0.0
  0
LINE
  5
F9
330
1E
100
AcDbEntity
  8
MO_001_VIEW_PV
  6
C_SOLID_M
100
AcDbLine
 10
-61.255524
 20
-21.95305199999999
 30
0.0
 11
-62.709968
 21
-21.82580499999999
 31
0.0
  0
LINE
  5
FA
330
1E
100
AcDbEntity
  8
MO_001_VIEW_PV
  6
C_SOLID_M
100
AcDbLine
 10
-62.23175699999999
 20
-21.867643
 30
0.0
 11
-62.667533
 21
-26.84862999999999
 31
0.0
  0
LINE
  5
FB
330
1E
100
AcDbEntity
  8
MO_001_VIEW_PV
  6
C_SOLID_M
100
AcDbLine
 10
-61.733659
 20
-21.91122
 30
0.0
 11
-62.169436
 21
-26.892208
 31
0.0
  0
LINE
  5
FC
330
1E
100
AcDbEntity
  8
MO_001_VIEW_PV
  6
C_SOLID_M
100
AcDbLine
 10
-62.169465
 20
-26.89219
 30
0.0
 11
-62.66756199999999
 21
-26.848612
 31
0.0
  0
LINE
  5
FD
330
1E
100
AcDbEntity
  8
MO_001_VIEW_PV
  6
C_SOLID_M
100
AcDbLine
 10
-61.88199499999999
 20
-12.36195099999999
 30
0.0
 11
-61.35661800000001
 21
-6.35686
 31
0.0
  0
LINE
  5
FE
330
1E
100
AcDbEntity
  8
MO_001_VIEW_PV
  6
C_SOLID_M
100
AcDbLine
 10
-60.427552
 20
-12.489198
 30
0.0
 11
-59.937889
 21
-6.892328999999999
 31
0.0
  0
LINE
  5
FF
330
1E
100
AcDbEntity
  8
MO_001_VIEW_PV
  6
C_SOLID_M
100
AcDbLine
 10
17.855299
 20
-9.463981
 30
0.0
 11
15.133157
 21
-6.741838999999999
 31
0.0
  0
LINE
  5
100
330
1E
100
AcDbEntity
  8
MO_001_VIEW_PV
  6
C_SOLID_M
100
AcDbLine
 10
18.887674
 20
-8.431618999999999
 30
0.0
 11
16.165526
 21
-5.709469999999999
 31
0.0
  0
ARC
  5
101
330
1E
100
AcDbEntity
  8
MO_001_VIEW_PV
  6
C_SOLID_M
100
AcDbCircle
 10
18.311434
 20
-9.403939999999998
 30
0.0
 40
0.4600680000000001
100
AcDbArc
 50
82.49936899999999
 51
187.500577
  0
ARC
  5
102
330
1E
100
AcDbEntity
  8
MO_001_VIEW_PV
  6
C_SOLID_M
100
AcDbCircle
 10
17.91535799999999
 20
-9.007863999999999
 30
0.0
 40
0.4600680000000001
100
AcDbArc
 50
262.4994389999999
 51
7.500596999999999
  0
ARC
  5
103
330
1E
100
AcDbEntity
  8
MO_001_VIEW_PV
  6
C_SOLID_M
100
AcDbCircle
 10
18.43154699999999
 20
-8.491673999999999
 30
0.0
 40
0.4600680000000001
100
AcDbArc
 50
262.499576
 51
7.501142999999999
  0
LINE
  5
104
330
1E
100
AcDbEntity
  8
MO_001_VIEW_PV
  6
C_SOLID_M
100
AcDbLine
 10
25.605187
 20
-15.149131
 30
0.0
 11
19.594778
 21
-9.138722999999998
 31
0.0
  0
LINE
  5
105
330
1E
100
AcDbEntity
  8
MO_001_VIEW_PV
  6
C_SOLID_M
100
AcDbLine
 10
24.572818
 20
-16.18149999999999
 30
0.0
 11
18.56240899999999
 21
-10.171091
 31
0.0
  0
ARC
  5
106
330
1E
100
AcDbEntity
  8
MO_001_VIEW_PV
  6
C_SOLID_M
100
AcDbCircle
 10
19.534735
 20
-9.594851
 30
0.0
 40
0.4600680000000001
100
AcDbArc
 50
82.49942299999998
 51
187.5006319999999
  0
ARC
  5
107
330
1E
100
AcDbEntity
  8
MO_001_VIEW_PV
  6
C_SOLID_M
100
AcDbCircle
 10
19.138659
 20
-9.198774
 30
0.0
 40
0.4600680000000001
100
AcDbArc
 50
262.4993979999999
 51
7.500556
  0
ARC
  5
108
330
1E
100
AcDbEntity
  8
MO_001_VIEW_PV
  6
C_SOLID_M
100
AcDbCircle
 10
19.01854499999999
 20
-10.11104
 30
0.0
 40
0.4600680000000001
100
AcDbArc
 50
82.49957400000001
 51
187.501151
  0
LINE
  5
109
330
1E
100
AcDbEntity
  8
MO_001_VIEW_PV
  6
C_SOLID_M
100
AcDbLine
 10
24.572818
 20
-16.18149999999999
 30
0.0
 11
25.605187
 21
-15.149131
 31
0.0
  0
LINE
  5
10A
330
1E
100
AcDbEntity
  8
MO_001_VIEW_PV
  6
C_SOLID_M
100
AcDbLine
 10
25.265779
 20
-15.48853999999999
 30
0.0
 11
28.801314
 21
-19.02407499999999
 31
0.0
  0
LINE
  5
10B
330
1E
100
AcDbEntity
  8
MO_001_VIEW_PV
  6
C_SOLID_M
100
AcDbLine
 10
24.912226
 20
-15.84209299999999
 30
0.0
 11
28.447761
 21
-19.377628
 31
0.0
  0
LINE
  5
10C
330
1E
100
AcDbEntity
  8
MO_001_VIEW_PV
  6
C_SOLID_M
100
AcDbLine
 10
28.447761
 20
-19.377628
 30
0.0
 11
28.801314
 21
-19.02407499999999
 31
0.0
  0
ARC
  5
10D
330
1E
100
AcDbEntity
  8
MO_001_VIEW_PV
  6
C_SOLID_M
100
AcDbCircle
 10
12.629995
 20
-9.245005
 30
0.0
 40
3.540008999999999
100
AcDbArc
 50
45.000001
 51
89.99998900000001
  0
ARC
  5
10E
330
1E
100
AcDbEntity
  8
MO_001_VIEW_PV
  6
C_SOLID_M
100
AcDbCircle
 10
12.629995
 20
-9.245005
 30
0.0
 40
5.0
100
AcDbArc
 50
45.000001
 51
89.99998900000001
  0
LINE
  5
10F
330
1E
100
AcDbEntity
  8
MO_001_VIEW_PV
  6
C_SOLID_M
100
AcDbLine
 10
12.09999999999999
 20
-5.704995999999999
 30
0.0
 11
12.629995
 21
-5.704995999999999
 31
0.0
  0
LINE
  5
110
330
1E
100
AcDbEntity
  8
MO_001_VIEW_PV
  6
C_SOLID_M
100
AcDbLine
 10
12.09999999999999
 20
-4.245003999999999
 30
0.0
 11
14.629995
 21
-4.245003999999999
 31
0.0
  0
LINE
  5
111
330
1E
100
AcDbEntity
  8
MO_001_VIEW_PV
  6
C_SOLID_L
100
AcDbLine
 10
-45.36279299999999
 20
-15.0
 30
0.0
 11
-27.0
 21
-15.0
 31
0.0
  0
LINE
  5
112
330
1E
100
AcDbEntity
  8
MO_001_VIEW_PV
  6
C_SOLID_M
100
AcDbLine
 10
-53.520531
 20
-21.0
 30
0.0
 11
-28.52694099999999
 21
-21.0
 31
0.0
  0
LINE
  5
113
330
1E
100
AcDbEntity
  8
MO_001_VIEW_PV
  6
C_SOLID_L
100
AcDbLine
 10
-28.69974099999999
 20
-27.0
 30
0.0
 11
13.58649299999999
 21
-27.0
 31
0.0
  0
LINE
  5
114
330
1E
100
AcDbEntity
  8
MO_001_VIEW_PV
  6
C_SOLID_M
100
AcDbLine
 10
19.813939
 20
-8.553288999999999
 30
0.0
 11
17.130105
 21
-6.674047999999999
 31
0.0
  0
LINE
  5
115
330
1E
100
AcDbEntity
  8
MO_001_VIEW_PV
  6
C_SOLID_M
100
AcDbLine
 10
20.65136199999999
 20
-7.357340999999999
 30
0.0
 11
17.497875
 21
-5.149244999999999
 31
0.0
  0
ARC
  5
116
330
1E
100
AcDbEntity
  8
MO_001_VIEW_PV
  6
C_SOLID_M
100
AcDbCircle
 10
14.629995
 20
-9.245005
 30
0.0
 40
5.0
100
AcDbArc
 50
55.00000299999999
 51
90.000002
  0
ARC
  5
117
330
1E
100
AcDbEntity
  8
MO_001_VIEW_PV
  6
C_SOLID_M
100
AcDbCircle
 10
20.252718
 20
-8.414953999999999
 30
0.0
 40
0.4600680000000001
100
AcDbArc
 50
92.49936700000001
 51
197.500575
  0
ARC
  5
118
330
1E
100
AcDbEntity
  8
MO_001_VIEW_PV
  6
C_SOLID_M
100
AcDbCircle
 10
19.79388199999999
 20
-8.093672999999999
 30
0.0
 40
0.4600680000000001
100
AcDbArc
 50
272.499437
 51
17.500598
  0
ARC
  5
119
330
1E
100
AcDbEntity
  8
MO_001_VIEW_PV
  6
C_SOLID_M
100
AcDbCircle
 10
20.212595
 20
-7.495689999999999
 30
0.0
 40
0.4600680000000001
100
AcDbArc
 50
272.499574
 51
17.501144
  0
ARC
  5
11A
330
1E
100
AcDbEntity
  8
MO_001_VIEW_PV
  6
C_SOLID_M
100
AcDbCircle
 10
21.49058699999999
 20
-8.390539999999999
 30
0.0
 40
0.4600680000000001
100
AcDbArc
 50
92.499421
 51
197.50063
  0
ARC
  5
11B
330
1E
100
AcDbEntity
  8
MO_001_VIEW_PV
  6
C_SOLID_M
100
AcDbCircle
 10
21.03174999999999
 20
-8.069259999999999
 30
0.0
 40
0.4600680000000001
100
AcDbArc
 50
272.4993959999999
 51
17.500557
  0
ARC
  5
11C
330
1E
100
AcDbEntity
  8
MO_001_VIEW_PV
  6
C_SOLID_M
100
AcDbCircle
 10
21.07187499999999
 20
-8.988522999999998
 30
0.0
 40
0.4600680000000001
100
AcDbArc
 50
92.499572
 51
197.5011489999999
  0
LINE
  5
11D
330
1E
100
AcDbEntity
  8
MO_001_VIEW_PV
  6
C_SOLID_M
100
AcDbLine
 10
27.595889
 20
-14.00227
 30
0.0
 11
20.633095
 21
-9.126869000000001
 31
0.0
  0
LINE
  5
11E
330
1E
100
AcDbEntity
  8
MO_001_VIEW_PV
  6
C_SOLID_M
100
AcDbLine
 10
28.433305
 20
-12.806316
 30
0.0
 11
21.470511
 21
-7.930914999999999
 31
0.0
  0
LINE
  5
11F
330
1E
100
AcDbEntity
  8
MO_001_VIEW_PV
  6
C_SOLID_M
100
AcDbLine
 10
27.595889
 20
-14.00227
 30
0.0
 11
28.433305
 21
-12.806316
 31
0.0
  0
LINE
  5
120
330
1E
100
AcDbEntity
  8
MO_001_VIEW_PV
  6
C_SOLID_M
100
AcDbLine
 10
28.15799099999999
 20
-13.199506
 30
0.0
 11
32.253751
 21
-16.067388
 31
0.0
  0
LINE
  5
121
330
1E
100
AcDbEntity
  8
MO_001_VIEW_PV
  6
C_SOLID_M
100
AcDbLine
 10
27.871203
 20
-13.609081
 30
0.0
 11
31.966963
 21
-16.476963
 31
0.0
  0
LINE
  5
122
330
1E
100
AcDbEntity
  8
MO_001_VIEW_PV
  6
C_SOLID_M
100
AcDbLine
 10
31.966963
 20
-16.476963
 30
0.0
 11
32.253751
 21
-16.067388
 31
0.0
  0
LINE
  5
123
330
1E
100
AcDbEntity
  8
MO_001_VIEW_PV
  6
C_CENTER_L
100
AcDbLine
 10
48.0
 20
-7.0
 30
0.0
 11
48.0
 21
-23.0
 31
0.0
  0
LINE
  5
124
330
1E
100
AcDbEntity
  8
MO_001_VIEW_PV
  6
C_CENTER_L
100
AcDbLine
 10
40.0
 20
-15.0
 30
0.0
 11
56.0
 21
-15.0
 31
0.0
  0
ARC
  5
125
330
1E
100
AcDbEntity
  8
MO_001_VIEW_PV
  6
C_SOLID_M
100
AcDbCircle
 10
48.0
 20
-15.0
 30
0.0
 40
4.599999999999999
100
AcDbArc
 50
29.59184199999999
 51
330.408161
  0
LINE
  5
126
330
1E
100
AcDbEntity
  8
MO_001_VIEW_PV
  6
C_SOLID_M
100
AcDbLine
 10
52.0
 20
-12.728437
 30
0.0
 11
52.0
 21
-17.271564
 31
0.0
  0
LINE
  5
127
330
1E
100
AcDbEntity
  8
MO_001_VIEW_PV
  6
C_SOLID_L
100
AcDbLine
 10
39.339748
 20
-29.999999
 30
0.0
 11
45.7
 21
-18.98372
 31
0.0
  0
LINE
  5
128
330
1E
100
AcDbEntity
  8
MO_001_VIEW_PV
  6
C_SOLID_L
100
AcDbLine
 10
39.339752
 20
-30.0
 30
0.0
 11
60.0
 21
-30.0
 31
0.0
  0
TEXT
  5
129
330
1E
100
AcDbEntity
  8
MO_001_VIEW_PV
  6
C_SOLID_L
100
AcDbText
 10
-61.48828100000001
 20
-47.08359399999999
 30
0.0
 40
4.167187
  1
S-50S Pull
100
AcDbText
  0
TEXT
  5
12A
330
1E
100
AcDbEntity
  8
MO_001_VIEW_PV
  6
C_SOLID_L
100
AcDbText
 10
-26.865027
 20
-26.420715
 30
0.0
 40
3.0
  1
長さ150以上
100
AcDbText
  0
TEXT
  5
12B
330
1E
100
AcDbEntity
  8
MO_001_VIEW_PV
  6
C_SOLID_L
100
AcDbText
 10
-27.764868
 20
-30.855648
 30
0.0
 40
3.0
  1
(UL1430 AWG28)
100
AcDbText
  0
TEXT
  5
12C
330
1E
100
AcDbEntity
  8
MO_001_VIEW_PV
  6
C_SOLID_L
100
AcDbText
 10
-51.609347
 20
-20.404186
 30
0.0
 40
3.0
  1
M9 P0.75
100
AcDbText
  0
TEXT
  5
12D
330
1E
100
AcDbEntity
  8
MO_001_VIEW_PV
  6
C_SOLID_L
100
AcDbText
 10
-32.111207
 20
-12.222393
 30
0.0
 40
1.5
  1
+0.1
100
AcDbText
  0
TEXT
  5
12E
330
1E
100
AcDbEntity
  8
MO_001_VIEW_PV
  6
C_SOLID_L
100
AcDbText
 10
-32.111207
 20
-14.47239299999999
 30
0.0
 40
1.5
  1
 0
100
AcDbText
  0
TEXT
  5
12F
330
1E
100
AcDbEntity
  8
MO_001_VIEW_PV
  6
C_SOLID_L
100
AcDbText
 10
-43.89692199999999
 20
-14.097393
 30
0.0
 40
3.0
  1
%%C1.6
100
AcDbText
  0
TEXT
  5
130
330
1E
100
AcDbEntity
  8
MO_001_VIEW_PV
  6
C_SOLID_L
100
AcDbText
 10
54.408629
 20
-27.310104
 30
0.0
 40
1.5
  1
%%P0.1
100
AcDbText
  0
TEXT
  5
131
330
1E
100
AcDbEntity
  8
MO_001_VIEW_PV
  6
C_SOLID_L
100
AcDbText
 10
42.62291499999999
 20
-29.185104
 30
0.0
 40
3.0
  1
%%C9.2
100
AcDbText
  0
TEXT
  5
132
330
1E
100
AcDbEntity
  8
MO_001_VIEW_PV
  6
C_SOLID_L
100
AcDbText
 10
40.214286
 20
-47.5
 30
0.0
 40
5.0
  1
取付け穴
100
AcDbText
  0
TEXT
  5
133
330
1E
100
AcDbEntity
  8
MO_001_VIEW_PV
  6
C_SOLID_L
100
AcDbText
 10
-4.785713999999999
 20
-53.5
 30
0.0
 40
5.0
  1
図は励磁時を示す
100
AcDbText
  0
TEXT
  5
134
330
1E
100
AcDbEntity
  8
MO_001_VIEW_PV
  6
C_SOLID_L
100
AcDbText
 10
-4.785713999999999
 20
-47.5
 30
0.0
 40
5.0
  1
単位：mm
100
AcDbText
  0
TEXT
  5
135
330
1E
100
AcDbEntity
  8
MO_001_VIEW_PV
  6
C_SOLID_L
100
AcDbText
 10
-56.19948
 20
-34.269562
 30
0.0
 40
3.0
  1
M9 P0.75の不完全
100
AcDbText
  0
TEXT
  5
136
330
1E
100
AcDbEntity
  8
MO_001_VIEW_PV
  6
C_SOLID_L
100
AcDbText
 10
-56.19948
 20
-38.769562
 30
0.0
 40
3.0
  1
ネジ部 1.5以下
100
AcDbText
  0
DIMENSION
  5
138
330
1E
100
AcDbEntity
  8
MO_001_VIEW_PV
  6
C_SOLID_M
100
AcDbDimension
  2
*D0
 10
21.0
 20
24.0
 30
0.0
 11
21.0
 21
24.0
 31
0.0
  3
STANDARD
100
AcDbAlignedDimension
 13
12.09999999999999
 23
6.5
 33
0.0
 14
0.0
 24
6.299999999999999
 34
0.0
100
AcDbRotatedDimension
  0
DIMENSION
  5
13A
330
1E
100
AcDbEntity
  8
MO_001_VIEW_PV
  6
C_SOLID_M
100
AcDbDimension
  2
*D1
 10
-57.990356
 20
24.0
 30
0.0
 11
-57.990356
 21
24.0
 31
0.0
  3
STANDARD
100
AcDbAlignedDimension
 13
-53.5
 23
0.0
 33
0.0
 14
-66.5
 24
0.0
 34
0.0
100
AcDbRotatedDimension
  0
DIMENSION
  5
13C
330
1E
100
AcDbEntity
  8
MO_001_VIEW_PV
  6
C_SOLID_M
100
AcDbDimension
  2
*D2
 10
-46.29091599999999
 20
18.0
 30
0.0
 11
-46.29091599999999
 21
18.0
 31
0.0
  3
STANDARD
100
AcDbAlignedDimension
 13
-54.0
 23
3.464101999999999
 33
0.0
 14
-66.0
 24
3.464101999999999
 34
0.0
100
AcDbRotatedDimension
  0
DIMENSION
  5
13E
330
1E
100
AcDbEntity
  8
MO_001_VIEW_PV
  6
C_SOLID_M
100
AcDbDimension
  2
*D3
 10
-43.85353099999999
 20
12.0
 30
0.0
 11
-43.85353099999999
 21
12.0
 31
0.0
  3
STANDARD
100
AcDbAlignedDimension
 13
-60.0
 23
10.0
 33
0.0
 14
-56.099998
 24
2.244991999999999
 34
0.0
100
AcDbRotatedDimension
  0
DIMENSION
  5
140
330
1E
100
AcDbEntity
  8
MO_001_VIEW_PV
  6
C_SOLID_M
100
AcDbDimension
  2
*D4
 10
-30.0
 20
13.378765
 30
0.0
 11
-30.0
 21
13.378765
 31
0.0
  3
STANDARD
100
AcDbAlignedDimension
 13
-17.50000199999999
 23
-2.5
 33
0.0
 14
-17.50000199999999
 24
2.5
 34
0.0
 50
89.999523
100
AcDbRotatedDimension
  0
DIMENSION
  5
142
330
1E
100
AcDbEntity
  8
MO_001_VIEW_PV
  6
C_SOLID_M
100
AcDbDimension
  2
*D5
 10
-24.0
 20
12.0
 30
0.0
 11
-24.0
 21
12.0
 31
0.0
  3
STANDARD
100
AcDbAlignedDimension
 13
-17.50000199999999
 23
-0.9
 33
0.0
 14
-17.50000199999999
 24
0.9
 34
0.0
 50
89.999523
100
AcDbRotatedDimension
  0
DIMENSION
  5
144
330
1E
100
AcDbEntity
  8
MO_001_VIEW_PV
  6
C_SOLID_M
100
AcDbDimension
  2
*D6
 10
1.813461
 20
-20.08107
 30
0.0
 11
1.813461
 21
-20.08107
 31
0.0
  3
STANDARD
100
AcDbAlignedDimension
 13
-17.50000199999999
 23
-2.5
 33
0.0
 14
-11.00000099999999
 24
-0.9
 34
0.0
100
AcDbRotatedDimension
  0
DIMENSION
  5
146
330
1E
100
AcDbEntity
  8
MO_001_VIEW_PV
  6
C_SOLID_M
100
AcDbDimension
  2
*D7
 10
-9.093652
 20
24.0
 30
0.0
 11
-9.093652
 21
24.0
 31
0.0
  3
STANDARD
100
AcDbAlignedDimension
 13
0.0
 23
6.299999999999999
 33
0.0
 14
-17.50000199999999
 24
2.5
 34
0.0
100
AcDbRotatedDimension
  0
DIMENSION
  5
148
330
1E
100
AcDbEntity
  8
MO_001_VIEW_PV
  6
C_SOLID_M
100
AcDbDimension
  2
*D8
 10
9.30846
 20
18.0
 30
0.0
 11
9.30846
 21
18.0
 31
0.0
  3
STANDARD
100
AcDbAlignedDimension
 13
-14.3
 23
4.208938999999999
 33
0.0
 14
0.0
 24
6.299999999999999
 34
0.0
100
AcDbRotatedDimension
  0
DIMENSION
  5
14A
330
1E
100
AcDbEntity
  8
MO_001_VIEW_PV
  6
C_SOLID_M
100
AcDbDimension
  2
*D9
 10
11.070518
 20
12.0
 30
0.0
 11
11.070518
 21
12.0
 31
0.0
  3
STANDARD
100
AcDbAlignedDimension
 13
-6.4
 23
3.75
 33
0.0
 14
0.0
 24
6.299999999999999
 34
0.0
100
AcDbRotatedDimension
  0
LINE
  5
14B
330
1E
100
AcDbEntity
  8
MO_001_VIEW_PV
  6
C_SOLID_L
100
AcDbLine
 10
-14.300001
 20
-2.368545
 30
0.0
 11
-26.931458
 21
-15.000001
 31
0.0
  0
POLYLINE
  5
14C
330
1E
100
AcDbEntity
  8
MO_001_VIEW_PV
  6
C_SOLID_L
100
AcDb2dPolyline
 66
     1
 10
0.0
 20
0.0
 30
0.0
 70
     1
  0
VERTEX
  5
22B
330
14C
100
AcDbEntity
  8
MO_001_VIEW_PV
  6
C_SOLID_L
100
AcDbVertex
100
AcDb2dVertex
 10
-16.23376
 20
-5.127513999999999
 30
0.0
  0
VERTEX
  5
22C
330
14C
100
AcDbEntity
  8
MO_001_VIEW_PV
  6
C_SOLID_L
100
AcDbVertex
100
AcDb2dVertex
 10
-14.659211
 20
-2.727754999999999
 30
0.0
  0
VERTEX
  5
22D
330
14C
100
AcDbEntity
  8
MO_001_VIEW_PV
  6
C_SOLID_L
100
AcDbVertex
100
AcDb2dVertex
 10
-17.05897
 20
-4.302304
 30
0.0
  0
SEQEND
  5
22E
330
14C
100
AcDbEntity
  8
MO_001_VIEW_PV
  6
C_SOLID_L
  0
LINE
  5
151
330
1E
100
AcDbEntity
  8
MO_001_VIEW_PV
  6
C_SOLID_L
100
AcDbLine
 10
-4.9625
 20
-4.5
 30
0.0
 11
-28.526944
 21
-21.000001
 31
0.0
  0
POLYLINE
  5
152
330
1E
100
AcDbEntity
  8
MO_001_VIEW_PV
  6
C_SOLID_L
100
AcDb2dPolyline
 66
     1
 10
0.0
 20
0.0
 30
0.0
 70
     1
  0
VERTEX
  5
22F
330
152
100
AcDbEntity
  8
MO_001_VIEW_PV
  6
C_SOLID_L
100
AcDbVertex
100
AcDb2dVertex
 10
-7.345971
 20
-6.881261
 30
0.0
  0
VERTEX
  5
230
330
152
100
AcDbEntity
  8
MO_001_VIEW_PV
  6
C_SOLID_L
100
AcDbVertex
100
AcDb2dVertex
 10
-5.37863
 20
-4.791376999999999
 30
0.0
  0
VERTEX
  5
231
330
152
100
AcDbEntity
  8
MO_001_VIEW_PV
  6
C_SOLID_L
100
AcDbVertex
100
AcDb2dVertex
 10
-8.015347999999999
 20
-5.925291
 30
0.0
  0
SEQEND
  5
232
330
152
100
AcDbEntity
  8
MO_001_VIEW_PV
  6
C_SOLID_L
  0
LINE
  5
157
330
1E
100
AcDbEntity
  8
MO_001_VIEW_PV
  6
C_SOLID_L
100
AcDbLine
 10
21.567613
 20
-13.176295
 30
0.0
 11
13.58649299999999
 21
-27.0
 31
0.0
  0
POLYLINE
  5
158
330
1E
100
AcDbEntity
  8
MO_001_VIEW_PV
  6
C_SOLID_L
100
AcDb2dPolyline
 66
     1
 10
0.0
 20
0.0
 30
0.0
 70
     1
  0
VERTEX
  5
233
330
158
100
AcDbEntity
  8
MO_001_VIEW_PV
  6
C_SOLID_L
100
AcDbVertex
100
AcDb2dVertex
 10
20.413819
 20
-16.341748
 30
0.0
  0
VERTEX
  5
234
330
158
100
AcDbEntity
  8
MO_001_VIEW_PV
  6
C_SOLID_L
100
AcDbVertex
100
AcDb2dVertex
 10
21.313613
 20
-13.61623599999999
 30
0.0
  0
VERTEX
  5
235
330
158
100
AcDbEntity
  8
MO_001_VIEW_PV
  6
C_SOLID_L
100
AcDbVertex
100
AcDb2dVertex
 10
19.403147
 20
-15.75823699999999
 30
0.0
  0
SEQEND
  5
236
330
158
100
AcDbEntity
  8
MO_001_VIEW_PV
  6
C_SOLID_L
  0
DIMENSION
  5
15E
330
1E
100
AcDbEntity
  8
MO_001_VIEW_PV
  6
C_SOLID_M
100
AcDbDimension
  2
*D10
 10
63.500839
 20
3.0
 30
0.0
 11
63.500839
 21
3.0
 31
0.0
  3
STANDARD
100
AcDbAlignedDimension
 13
52.0
 23
-12.728437
 33
0.0
 14
43.400002
 24
-15.0
 34
0.0
100
AcDbRotatedDimension
  0
DIMENSION
  5
160
330
1E
100
AcDbEntity
  8
MO_001_VIEW_PV
  6
C_SOLID_M
100
AcDbDimension
  2
*D11
 10
60.0
 20
-3.0
 30
0.0
 11
60.0
 21
-3.0
 31
0.0
  1
(4)
  3
STANDARD
100
AcDbAlignedDimension
 13
52.0
 23
-12.728437
 33
0.0
 14
48.0
 24
-7.0
 34
0.0
100
AcDbRotatedDimension
  0
LINE
  5
161
330
1E
100
AcDbEntity
  8
MO_001_VIEW_PV
  6
C_SOLID_L
100
AcDbLine
 10
50.29999799999999
 20
-11.01627899999999
 30
0.0
 11
47.999995
 21
-14.999995
 31
0.0
  0
POLYLINE
  5
162
330
1E
100
AcDbEntity
  8
MO_001_VIEW_PV
  6
C_SOLID_L
100
AcDb2dPolyline
 66
     1
 10
0.0
 20
0.0
 30
0.0
 70
     1
  0
VERTEX
  5
237
330
162
100
AcDbEntity
  8
MO_001_VIEW_PV
  6
C_SOLID_L
100
AcDbVertex
100
AcDb2dVertex
 10
49.146202
 20
-14.18173099999999
 30
0.0
  0
VERTEX
  5
238
330
162
100
AcDbEntity
  8
MO_001_VIEW_PV
  6
C_SOLID_L
100
AcDbVertex
100
AcDb2dVertex
 10
50.045998
 20
-11.456219
 30
0.0
  0
VERTEX
  5
239
330
162
100
AcDbEntity
  8
MO_001_VIEW_PV
  6
C_SOLID_L
100
AcDbVertex
100
AcDb2dVertex
 10
48.135531
 20
-13.598219
 30
0.0
  0
SEQEND
  5
23A
330
162
100
AcDbEntity
  8
MO_001_VIEW_PV
  6
C_SOLID_L
  0
LINE
  5
167
330
1E
100
AcDbEntity
  8
MO_001_VIEW_PV
  6
C_SOLID_L
100
AcDbLine
 10
45.700009
 20
-18.983719
 30
0.0
 11
48.00000999999999
 21
-15.0
 31
0.0
  0
POLYLINE
  5
168
330
1E
100
AcDbEntity
  8
MO_001_VIEW_PV
  6
C_SOLID_L
100
AcDb2dPolyline
 66
     1
 10
0.0
 20
0.0
 30
0.0
 70
     1
  0
VERTEX
  5
23B
330
168
100
AcDbEntity
  8
MO_001_VIEW_PV
  6
C_SOLID_L
100
AcDbVertex
100
AcDb2dVertex
 10
46.85380300000001
 20
-15.818266
 30
0.0
  0
VERTEX
  5
23C
330
168
100
AcDbEntity
  8
MO_001_VIEW_PV
  6
C_SOLID_L
100
AcDbVertex
100
AcDb2dVertex
 10
45.954009
 20
-18.54377799999999
 30
0.0
  0
VERTEX
  5
23D
330
168
100
AcDbEntity
  8
MO_001_VIEW_PV
  6
C_SOLID_L
100
AcDbVertex
100
AcDb2dVertex
 10
47.864475
 20
-16.40177699999999
 30
0.0
  0
SEQEND
  5
23E
330
168
100
AcDbEntity
  8
MO_001_VIEW_PV
  6
C_SOLID_L
  0
ENDSEC
  0
SECTION
  2
OBJECTS
  0
DICTIONARY
  5
1A
330
0
100
AcDbDictionary
  3
ACAD_GROUP
350
1B
  3
ACAD_MLINESTYLE
350
1C
  3
ACAD_LAYOUT
350
1FF
  3
ACAD_PLOTSETTINGS
350
200
1001
ACAD
1000
TREAT_AS_HARD
1070
     0
  0
DICTIONARY
  5
205
330
1E
100
AcDbDictionary
  3
ACAD_LAYOUTSELFREF
350
206
  0
DICTIONARY
  5
207
330
1F
100
AcDbDictionary
  3
ACAD_LAYOUTSELFREF
350
208
  0
DICTIONARY
  5
1B
102
{ACAD_REACTORS
330
1A
102
}
330
1A
100
AcDbDictionary
1001
ACAD
1000
TREAT_AS_HARD
1070
     0
  0
DICTIONARY
  5
1C
102
{ACAD_REACTORS
330
1A
102
}
330
1A
100
AcDbDictionary
  3
STANDARD
350
1D
1001
ACAD
1000
TREAT_AS_HARD
1070
     0
  0
DICTIONARY
  5
1FF
102
{ACAD_REACTORS
330
1A
102
}
330
1A
100
AcDbDictionary
1001
ACAD
1000
TREAT_AS_HARD
1070
     0
  0
DICTIONARY
  5
200
102
{ACAD_REACTORS
330
1A
102
}
330
1A
100
AcDbDictionary
1001
ACAD
1000
TREAT_AS_HARD
1070
     0
  0
XRECORD
  5
206
102
{ACAD_REACTORS
330
205
102
}
330
205
100
AcDbXrecord
340
1E
  0
XRECORD
  5
208
102
{ACAD_REACTORS
330
207
102
}
330
207
100
AcDbXrecord
340
1F
  0
MLINESTYLE
  5
1D
102
{ACAD_REACTORS
330
1C
102
}
330
1C
100
AcDbMlineStyle
  2
STANDARD
 70
     0
  3

 62
     0
 51
90.0
 52
90.0
 71
     2
 49
0.5
 62
   256
  6
BYLAYER
 49
-0.5
 62
   256
  6
BYLAYER
  0
ENDSEC
  0
EOF
