  0
SECTION
  2
HEADER
  9
$ACADVER
  1
AC1012
  9
$DWGCODEPAGE
  3
dos932
  9
$INSBASE
 10
0.0
 20
0.0
 30
0.0
  9
$EXTMIN
 10
-52.13353084570513
 20
-53.50313545501922
 30
-0.0015258207003583
  9
$EXTMAX
 10
95.54111584158045
 20
36.1280214598263
 30
0.0000000349246037
  9
$LIMMIN
 10
-54.0
 20
-57.25
  9
$LIMMAX
 10
95.53655199999999
 20
38.0
  9
$ORTHOMODE
 70
     0
  9
$REGENMODE
 70
     1
  9
$FILLMODE
 70
     1
  9
$QTEXTMODE
 70
     0
  9
$MIRRTEXT
 70
     1
  9
$DRAGMODE
 70
     2
  9
$LTSCALE
 40
1.0
  9
$OSMODE
 70
    37
  9
$ATTMODE
 70
     1
  9
$TEXTSIZE
 40
4.1672
  9
$TRACEWID
 40
0.05
  9
$TEXTSTYLE
  7
STANDARD
  9
$CLAYER
  8
0
  9
$CELTYPE
  6
CONTINUOUS
  9
$CECOLOR
 62
   256
  9
$CELTSCALE
 40
1.0
  9
$DELOBJ
 70
     1
  9
$DISPSILH
 70
     0
  9
$DIMSCALE
 40
1.0
  9
$DIMASZ
 40
0.18
  9
$DIMEXO
 40
0.0625
  9
$DIMDLI
 40
0.38
  9
$DIMRND
 40
0.0
  9
$DIMDLE
 40
0.0
  9
$DIMEXE
 40
0.18
  9
$DIMTP
 40
0.0
  9
$DIMTM
 40
0.0
  9
$DIMTXT
 40
0.18
  9
$DIMCEN
 40
0.09
  9
$DIMTSZ
 40
0.0
  9
$DIMTOL
 70
     0
  9
$DIMLIM
 70
     0
  9
$DIMTIH
 70
     1
  9
$DIMTOH
 70
     1
  9
$DIMSE1
 70
     0
  9
$DIMSE2
 70
     0
  9
$DIMTAD
 70
     0
  9
$DIMZIN
 70
     0
  9
$DIMBLK
  1

  9
$DIMASO
 70
     1
  9
$DIMSHO
 70
     1
  9
$DIMPOST
  1

  9
$DIMAPOST
  1

  9
$DIMALT
 70
     0
  9
$DIMALTD
 70
     2
  9
$DIMALTF
 40
25.4
  9
$DIMLFAC
 40
1.0
  9
$DIMTOFL
 70
     0
  9
$DIMTVP
 40
0.0
  9
$DIMTIX
 70
     0
  9
$DIMSOXD
 70
     0
  9
$DIMSAH
 70
     0
  9
$DIMBLK1
  1

  9
$DIMBLK2
  1

  9
$DIMSTYLE
  2
STANDARD
  9
$DIMCLRD
 70
     0
  9
$DIMCLRE
 70
     0
  9
$DIMCLRT
 70
     0
  9
$DIMTFAC
 40
1.0
  9
$DIMGAP
 40
0.09
  9
$DIMJUST
 70
     0
  9
$DIMSD1
 70
     0
  9
$DIMSD2
 70
     0
  9
$DIMTOLJ
 70
     1
  9
$DIMTZIN
 70
     0
  9
$DIMALTZ
 70
     0
  9
$DIMALTTZ
 70
     0
  9
$DIMFIT
 70
     3
  9
$DIMUPT
 70
     0
  9
$DIMUNIT
 70
     2
  9
$DIMDEC
 70
     4
  9
$DIMTDEC
 70
     4
  9
$DIMALTU
 70
     2
  9
$DIMALTTD
 70
     2
  9
$DIMTXSTY
  7
STANDARD
  9
$DIMAUNIT
 70
     0
  9
$LUNITS
 70
     2
  9
$LUPREC
 70
     6
  9
$SKETCHINC
 40
0.1
  9
$FILLETRAD
 40
0.0
  9
$AUNITS
 70
     0
  9
$AUPREC
 70
     4
  9
$MENU
  1
acad
  9
$ELEVATION
 40
0.0
  9
$PELEVATION
 40
0.0
  9
$THICKNESS
 40
0.0
  9
$LIMCHECK
 70
     0
  9
$BLIPMODE
 70
     0
  9
$CHAMFERA
 40
0.0
  9
$CHAMFERB
 40
0.0
  9
$CHAMFERC
 40
0.0
  9
$CHAMFERD
 40
0.0
  9
$SKPOLY
 70
     0
  9
$TDCREATE
 40
2376126.114256134
  9
$TDUPDATE
 40
2451667.440122917
  9
$TDINDWG
 40
0.0007863426
  9
$TDUSRTIMER
 40
0.0007863426
  9
$USRTIMER
 70
     1
  9
$ANGBASE
 50
0.0
  9
$ANGDIR
 70
     0
  9
$PDMODE
 70
     0
  9
$PDSIZE
 40
0.0
  9
$PLINEWID
 40
0.0
  9
$COORDS
 70
     1
  9
$SPLFRAME
 70
     0
  9
$SPLINETYPE
 70
     6
  9
$SPLINESEGS
 70
     8
  9
$ATTDIA
 70
     0
  9
$ATTREQ
 70
     1
  9
$HANDLING
 70
 10241
  9
$HANDSEED
  5
1C6
  9
$SURFTAB1
 70
     6
  9
$SURFTAB2
 70
     6
  9
$SURFTYPE
 70
     6
  9
$SURFU
 70
     6
  9
$SURFV
 70
     6
  9
$UCSNAME
  2
MO_001_VIEW_PV_P
  9
$UCSORG
 10
0.0
 20
0.0
 30
0.0
  9
$UCSXDIR
 10
1.0
 20
0.0
 30
0.0
  9
$UCSYDIR
 10
-0.0000000002051034
 20
1.0
 30
0.0
  9
$PUCSNAME
  2

  9
$PUCSORG
 10
0.0
 20
0.0
 30
0.0
  9
$PUCSXDIR
 10
1.0
 20
0.0
 30
0.0
  9
$PUCSYDIR
 10
0.0
 20
1.0
 30
0.0
  9
$USERI1
 70
     0
  9
$USERI2
 70
     0
  9
$USERI3
 70
     0
  9
$USERI4
 70
     0
  9
$USERI5
 70
     0
  9
$USERR1
 40
0.0
  9
$USERR2
 40
0.0
  9
$USERR3
 40
0.0
  9
$USERR4
 40
0.0
  9
$USERR5
 40
0.0
  9
$WORLDVIEW
 70
     1
  9
$SHADEDGE
 70
     3
  9
$SHADEDIF
 70
    70
  9
$TILEMODE
 70
     1
  9
$MAXACTVP
 70
    16
  9
$PINSBASE
 10
0.0
 20
0.0
 30
0.0
  9
$PLIMCHECK
 70
     0
  9
$PEXTMIN
 10
-54.0
 20
-57.25
 30
1.000000000000000E+20
  9
$PEXTMAX
 10
95.53655199999999
 20
38.0
 30
-1.000000000000000E+20
  9
$PLIMMIN
 10
0.0
 20
0.0
  9
$PLIMMAX
 10
12.0
 20
9.0
  9
$UNITMODE
 70
     0
  9
$VISRETAIN
 70
     0
  9
$PLINEGEN
 70
     0
  9
$PSLTSCALE
 70
     1
  9
$TREEDEPTH
 70
  3020
  9
$PICKSTYLE
 70
     1
  9
$CMLSTYLE
  2
STANDARD
  9
$CMLJUST
 70
     0
  9
$CMLSCALE
 40
1.0
  9
$SAVEIMAGES
 70
     1
  0
ENDSEC
  0
SECTION
  2
CLASSES
  0
CLASS
  1
ACDBDICTIONARYWDFLT
  2
AcDbDictionaryWithDefault
  3
AutoCAD 2000
 90
    32768
280
     0
281
     0
  0
CLASS
  1
ACDBPLACEHOLDER
  2
AcDbPlaceHolder
  3
AutoCAD 2000
 90
    32768
280
     0
281
     0
  0
CLASS
  1
LAYOUT
  2
AcDbLayout
  3
AutoCAD 2000
 90
    32768
280
     0
281
     0
  0
CLASS
  1
LONG_TRANSACTION
  2
AcDbLongTransaction
  3
AutoCAD 2000
 90
    32768
280
     0
281
     0
  0
CLASS
  1
LWPOLYLINE
  2
AcDbPolyline
  3
AutoCAD 2000
 90
    32768
280
     0
281
     1
  0
CLASS
  1
HATCH
  2
AcDbHatch
  3
AutoCAD 2000
 90
    32768
280
     0
281
     1
  0
CLASS
  1
XRECORD
  2
AcDbXrecord
  3
AutoCAD 2000
 90
    32768
280
     0
281
     0
  0
ENDSEC
  0
SECTION
  2
TABLES
  0
TABLE
  2
VPORT
  5
7
330
0
100
AcDbSymbolTable
 70
     2
  0
VPORT
  5
1B1
330
7
100
AcDbSymbolTableRecord
100
AcDbViewportTableRecord
  2
*ACTIVE
 70
     0
 10
0.0
 20
0.0
 11
1.0
 21
1.0
 12
20.77055697435472
 22
-9.62500055937086
 13
0.0
 23
0.0
 14
6.349999999999999
 24
6.349999999999999
 15
6.349999999999999
 25
6.349999999999999
 16
0.0
 26
0.0
 36
1.0
 17
0.0
 27
0.0
 37
0.0
 40
169.3524797118134
 41
1.691964285714285
 42
50.0
 43
0.0
 44
0.0
 50
0.0
 51
0.0
 71
     0
 72
   100
 73
     1
 74
     1
 75
     0
 76
     0
 77
     0
 78
     0
  0
ENDTAB
  0
TABLE
  2
LTYPE
  5
4
330
0
100
AcDbSymbolTable
 70
    37
  0
LTYPE
  5
12
330
4
100
AcDbSymbolTableRecord
100
AcDbLinetypeTableRecord
  2
BYBLOCK
 70
     0
  3

 72
    65
 73
     0
 40
0.0
  0
LTYPE
  5
13
330
4
100
AcDbSymbolTableRecord
100
AcDbLinetypeTableRecord
  2
BYLAYER
 70
     0
  3

 72
    65
 73
     0
 40
0.0
  0
LTYPE
  5
14
330
4
100
AcDbSymbolTableRecord
100
AcDbLinetypeTableRecord
  2
CONTINUOUS
 70
     0
  3
DXF Default line type
 72
    65
 73
     0
 40
0.0
  0
LTYPE
  5
20
330
4
100
AcDbSymbolTableRecord
100
AcDbLinetypeTableRecord
  2
DASHED
 70
     0
  3
DXF Dashed
 72
    65
 73
     2
 40
0.75
 49
0.5
 74
     0
 49
-0.25
 74
     0
  0
LTYPE
  5
21
330
4
100
AcDbSymbolTableRecord
100
AcDbLinetypeTableRecord
  2
HIDDEN
 70
     0
  3
DXF Hidden
 72
    65
 73
     2
 40
0.375
 49
0.25
 74
     0
 49
-0.125
 74
     0
  0
LTYPE
  5
22
330
4
100
AcDbSymbolTableRecord
100
AcDbLinetypeTableRecord
  2
CENTER
 70
     0
  3
DXF Center
 72
    65
 73
     4
 40
2.0
 49
1.25
 74
     0
 49
-0.25
 74
     0
 49
0.25
 74
     0
 49
-0.25
 74
     0
  0
LTYPE
  5
23
330
4
100
AcDbSymbolTableRecord
100
AcDbLinetypeTableRecord
  2
PHANTOM
 70
     0
  3
DXF Phantom
 72
    65
 73
     6
 40
2.5
 49
1.25
 74
     0
 49
-0.25
 74
     0
 49
0.25
 74
     0
 49
-0.25
 74
     0
 49
0.25
 74
     0
 49
-0.25
 74
     0
  0
LTYPE
  5
24
330
4
100
AcDbSymbolTableRecord
100
AcDbLinetypeTableRecord
  2
DOT
 70
     0
  3
DXF DOT
 72
    65
 73
     2
 40
0.25
 49
0.0
 74
     0
 49
-0.25
 74
     0
  0
LTYPE
  5
25
330
4
100
AcDbSymbolTableRecord
100
AcDbLinetypeTableRecord
  2
DASHDOT
 70
     0
  3
DXF Dash Dot
 72
    65
 73
     4
 40
1.0
 49
0.5
 74
     0
 49
-0.25
 74
     0
 49
0.0
 74
     0
 49
-0.25
 74
     0
  0
LTYPE
  5
26
330
4
100
AcDbSymbolTableRecord
100
AcDbLinetypeTableRecord
  2
BORDER
 70
     0
  3
DXF Border
 72
    65
 73
     6
 40
1.75
 49
0.5
 74
     0
 49
-0.25
 74
     0
 49
0.5
 74
     0
 49
-0.25
 74
     0
 49
0.0
 74
     0
 49
-0.25
 74
     0
  0
LTYPE
  5
27
330
4
100
AcDbSymbolTableRecord
100
AcDbLinetypeTableRecord
  2
DIVIDE
 70
     0
  3
DXF Divide
 72
    65
 73
     6
 40
1.25
 49
0.5
 74
     0
 49
-0.25
 74
     0
 49
0.0
 74
     0
 49
-0.25
 74
     0
 49
0.0
 74
     0
 49
-0.25
 74
     0
  0
LTYPE
  5
28
330
4
100
AcDbSymbolTableRecord
100
AcDbLinetypeTableRecord
  2
C_SOLID_L
 70
     0
  3
CADAM Solid Light
 72
    65
 73
     0
 40
0.0
  0
LTYPE
  5
29
330
4
100
AcDbSymbolTableRecord
100
AcDbLinetypeTableRecord
  2
C_SOLID_M
 70
     0
  3
CADAM Solid Medium
 72
    65
 73
     0
 40
0.0
  0
LTYPE
  5
2A
330
4
100
AcDbSymbolTableRecord
100
AcDbLinetypeTableRecord
  2
C_SOLID_H
 70
     0
  3
CADAM Solid Heavy
 72
    65
 73
     0
 40
0.0
  0
LTYPE
  5
2B
330
4
100
AcDbSymbolTableRecord
100
AcDbLinetypeTableRecord
  2
C_DASHED_L
 70
     0
  3
CADAM Dashed Light
 72
    65
 73
     2
 40
0.375
 49
0.25
 74
     0
 49
-0.125
 74
     0
  0
LTYPE
  5
2C
330
4
100
AcDbSymbolTableRecord
100
AcDbLinetypeTableRecord
  2
C_DASHED_M
 70
     0
  3
CADAM Dashed Medium
 72
    65
 73
     2
 40
0.5
 49
0.375
 74
     0
 49
-0.125
 74
     0
  0
LTYPE
  5
2D
330
4
100
AcDbSymbolTableRecord
100
AcDbLinetypeTableRecord
  2
C_CENTER_L
 70
     0
  3
CADAM Center Light
 72
    65
 73
     4
 40
2.0
 49
1.25
 74
     0
 49
-0.25
 74
     0
 49
0.25
 74
     0
 49
-0.25
 74
     0
  0
LTYPE
  5
2E
330
4
100
AcDbSymbolTableRecord
100
AcDbLinetypeTableRecord
  2
C_PHANTOM_L
 70
     0
  3
CADAM Phantom Light
 72
    65
 73
     6
 40
2.5
 49
1.25
 74
     0
 49
-0.25
 74
     0
 49
0.25
 74
     0
 49
-0.25
 74
     0
 49
0.25
 74
     0
 49
-0.25
 74
     0
  0
LTYPE
  5
2F
330
4
100
AcDbSymbolTableRecord
100
AcDbLinetypeTableRecord
  2
C_BREAK_M
 70
     0
  3
CADAM Break Medium
 72
    65
 73
     4
 40
1.0
 49
0.5
 74
     0
 49
-0.25
 74
     0
 49
0.0
 74
     0
 49
-0.25
 74
     0
  0
LTYPE
  5
30
330
4
100
AcDbSymbolTableRecord
100
AcDbLinetypeTableRecord
  2
C_NC
 70
     0
  3
CADAM NC
 72
    65
 73
     0
 40
0.0
  0
LTYPE
  5
31
330
4
100
AcDbSymbolTableRecord
100
AcDbLinetypeTableRecord
  2
DSH1
 70
     0
  3
CADAM Style2 Type 1 Dashed Line
 72
    65
 73
     2
 40
0.075
 49
0.04
 74
     0
 49
-0.035
 74
     0
  0
LTYPE
  5
32
330
4
100
AcDbSymbolTableRecord
100
AcDbLinetypeTableRecord
  2
DSH2
 70
     0
  3
CADAM Style2 Type 2 Dashed Line
 72
    65
 73
     2
 40
0.15
 49
0.11
 74
     0
 49
-0.04
 74
     0
  0
LTYPE
  5
33
330
4
100
AcDbSymbolTableRecord
100
AcDbLinetypeTableRecord
  2
DSH3
 70
     0
  3
CADAM Style2 Type 3 Dashed Line
 72
    65
 73
     2
 40
0.2
 49
0.15
 74
     0
 49
-0.05
 74
     0
  0
LTYPE
  5
34
330
4
100
AcDbSymbolTableRecord
100
AcDbLinetypeTableRecord
  2
DSH4
 70
     0
  3
CADAM Style2 Type 4 Dashed Line
 72
    65
 73
     2
 40
0.36
 49
0.28
 74
     0
 49
-0.08
 74
     0
  0
LTYPE
  5
35
330
4
100
AcDbSymbolTableRecord
100
AcDbLinetypeTableRecord
  2
DSH5
 70
     0
  3
CADAM Style2 Type 5 Dashed Line
 72
    65
 73
     2
 40
0.47
 49
0.39
 74
     0
 49
-0.08
 74
     0
  0
LTYPE
  5
36
330
4
100
AcDbSymbolTableRecord
100
AcDbLinetypeTableRecord
  2
DSH6
 70
     0
  3
CADAM Style2 Type 6 Dashed Line
 72
    65
 73
     2
 40
0.9
 49
0.8100000000000001
 74
     0
 49
-0.09
 74
     0
  0
LTYPE
  5
37
330
4
100
AcDbSymbolTableRecord
100
AcDbLinetypeTableRecord
  2
PL1
 70
     0
  3
Style 2 Type 1 Phantom Line
 72
    65
 73
     6
 40
1.0
 49
0.6
 74
     0
 49
-0.08
 74
     0
 49
0.08
 74
     0
 49
-0.08
 74
     0
 49
0.08
 74
     0
 49
-0.08
 74
     0
  0
LTYPE
  5
38
330
4
100
AcDbSymbolTableRecord
100
AcDbLinetypeTableRecord
  2
PL2
 70
     0
  3
Style 2 Type 2 Phantom Line
 72
    65
 73
     6
 40
1.08
 49
0.6
 74
     0
 49
-0.08
 74
     0
 49
0.12
 74
     0
 49
-0.08
 74
     0
 49
0.12
 74
     0
 49
-0.08
 74
     0
  0
LTYPE
  5
39
330
4
100
AcDbSymbolTableRecord
100
AcDbLinetypeTableRecord
  2
PL3
 70
     0
  3
Style 2 Type 3 Phantom Line
 72
    65
 73
     6
 40
2.0
 49
1.439999999999999
 74
     0
 49
-0.08
 74
     0
 49
0.16
 74
     0
 49
-0.08
 74
     0
 49
0.16
 74
     0
 49
-0.08
 74
     0
  0
LTYPE
  5
3A
330
4
100
AcDbSymbolTableRecord
100
AcDbLinetypeTableRecord
  2
CL1
 70
     0
  3
CADAM Style 2 Type 1 Center Line
 72
    65
 73
     4
 40
0.7
 49
0.45
 74
     0
 49
-0.06
 74
     0
 49
0.13
 74
     0
 49
-0.06
 74
     0
  0
LTYPE
  5
3B
330
4
100
AcDbSymbolTableRecord
100
AcDbLinetypeTableRecord
  2
CL2
 70
     0
  3
CADAM Style 2 Type 2 Center Line
 72
    65
 73
     4
 40
1.199999999999999
 49
1.01
 74
     0
 49
-0.06
 74
     0
 49
0.11
 74
     0
 49
-0.06
 74
     0
  0
LTYPE
  5
3C
330
4
100
AcDbSymbolTableRecord
100
AcDbLinetypeTableRecord
  2
CL3
 70
     0
  3
CADAM Style 2 Type 3 Center Line
 72
    65
 73
     4
 40
1.199999999999999
 49
0.98
 74
     0
 49
-0.06
 74
     0
 49
0.1
 74
     0
 49
-0.06
 74
     0
  0
LTYPE
  5
3D
330
4
100
AcDbSymbolTableRecord
100
AcDbLinetypeTableRecord
  2
CL4
 70
     0
  3
CADAM Style 2 Type 4 Center Line
 72
    65
 73
     4
 40
2.2
 49
1.929999999999999
 74
     0
 49
-0.07
 74
     0
 49
0.13
 74
     0
 49
-0.07
 74
     0
  0
LTYPE
  5
3E
330
4
100
AcDbSymbolTableRecord
100
AcDbLinetypeTableRecord
  2
CL5
 70
     0
  3
CADAM Style 2 Type 5 Center Line
 72
    65
 73
     4
 40
2.2
 49
1.879999999999999
 74
     0
 49
-0.07
 74
     0
 49
0.18
 74
     0
 49
-0.07
 74
     0
  0
LTYPE
  5
3F
330
4
100
AcDbSymbolTableRecord
100
AcDbLinetypeTableRecord
  2
SBK1
 70
     0
  3
CADAM Style 2 Type 1 SetBack Line
 72
    65
 73
     8
 40
2.7
 49
0.1
 74
     0
 49
-0.08
 74
     0
 49
0.1
 74
     0
 49
-0.8
 74
     0
 49
0.0
 74
     0
 49
0.0
 74
     0
 49
0.0
 74
     0
 49
0.0
 74
     0
  0
LTYPE
  5
40
330
4
100
AcDbSymbolTableRecord
100
AcDbLinetypeTableRecord
  2
SBK2
 70
     0
  3
CADAM Style 2 Type 2 SetBack Line
 72
    65
 73
     8
 40
3.709999999999999
 49
0.13
 74
     0
 49
-0.08
 74
     0
 49
0.13
 74
     0
 49
-0.8
 74
     0
 49
0.0
 74
     0
 49
0.0
 74
     0
 49
0.0
 74
     0
 49
0.0
 74
     0
  0
LTYPE
  5
41
330
4
100
AcDbSymbolTableRecord
100
AcDbLinetypeTableRecord
  2
STCH
 70
     0
  3
CADAM Style2 Stitch Line
 72
    65
 73
     2
 40
0.25
 49
0.0
 74
     0
 49
-0.25
 74
     0
  0
LTYPE
  5
42
330
4
100
AcDbSymbolTableRecord
100
AcDbLinetypeTableRecord
  2
MTCH
 70
     0
  3
CADAM Style2 Match Line
 72
    65
 73
     6
 40
2.0
 49
1.439999999999999
 74
     0
 49
-0.8
 74
     0
 49
0.16
 74
     0
 49
-0.08
 74
     0
 49
0.16
 74
     0
 49
-0.08
 74
     0
  0
LTYPE
  5
43
330
4
100
AcDbSymbolTableRecord
100
AcDbLinetypeTableRecord
  2
SLD
 70
     0
  3
CADAM Solid_EXT2
 72
    65
 73
     0
 40
0.0
  0
ENDTAB
  0
TABLE
  2
LAYER
  5
2
330
0
100
AcDbSymbolTable
 70
     7
  0
LAYER
  5
15
330
2
100
AcDbSymbolTableRecord
100
AcDbLayerTableRecord
  2
0
 70
     0
 62
     7
  6
CONTINUOUS
  0
LAYER
  5
44
330
2
100
AcDbSymbolTableRecord
100
AcDbLayerTableRecord
  2
MO_001_NOSHOW
 70
     1
 62
     7
  6
CONTINUOUS
  0
LAYER
  5
45
330
2
100
AcDbSymbolTableRecord
100
AcDbLayerTableRecord
  2
MO_001_VIEW_PV
 70
     0
 62
     7
  6
CONTINUOUS
  0
LAYER
  5
46
330
2
100
AcDbSymbolTableRecord
100
AcDbLayerTableRecord
  2
OVERLAY_MAP
 70
     1
 62
     7
  6
CONTINUOUS
  0
LAYER
  5
47
330
2
100
AcDbSymbolTableRecord
100
AcDbLayerTableRecord
  2
DITTOS
 70
     0
 62
     7
  6
CONTINUOUS
  0
LAYER
  5
48
330
2
100
AcDbSymbolTableRecord
100
AcDbLayerTableRecord
  2
SYMBOLS
 70
     0
 62
     7
  6
CONTINUOUS
  0
LAYER
  5
49
330
2
100
AcDbSymbolTableRecord
100
AcDbLayerTableRecord
  2
SETS
 70
     0
 62
     7
  6
CONTINUOUS
  0
ENDTAB
  0
TABLE
  2
STYLE
  5
3
330
0
100
AcDbSymbolTable
 70
     1
  0
STYLE
  5
18
330
3
100
AcDbSymbolTableRecord
100
AcDbTextStyleTableRecord
  2
STANDARD
 70
     0
 40
4.1672
 41
1.0
 50
0.0
 71
     0
 42
4.1672
  3
monotxt
  4
BIGFONT
  0
ENDTAB
  0
TABLE
  2
VIEW
  5
5
330
0
100
AcDbSymbolTable
 70
     0
  0
ENDTAB
  0
TABLE
  2
UCS
  5
6
330
0
100
AcDbSymbolTable
 70
     1
  0
UCS
  5
4A
330
6
100
AcDbSymbolTableRecord
100
AcDbUCSTableRecord
  2
MO_001_VIEW_PV_P
 70
     0
 10
0.0
 20
0.0
 30
0.0
 11
1.0
 21
0.0
 31
0.0
 12
-0.0000000002051034
 22
1.0
 32
0.0
  0
ENDTAB
  0
TABLE
  2
APPID
  5
8
330
0
100
AcDbSymbolTable
 70
     1
  0
APPID
  5
17
330
8
100
AcDbSymbolTableRecord
100
AcDbRegAppTableRecord
  2
ACAD
 70
     0
  0
ENDTAB
  0
TABLE
  2
DIMSTYLE
  5
9
330
0
100
AcDbSymbolTable
 70
     1
  0
DIMSTYLE
105
19
102
{ACAD_REACTORS
330
FC
330
FE
330
100
330
102
330
104
330
106
330
108
330
10A
330
10C
330
11A
330
11C
102
}
330
9
100
AcDbSymbolTableRecord
100
AcDbDimStyleTableRecord
  2
STANDARD
 70
     0
  3

  4

  5

  6

  7

 40
1.0
 41
0.18
 42
0.0625
 43
0.38
 44
0.18
 45
0.0
 46
0.0
 47
0.0
 48
0.0
140
0.18
141
0.09
142
0.0
143
25.4
144
1.0
145
0.0
146
1.0
147
0.09
 71
     0
 72
     0
 73
     1
 74
     1
 75
     0
 76
     0
 77
     0
 78
     0
170
     0
171
     2
172
     0
173
     0
174
     0
175
     0
176
     0
177
     0
178
     0
270
     2
271
     4
272
     4
273
     2
274
     2
340
18
275
     0
280
     0
281
     0
282
     0
283
     1
284
     0
285
     0
286
     0
287
     3
288
     0
  0
ENDTAB
  0
TABLE
  2
BLOCK_RECORD
  5
C
330
0
100
AcDbSymbolTable
 70
    11
  0
BLOCK_RECORD
  5
1E
102
{ACAD_XDICTIONARY
360
1B2
102
}
330
C
100
AcDbSymbolTableRecord
100
AcDbBlockTableRecord
  2
*MODEL_SPACE
  0
BLOCK_RECORD
  5
1F
102
{ACAD_XDICTIONARY
360
1B4
102
}
330
C
100
AcDbSymbolTableRecord
100
AcDbBlockTableRecord
  2
*PAPER_SPACE
  0
BLOCK_RECORD
  5
FB
330
C
100
AcDbSymbolTableRecord
100
AcDbBlockTableRecord
  2
*D0
  0
BLOCK_RECORD
  5
FD
330
C
100
AcDbSymbolTableRecord
100
AcDbBlockTableRecord
  2
*D1
  0
BLOCK_RECORD
  5
FF
330
C
100
AcDbSymbolTableRecord
100
AcDbBlockTableRecord
  2
*D2
  0
BLOCK_RECORD
  5
101
330
C
100
AcDbSymbolTableRecord
100
AcDbBlockTableRecord
  2
*D3
  0
BLOCK_RECORD
  5
103
330
C
100
AcDbSymbolTableRecord
100
AcDbBlockTableRecord
  2
*D4
  0
BLOCK_RECORD
  5
105
330
C
100
AcDbSymbolTableRecord
100
AcDbBlockTableRecord
  2
*D5
  0
BLOCK_RECORD
  5
107
330
C
100
AcDbSymbolTableRecord
100
AcDbBlockTableRecord
  2
*D6
  0
BLOCK_RECORD
  5
109
330
C
100
AcDbSymbolTableRecord
100
AcDbBlockTableRecord
  2
*D7
  0
BLOCK_RECORD
  5
10B
330
C
100
AcDbSymbolTableRecord
100
AcDbBlockTableRecord
  2
*D8
  0
BLOCK_RECORD
  5
119
330
C
100
AcDbSymbolTableRecord
100
AcDbBlockTableRecord
  2
*D9
  0
BLOCK_RECORD
  5
11B
330
C
100
AcDbSymbolTableRecord
100
AcDbBlockTableRecord
  2
*D10
  0
ENDTAB
  0
ENDSEC
  0
SECTION
  2
BLOCKS
  0
BLOCK
  5
E
330
1E
100
AcDbEntity
  8
0
100
AcDbBlockBegin
  2
*MODEL_SPACE
 70
     0
 10
0.0
 20
0.0
 30
0.0
  3
*MODEL_SPACE
  1

  0
ENDBLK
  5
F
330
1E
100
AcDbEntity
  8
0
100
AcDbBlockEnd
  0
BLOCK
  5
10
330
1F
100
AcDbEntity
 67
     1
  8
0
100
AcDbBlockBegin
  2
*PAPER_SPACE
 70
     0
 10
0.0
 20
0.0
 30
0.0
  3
*PAPER_SPACE
  1

  0
ENDBLK
  5
11
330
1F
100
AcDbEntity
 67
     1
  8
0
100
AcDbBlockEnd
  0
BLOCK
  5
129
330
FB
100
AcDbEntity
  8
0
100
AcDbBlockBegin
  2
*D0
 70
     1
 10
0.0
 20
0.0
 30
0.0
  3
*D0
  1

  0
LINE
  5
12A
330
FB
100
AcDbEntity
  8
MO_001_VIEW_PV
  6
BYBLOCK
100
AcDbLine
 10
3.2
 20
23.999999
 30
0.0
 11
7.818802
 21
31.99999899999999
 31
0.0
  0
SOLID
  5
12B
330
FB
100
AcDbEntity
  8
MO_001_VIEW_PV
  6
BYBLOCK
100
AcDbTrace
 10
4.353794
 20
27.165453
 30
0.0
 11
3.453999999999999
 21
24.43993999999999
 31
0.0
 12
5.364466
 22
26.58194099999999
 32
0.0
 13
5.364466
 23
26.58194099999999
 33
0.0
  0
LINE
  5
12C
330
FB
100
AcDbEntity
  8
MO_001_VIEW_PV
  6
BYBLOCK
100
AcDbLine
 10
7.818802
 20
32.0
 30
0.0
 11
24.03571499999999
 21
32.0
 31
0.0
  0
TEXT
  5
12D
330
FB
100
AcDbEntity
  8
MO_001_VIEW_PV
  6
BYBLOCK
100
AcDbText
 10
17.71428599999999
 20
34.625
 30
0.0
 40
1.5
  1
%%P0.2
100
AcDbText
  0
TEXT
  5
12E
330
FB
100
AcDbEntity
  8
MO_001_VIEW_PV
  6
BYBLOCK
100
AcDbText
 10
8.928570999999999
 20
32.75
 30
0.0
 40
3.0
  1
6.4
100
AcDbText
  0
LINE
  5
12F
330
FB
100
AcDbEntity
  8
MO_001_VIEW_PV
  6
BYBLOCK
100
AcDbLine
 10
0.0
 20
24.0
 30
0.0
 11
6.4
 21
24.0
 31
0.0
  0
LINE
  5
130
330
FB
100
AcDbEntity
  8
MO_001_VIEW_PV
  6
BYBLOCK
100
AcDbLine
 10
0.0
 20
24.0
 30
0.0
 11
-6.349999999999999
 21
24.0
 31
0.0
  0
LINE
  5
131
330
FB
100
AcDbEntity
  8
MO_001_VIEW_PV
  6
BYBLOCK
100
AcDbLine
 10
6.4
 20
24.0
 30
0.0
 11
12.75
 21
24.0
 31
0.0
  0
SOLID
  5
132
330
FB
100
AcDbEntity
  8
MO_001_VIEW_PV
  6
BYBLOCK
100
AcDbTrace
 10
-3.318259999999999
 20
23.416488
 30
0.0
 11
-0.508
 21
24.0
 31
0.0
 12
-3.318259999999999
 22
24.583512
 32
0.0
 13
-3.318259999999999
 23
24.583512
 33
0.0
  0
SOLID
  5
133
330
FB
100
AcDbEntity
  8
MO_001_VIEW_PV
  6
BYBLOCK
100
AcDbTrace
 10
9.71826
 20
24.583512
 30
0.0
 11
6.907999999999999
 21
24.0
 31
0.0
 12
9.71826
 22
23.416488
 32
0.0
 13
9.71826
 23
23.416488
 33
0.0
  0
LINE
  5
134
330
FB
100
AcDbEntity
  8
MO_001_VIEW_PV
  6
BYBLOCK
100
AcDbLine
 10
0.0
 20
6.299999999999999
 30
0.0
 11
0.0
 21
26.285999
 31
0.0
  0
LINE
  5
135
330
FB
100
AcDbEntity
  8
MO_001_VIEW_PV
  6
BYBLOCK
100
AcDbLine
 10
6.4
 20
3.75
 30
0.0
 11
6.4
 21
26.285999
 31
0.0
  0
ENDBLK
  5
136
330
FB
100
AcDbEntity
  8
0
100
AcDbBlockEnd
  0
BLOCK
  5
137
330
FD
100
AcDbEntity
  8
0
100
AcDbBlockBegin
  2
*D1
 70
     1
 10
0.0
 20
0.0
 30
0.0
  3
*D1
  1

  0
TEXT
  5
138
330
FD
100
AcDbEntity
  8
MO_001_VIEW_PV
  6
BYBLOCK
100
AcDbText
 10
59.714286
 20
26.625
 30
0.0
 40
1.5
  1
%%P0.3
100
AcDbText
  0
TEXT
  5
139
330
FD
100
AcDbEntity
  8
MO_001_VIEW_PV
  6
BYBLOCK
100
AcDbText
 10
50.928571
 20
24.75
 30
0.0
 40
3.0
  1
%%C13
100
AcDbText
  0
LINE
  5
13A
330
FD
100
AcDbEntity
  8
MO_001_VIEW_PV
  6
BYBLOCK
100
AcDbLine
 10
35.5
 20
24.0
 30
0.0
 11
48.5
 21
24.0
 31
0.0
  0
SOLID
  5
13B
330
FD
100
AcDbEntity
  8
MO_001_VIEW_PV
  6
BYBLOCK
100
AcDbTrace
 10
38.81825999999999
 20
24.583512
 30
0.0
 11
36.008
 21
24.0
 31
0.0
 12
38.81825999999999
 22
23.416488
 32
0.0
 13
38.81825999999999
 23
23.416488
 33
0.0
  0
SOLID
  5
13C
330
FD
100
AcDbEntity
  8
MO_001_VIEW_PV
  6
BYBLOCK
100
AcDbTrace
 10
45.18174000000001
 20
23.416488
 30
0.0
 11
47.99199999999999
 21
24.0
 31
0.0
 12
45.18174000000001
 22
24.583512
 32
0.0
 13
45.18174000000001
 23
24.583512
 33
0.0
  0
LINE
  5
13D
330
FD
100
AcDbEntity
  8
MO_001_VIEW_PV
  6
BYBLOCK
100
AcDbLine
 10
35.5
 20
0.0
 30
0.0
 11
35.5
 21
26.285999
 31
0.0
  0
LINE
  5
13E
330
FD
100
AcDbEntity
  8
MO_001_VIEW_PV
  6
BYBLOCK
100
AcDbLine
 10
48.5
 20
0.0
 30
0.0
 11
48.5
 21
26.285999
 31
0.0
  0
LINE
  5
13F
330
FD
100
AcDbEntity
  8
MO_001_VIEW_PV
  6
BYBLOCK
100
AcDbLine
 10
48.5
 20
24.0
 30
0.0
 11
66.035713
 21
24.0
 31
0.0
  0
ENDBLK
  5
140
330
FD
100
AcDbEntity
  8
0
100
AcDbBlockEnd
  0
BLOCK
  5
141
330
FF
100
AcDbEntity
  8
0
100
AcDbBlockBegin
  2
*D2
 70
     1
 10
0.0
 20
0.0
 30
0.0
  3
*D2
  1

  0
LINE
  5
142
330
FF
100
AcDbEntity
  8
MO_001_VIEW_PV
  6
BYBLOCK
100
AcDbLine
 10
36.0
 20
18.0
 30
0.0
 11
48.0
 21
18.0
 31
0.0
  0
SOLID
  5
143
330
FF
100
AcDbEntity
  8
MO_001_VIEW_PV
  6
BYBLOCK
100
AcDbTrace
 10
39.31825999999999
 20
18.58351199999999
 30
0.0
 11
36.508
 21
18.0
 31
0.0
 12
39.31825999999999
 22
17.416488
 32
0.0
 13
39.31825999999999
 23
17.416488
 33
0.0
  0
SOLID
  5
144
330
FF
100
AcDbEntity
  8
MO_001_VIEW_PV
  6
BYBLOCK
100
AcDbTrace
 10
44.68174
 20
17.416488
 30
0.0
 11
47.492
 21
18.0
 31
0.0
 12
44.68174
 22
18.58351199999999
 32
0.0
 13
44.68174
 23
18.58351199999999
 33
0.0
  0
LINE
  5
145
330
FF
100
AcDbEntity
  8
MO_001_VIEW_PV
  6
BYBLOCK
100
AcDbLine
 10
36.0
 20
3.464101999999999
 30
0.0
 11
36.0
 21
20.285999
 31
0.0
  0
LINE
  5
146
330
FF
100
AcDbEntity
  8
MO_001_VIEW_PV
  6
BYBLOCK
100
AcDbLine
 10
48.0
 20
3.464101999999999
 30
0.0
 11
48.0
 21
20.285999
 31
0.0
  0
TEXT
  5
147
330
FF
100
AcDbEntity
  8
MO_001_VIEW_PV
  6
BYBLOCK
100
AcDbText
 10
58.214286
 20
20.625
 30
0.0
 40
1.5
  1
%%P0.2
100
AcDbText
  0
TEXT
  5
148
330
FF
100
AcDbEntity
  8
MO_001_VIEW_PV
  6
BYBLOCK
100
AcDbText
 10
52.42857100000001
 20
18.75
 30
0.0
 40
3.0
  1
12
100
AcDbText
  0
LINE
  5
149
330
FF
100
AcDbEntity
  8
MO_001_VIEW_PV
  6
BYBLOCK
100
AcDbLine
 10
48.0
 20
18.0
 30
0.0
 11
64.535713
 21
18.0
 31
0.0
  0
ENDBLK
  5
14A
330
FF
100
AcDbEntity
  8
0
100
AcDbBlockEnd
  0
BLOCK
  5
14B
330
101
100
AcDbEntity
  8
0
100
AcDbBlockBegin
  2
*D3
 70
     1
 10
0.0
 20
0.0
 30
0.0
  3
*D3
  1

  0
LINE
  5
14C
330
101
100
AcDbEntity
  8
MO_001_VIEW_PV
  6
BYBLOCK
100
AcDbLine
 10
42.0
 20
12.0
 30
0.0
 11
45.900002
 21
12.0
 31
0.0
  0
LINE
  5
14D
330
101
100
AcDbEntity
  8
MO_001_VIEW_PV
  6
BYBLOCK
100
AcDbLine
 10
42.0
 20
12.0
 30
0.0
 11
35.64999999999999
 21
12.0
 31
0.0
  0
LINE
  5
14E
330
101
100
AcDbEntity
  8
MO_001_VIEW_PV
  6
BYBLOCK
100
AcDbLine
 10
45.900002
 20
12.0
 30
0.0
 11
52.25000099999999
 21
12.0
 31
0.0
  0
SOLID
  5
14F
330
101
100
AcDbEntity
  8
MO_001_VIEW_PV
  6
BYBLOCK
100
AcDbTrace
 10
38.68174
 20
11.416488
 30
0.0
 11
41.49199999999999
 21
12.0
 31
0.0
 12
38.68174
 22
12.58351199999999
 32
0.0
 13
38.68174
 23
12.58351199999999
 33
0.0
  0
SOLID
  5
150
330
101
100
AcDbEntity
  8
MO_001_VIEW_PV
  6
BYBLOCK
100
AcDbTrace
 10
49.218262
 20
12.58351199999999
 30
0.0
 11
46.408002
 21
12.0
 31
0.0
 12
49.218262
 22
11.416488
 32
0.0
 13
49.218262
 23
11.416488
 33
0.0
  0
LINE
  5
151
330
101
100
AcDbEntity
  8
MO_001_VIEW_PV
  6
BYBLOCK
100
AcDbLine
 10
42.0
 20
10.0
 30
0.0
 11
42.0
 21
14.286
 31
0.0
  0
LINE
  5
152
330
101
100
AcDbEntity
  8
MO_001_VIEW_PV
  6
BYBLOCK
100
AcDbLine
 10
45.900002
 20
2.244991999999999
 30
0.0
 11
45.900002
 21
14.286
 31
0.0
  0
TEXT
  5
153
330
101
100
AcDbEntity
  8
MO_001_VIEW_PV
  6
BYBLOCK
100
AcDbText
 10
59.714286
 20
14.625
 30
0.0
 40
1.5
  1
%%P0.2
100
AcDbText
  0
TEXT
  5
154
330
101
100
AcDbEntity
  8
MO_001_VIEW_PV
  6
BYBLOCK
100
AcDbText
 10
50.928571
 20
12.75
 30
0.0
 40
3.0
  1
3.9
100
AcDbText
  0
LINE
  5
155
330
101
100
AcDbEntity
  8
MO_001_VIEW_PV
  6
BYBLOCK
100
AcDbLine
 10
45.900002
 20
12.0
 30
0.0
 11
66.035713
 21
12.0
 31
0.0
  0
ENDBLK
  5
156
330
101
100
AcDbEntity
  8
0
100
AcDbBlockEnd
  0
BLOCK
  5
157
330
103
100
AcDbEntity
  8
0
100
AcDbBlockBegin
  2
*D4
 70
     1
 10
0.0
 20
0.0
 30
0.0
  3
*D4
  1

  0
TEXT
  5
158
330
103
100
AcDbEntity
  8
MO_001_VIEW_PV
  6
BYBLOCK
100
AcDbText
 10
24.527434
 20
26.625
 30
0.0
 40
1.5
  1
%%P0.6
100
AcDbText
  0
TEXT
  5
159
330
103
100
AcDbEntity
  8
MO_001_VIEW_PV
  6
BYBLOCK
100
AcDbText
 10
18.74172
 20
24.75
 30
0.0
 40
3.0
  1
12
100
AcDbText
  0
LINE
  5
15A
330
103
100
AcDbEntity
  8
MO_001_VIEW_PV
  6
BYBLOCK
100
AcDbLine
 10
6.4
 20
24.0
 30
0.0
 11
18.199999
 21
24.0
 31
0.0
  0
SOLID
  5
15B
330
103
100
AcDbEntity
  8
MO_001_VIEW_PV
  6
BYBLOCK
100
AcDbTrace
 10
9.71826
 20
24.583512
 30
0.0
 11
6.907999999999999
 21
24.0
 31
0.0
 12
9.71826
 22
23.416488
 32
0.0
 13
9.71826
 23
23.416488
 33
0.0
  0
SOLID
  5
15C
330
103
100
AcDbEntity
  8
MO_001_VIEW_PV
  6
BYBLOCK
100
AcDbTrace
 10
14.881739
 20
23.416488
 30
0.0
 11
17.691999
 21
24.0
 31
0.0
 12
14.881739
 22
24.583512
 32
0.0
 13
14.881739
 23
24.583512
 33
0.0
  0
LINE
  5
15D
330
103
100
AcDbEntity
  8
MO_001_VIEW_PV
  6
BYBLOCK
100
AcDbLine
 10
6.4
 20
3.75
 30
0.0
 11
6.4
 21
26.285999
 31
0.0
  0
LINE
  5
15E
330
103
100
AcDbEntity
  8
MO_001_VIEW_PV
  6
BYBLOCK
100
AcDbLine
 10
18.199999
 20
1.0
 30
0.0
 11
18.199999
 21
26.285999
 31
0.0
  0
LINE
  5
15F
330
103
100
AcDbEntity
  8
MO_001_VIEW_PV
  6
BYBLOCK
100
AcDbLine
 10
18.199999
 20
24.0
 30
0.0
 11
30.848864
 21
24.0
 31
0.0
  0
ENDBLK
  5
160
330
103
100
AcDbEntity
  8
0
100
AcDbBlockEnd
  0
BLOCK
  5
161
330
105
100
AcDbEntity
  8
0
100
AcDbBlockBegin
  2
*D5
 70
     1
 10
0.0
 20
0.0
 30
0.0
  3
*D5
  1

  0
TEXT
  5
162
330
105
100
AcDbEntity
  8
MO_001_VIEW_PV
  6
BYBLOCK
100
AcDbText
 10
-37.162908
 20
26.625
 30
0.0
 40
1.5
  1
%%P0.3
100
AcDbText
  0
TEXT
  5
163
330
105
100
AcDbEntity
  8
MO_001_VIEW_PV
  6
BYBLOCK
100
AcDbText
 10
-45.948622
 20
24.75
 30
0.0
 40
3.0
  1
2.9
100
AcDbText
  0
LINE
  5
164
330
105
100
AcDbEntity
  8
MO_001_VIEW_PV
  6
BYBLOCK
100
AcDbLine
 10
-30.1
 20
24.0
 30
0.0
 11
-27.200001
 21
24.0
 31
0.0
  0
LINE
  5
165
330
105
100
AcDbEntity
  8
MO_001_VIEW_PV
  6
BYBLOCK
100
AcDbLine
 10
-30.1
 20
24.0
 30
0.0
 11
-36.45
 21
24.0
 31
0.0
  0
LINE
  5
166
330
105
100
AcDbEntity
  8
MO_001_VIEW_PV
  6
BYBLOCK
100
AcDbLine
 10
-27.200001
 20
24.0
 30
0.0
 11
-20.850001
 21
24.0
 31
0.0
  0
SOLID
  5
167
330
105
100
AcDbEntity
  8
MO_001_VIEW_PV
  6
BYBLOCK
100
AcDbTrace
 10
-33.418261
 20
23.416488
 30
0.0
 11
-30.608
 21
24.0
 31
0.0
 12
-33.418261
 22
24.583512
 32
0.0
 13
-33.418261
 23
24.583512
 33
0.0
  0
SOLID
  5
168
330
105
100
AcDbEntity
  8
MO_001_VIEW_PV
  6
BYBLOCK
100
AcDbTrace
 10
-23.881741
 20
24.583512
 30
0.0
 11
-26.692001
 21
24.0
 31
0.0
 12
-23.881741
 22
23.416488
 32
0.0
 13
-23.881741
 23
23.416488
 33
0.0
  0
LINE
  5
169
330
105
100
AcDbEntity
  8
MO_001_VIEW_PV
  6
BYBLOCK
100
AcDbLine
 10
-30.1
 20
2.000001999999999
 30
0.0
 11
-30.1
 21
26.285999
 31
0.0
  0
LINE
  5
16A
330
105
100
AcDbEntity
  8
MO_001_VIEW_PV
  6
BYBLOCK
100
AcDbLine
 10
-27.200001
 20
6.5
 30
0.0
 11
-27.200001
 21
26.285999
 31
0.0
  0
LINE
  5
16B
330
105
100
AcDbEntity
  8
MO_001_VIEW_PV
  6
BYBLOCK
100
AcDbLine
 10
-46.912907
 20
24.0
 30
0.0
 11
-30.1
 21
24.0
 31
0.0
  0
ENDBLK
  5
16C
330
105
100
AcDbEntity
  8
0
100
AcDbBlockEnd
  0
BLOCK
  5
16D
330
107
100
AcDbEntity
  8
0
100
AcDbBlockBegin
  2
*D6
 70
     1
 10
0.0
 20
0.0
 30
0.0
  3
*D6
  1

  0
TEXT
  5
16E
330
107
100
AcDbEntity
  8
MO_001_VIEW_PV
  6
BYBLOCK
100
AcDbText
 10
-10.38571499999999
 20
26.625
 30
0.0
 40
1.5
  1
%%P0.5
100
AcDbText
  0
TEXT
  5
16F
330
107
100
AcDbEntity
  8
MO_001_VIEW_PV
  6
BYBLOCK
100
AcDbText
 10
-22.171429
 20
24.75
 30
0.0
 40
3.0
  1
27.2
100
AcDbText
  0
LINE
  5
170
330
107
100
AcDbEntity
  8
MO_001_VIEW_PV
  6
BYBLOCK
100
AcDbLine
 10
-27.200001
 20
24.0
 30
0.0
 11
0.0
 21
24.0
 31
0.0
  0
SOLID
  5
171
330
107
100
AcDbEntity
  8
MO_001_VIEW_PV
  6
BYBLOCK
100
AcDbTrace
 10
-23.881741
 20
24.583512
 30
0.0
 11
-26.692001
 21
24.0
 31
0.0
 12
-23.881741
 22
23.416488
 32
0.0
 13
-23.881741
 23
23.416488
 33
0.0
  0
SOLID
  5
172
330
107
100
AcDbEntity
  8
MO_001_VIEW_PV
  6
BYBLOCK
100
AcDbTrace
 10
-3.318259999999999
 20
23.416488
 30
0.0
 11
-0.508
 21
24.0
 31
0.0
 12
-3.318259999999999
 22
24.583512
 32
0.0
 13
-3.318259999999999
 23
24.583512
 33
0.0
  0
LINE
  5
173
330
107
100
AcDbEntity
  8
MO_001_VIEW_PV
  6
BYBLOCK
100
AcDbLine
 10
-27.200001
 20
6.5
 30
0.0
 11
-27.200001
 21
26.285999
 31
0.0
  0
LINE
  5
174
330
107
100
AcDbEntity
  8
MO_001_VIEW_PV
  6
BYBLOCK
100
AcDbLine
 10
0.0
 20
6.299999999999999
 30
0.0
 11
0.0
 21
26.285999
 31
0.0
  0
ENDBLK
  5
175
330
107
100
AcDbEntity
  8
0
100
AcDbBlockEnd
  0
BLOCK
  5
176
330
109
100
AcDbEntity
  8
0
100
AcDbBlockBegin
  2
*D7
 70
     1
 10
0.0
 20
0.0
 30
0.0
  3
*D7
  1

  0
TEXT
  5
177
330
109
100
AcDbEntity
  8
MO_001_VIEW_PV
  6
BYBLOCK
100
AcDbText
 10
21.375
 20
14.46428599999999
 30
0.0
 40
1.5
  1
%%P0.05
 50
90.0
100
AcDbText
  0
TEXT
  5
178
330
109
100
AcDbEntity
  8
MO_001_VIEW_PV
  6
BYBLOCK
100
AcDbText
 10
23.25
 20
8.678570999999999
 30
0.0
 40
3.0
  1
%%C2
 50
90.0
100
AcDbText
  0
LINE
  5
179
330
109
100
AcDbEntity
  8
MO_001_VIEW_PV
  6
BYBLOCK
100
AcDbLine
 10
24.0
 20
-1.0
 30
0.0
 11
24.0
 21
1.0
 31
0.0
  0
LINE
  5
17A
330
109
100
AcDbEntity
  8
MO_001_VIEW_PV
  6
BYBLOCK
100
AcDbLine
 10
24.0
 20
-1.0
 30
0.0
 11
24.0
 21
-7.349999999999999
 31
0.0
  0
LINE
  5
17B
330
109
100
AcDbEntity
  8
MO_001_VIEW_PV
  6
BYBLOCK
100
AcDbLine
 10
24.0
 20
1.0
 30
0.0
 11
24.0
 21
7.349999999999999
 31
0.0
  0
SOLID
  5
17C
330
109
100
AcDbEntity
  8
MO_001_VIEW_PV
  6
BYBLOCK
100
AcDbTrace
 10
24.583512
 20
-4.318259999999999
 30
0.0
 11
24.0
 21
-1.508
 31
0.0
 12
23.416488
 22
-4.318259999999999
 32
0.0
 13
23.416488
 23
-4.318259999999999
 33
0.0
  0
SOLID
  5
17D
330
109
100
AcDbEntity
  8
MO_001_VIEW_PV
  6
BYBLOCK
100
AcDbTrace
 10
23.416488
 20
4.318259999999999
 30
0.0
 11
24.0
 21
1.508
 31
0.0
 12
24.583512
 22
4.318259999999999
 32
0.0
 13
24.583512
 23
4.318259999999999
 33
0.0
  0
LINE
  5
17E
330
109
100
AcDbEntity
  8
MO_001_VIEW_PV
  6
BYBLOCK
100
AcDbLine
 10
18.199999
 20
-1.0
 30
0.0
 11
26.285999
 21
-1.0
 31
0.0
  0
LINE
  5
17F
330
109
100
AcDbEntity
  8
MO_001_VIEW_PV
  6
BYBLOCK
100
AcDbLine
 10
18.199999
 20
1.0
 30
0.0
 11
26.285999
 21
1.0
 31
0.0
  0
LINE
  5
180
330
109
100
AcDbEntity
  8
MO_001_VIEW_PV
  6
BYBLOCK
100
AcDbLine
 10
24.0
 20
1.0
 30
0.0
 11
24.0
 21
22.285715
 31
0.0
  0
ENDBLK
  5
181
330
109
100
AcDbEntity
  8
0
100
AcDbBlockEnd
  0
BLOCK
  5
182
330
10B
100
AcDbEntity
  8
0
100
AcDbBlockBegin
  2
*D8
 70
     1
 10
0.0
 20
0.0
 30
0.0
  3
*D8
  1

  0
TEXT
  5
183
330
10B
100
AcDbEntity
  8
MO_001_VIEW_PV
  6
BYBLOCK
100
AcDbText
 10
-50.625
 20
-14.54893799999999
 30
0.0
 40
1.5
  1
%%P0.3
 50
90.0
100
AcDbText
  0
TEXT
  5
184
330
10B
100
AcDbEntity
  8
MO_001_VIEW_PV
  6
BYBLOCK
100
AcDbText
 10
-48.75
 20
-26.334652
 30
0.0
 40
3.0
  1
%%C8.5
 50
90.0
100
AcDbText
  0
LINE
  5
185
330
10B
100
AcDbEntity
  8
MO_001_VIEW_PV
  6
BYBLOCK
100
AcDbLine
 10
-48.0
 20
4.25
 30
0.0
 11
-48.0
 21
-4.25
 31
0.0
  0
LINE
  5
186
330
10B
100
AcDbEntity
  8
MO_001_VIEW_PV
  6
BYBLOCK
100
AcDbLine
 10
-48.0
 20
4.25
 30
0.0
 11
-48.0
 21
10.6
 31
0.0
  0
LINE
  5
187
330
10B
100
AcDbEntity
  8
MO_001_VIEW_PV
  6
BYBLOCK
100
AcDbLine
 10
-48.0
 20
-4.25
 30
0.0
 11
-48.0
 21
-10.6
 31
0.0
  0
SOLID
  5
188
330
10B
100
AcDbEntity
  8
MO_001_VIEW_PV
  6
BYBLOCK
100
AcDbTrace
 10
-48.583512
 20
7.56826
 30
0.0
 11
-48.0
 21
4.758
 31
0.0
 12
-47.416488
 22
7.56826
 32
0.0
 13
-47.416488
 23
7.56826
 33
0.0
  0
SOLID
  5
189
330
10B
100
AcDbEntity
  8
MO_001_VIEW_PV
  6
BYBLOCK
100
AcDbTrace
 10
-47.416488
 20
-7.56826
 30
0.0
 11
-48.0
 21
-4.758
 31
0.0
 12
-48.583512
 22
-7.56826
 32
0.0
 13
-48.583512
 23
-7.56826
 33
0.0
  0
LINE
  5
18A
330
10B
100
AcDbEntity
  8
MO_001_VIEW_PV
  6
BYBLOCK
100
AcDbLine
 10
-28.000002
 20
4.25
 30
0.0
 11
-50.28599899999999
 21
4.25
 31
0.0
  0
LINE
  5
18B
330
10B
100
AcDbEntity
  8
MO_001_VIEW_PV
  6
BYBLOCK
100
AcDbLine
 10
-28.000002
 20
-4.25
 30
0.0
 11
-50.28599899999999
 21
-4.25
 31
0.0
  0
LINE
  5
18C
330
10B
100
AcDbEntity
  8
MO_001_VIEW_PV
  6
BYBLOCK
100
AcDbLine
 10
-48.0
 20
-4.25
 30
0.0
 11
-48.0
 21
-27.29893699999999
 31
0.0
  0
ENDBLK
  5
18D
330
10B
100
AcDbEntity
  8
0
100
AcDbBlockEnd
  0
BLOCK
  5
18E
330
119
100
AcDbEntity
  8
0
100
AcDbBlockBegin
  2
*D9
 70
     1
 10
0.0
 20
0.0
 30
0.0
  3
*D9
  1

  0
LINE
  5
18F
330
119
100
AcDbEntity
  8
MO_001_VIEW_PV
  6
BYBLOCK
100
AcDbLine
 10
67.400002
 20
3.0
 30
0.0
 11
76.0
 21
3.0
 31
0.0
  0
LINE
  5
190
330
119
100
AcDbEntity
  8
MO_001_VIEW_PV
  6
BYBLOCK
100
AcDbLine
 10
67.400002
 20
3.0
 30
0.0
 11
61.050002
 21
3.0
 31
0.0
  0
LINE
  5
191
330
119
100
AcDbEntity
  8
MO_001_VIEW_PV
  6
BYBLOCK
100
AcDbLine
 10
76.0
 20
3.0
 30
0.0
 11
82.34999999999999
 21
3.0
 31
0.0
  0
SOLID
  5
192
330
119
100
AcDbEntity
  8
MO_001_VIEW_PV
  6
BYBLOCK
100
AcDbTrace
 10
64.081741
 20
2.416488
 30
0.0
 11
66.89200200000001
 21
3.0
 31
0.0
 12
64.081741
 22
3.583511
 32
0.0
 13
64.081741
 23
3.583511
 33
0.0
  0
SOLID
  5
193
330
119
100
AcDbEntity
  8
MO_001_VIEW_PV
  6
BYBLOCK
100
AcDbTrace
 10
79.31826
 20
3.583511
 30
0.0
 11
76.508
 21
3.0
 31
0.0
 12
79.31826
 22
2.416488
 32
0.0
 13
79.31826
 23
2.416488
 33
0.0
  0
LINE
  5
194
330
119
100
AcDbEntity
  8
MO_001_VIEW_PV
  6
BYBLOCK
100
AcDbLine
 10
67.400002
 20
-15.0
 30
0.0
 11
67.400002
 21
5.285998999999999
 31
0.0
  0
LINE
  5
195
330
119
100
AcDbEntity
  8
MO_001_VIEW_PV
  6
BYBLOCK
100
AcDbLine
 10
76.0
 20
-12.728437
 30
0.0
 11
76.0
 21
5.285998999999999
 31
0.0
  0
TEXT
  5
196
330
119
100
AcDbEntity
  8
MO_001_VIEW_PV
  6
BYBLOCK
100
AcDbText
 10
89.215125
 20
5.625
 30
0.0
 40
1.5
  1
%%P0.1
100
AcDbText
  0
TEXT
  5
197
330
119
100
AcDbEntity
  8
MO_001_VIEW_PV
  6
BYBLOCK
100
AcDbText
 10
80.429411
 20
3.75
 30
0.0
 40
3.0
  1
8.6
100
AcDbText
  0
LINE
  5
198
330
119
100
AcDbEntity
  8
MO_001_VIEW_PV
  6
BYBLOCK
100
AcDbLine
 10
76.0
 20
3.0
 30
0.0
 11
95.53655199999999
 21
3.0
 31
0.0
  0
ENDBLK
  5
199
330
119
100
AcDbEntity
  8
0
100
AcDbBlockEnd
  0
BLOCK
  5
19A
330
11B
100
AcDbEntity
  8
0
100
AcDbBlockBegin
  2
*D10
 70
     1
 10
0.0
 20
0.0
 30
0.0
  3
*D10
  1

  0
LINE
  5
19B
330
11B
100
AcDbEntity
  8
MO_001_VIEW_PV
  6
BYBLOCK
100
AcDbLine
 10
72.0
 20
-3.0
 30
0.0
 11
76.0
 21
-3.0
 31
0.0
  0
LINE
  5
19C
330
11B
100
AcDbEntity
  8
MO_001_VIEW_PV
  6
BYBLOCK
100
AcDbLine
 10
72.0
 20
-3.0
 30
0.0
 11
65.65000000000001
 21
-3.0
 31
0.0
  0
LINE
  5
19D
330
11B
100
AcDbEntity
  8
MO_001_VIEW_PV
  6
BYBLOCK
100
AcDbLine
 10
76.0
 20
-3.0
 30
0.0
 11
82.34999999999999
 21
-3.0
 31
0.0
  0
SOLID
  5
19E
330
11B
100
AcDbEntity
  8
MO_001_VIEW_PV
  6
BYBLOCK
100
AcDbTrace
 10
68.68174
 20
-3.583512
 30
0.0
 11
71.492
 21
-3.0
 31
0.0
 12
68.68174
 22
-2.416488
 32
0.0
 13
68.68174
 23
-2.416488
 33
0.0
  0
SOLID
  5
19F
330
11B
100
AcDbEntity
  8
MO_001_VIEW_PV
  6
BYBLOCK
100
AcDbTrace
 10
79.31826
 20
-2.416488
 30
0.0
 11
76.508
 21
-3.0
 31
0.0
 12
79.31826
 22
-3.583512
 32
0.0
 13
79.31826
 23
-3.583512
 33
0.0
  0
LINE
  5
1A0
330
11B
100
AcDbEntity
  8
MO_001_VIEW_PV
  6
BYBLOCK
100
AcDbLine
 10
72.0
 20
-7.0
 30
0.0
 11
72.0
 21
-0.7140000000000001
 31
0.0
  0
LINE
  5
1A1
330
11B
100
AcDbEntity
  8
MO_001_VIEW_PV
  6
BYBLOCK
100
AcDbLine
 10
76.0
 20
-12.728437
 30
0.0
 11
76.0
 21
-0.7140000000000001
 31
0.0
  0
TEXT
  5
1A2
330
11B
100
AcDbEntity
  8
MO_001_VIEW_PV
  6
BYBLOCK
100
AcDbText
 10
79.92857099999999
 20
-2.25
 30
0.0
 40
3.0
  1
(4)
100
AcDbText
  0
LINE
  5
1A3
330
11B
100
AcDbEntity
  8
MO_001_VIEW_PV
  6
BYBLOCK
100
AcDbLine
 10
76.0
 20
-3.0
 30
0.0
 11
89.03571300000001
 21
-3.0
 31
0.0
  0
ENDBLK
  5
1A4
330
11B
100
AcDbEntity
  8
0
100
AcDbBlockEnd
  0
ENDSEC
  0
SECTION
  2
ENTITIES
  0
TEXT
  5
4B
330
1E
100
AcDbEntity
  8
OVERLAY_MAP
  6
C_SOLID_L
100
AcDbText
 10
0.0
 20
6.349999999999999
 30
0.0
 40
4.1672
  1
Model Overlay Name
100
AcDbText
  0
TEXT
  5
4C
330
1E
100
AcDbEntity
  8
OVERLAY_MAP
  6
C_SOLID_L
100
AcDbText
 10
126.999998
 20
0.0
 30
0.0
 40
4.1672
  1
Number
100
AcDbText
  0
TEXT
  5
4D
330
1E
100
AcDbEntity
  8
OVERLAY_MAP
  6
C_SOLID_L
100
AcDbText
 10
177.7999969999999
 20
0.0
 30
0.0
 40
4.1672
  1
File Text
100
AcDbText
  0
TEXT
  5
4E
330
1E
100
AcDbEntity
  8
OVERLAY_MAP
  6
C_SOLID_L
100
AcDbText
 10
0.0
 20
-6.349999999999999
 30
0.0
 40
4.1672
  1
tb s50push 
100
AcDbText
  0
TEXT
  5
4F
330
1E
100
AcDbEntity
  8
OVERLAY_MAP
  6
C_SOLID_L
100
AcDbText
 10
126.999998
 20
-6.349999999999999
 30
0.0
 40
4.1672
  1
001
100
AcDbText
  0
TEXT
  5
50
330
1E
100
AcDbEntity
  8
OVERLAY_MAP
  6
C_SOLID_L
100
AcDbText
 10
177.7999969999999
 20
-6.349999999999999
 30
0.0
 40
4.1672
  1
                                                                   00118
100
AcDbText
  0
POINT
  5
51
330
1E
100
AcDbEntity
  8
MO_001_NOSHOW
  6
C_SOLID_M
100
AcDbPoint
 10
60.0
 20
-4.850000999999999
 30
0.0
  0
LINE
  5
52
330
1E
100
AcDbEntity
  8
MO_001_VIEW_PV
  6
C_SOLID_M
100
AcDbLine
 10
-0.6
 20
6.5
 30
0.0
 11
-0.6
 21
-6.5
 31
0.0
  0
LINE
  5
53
330
1E
100
AcDbEntity
  8
MO_001_VIEW_PV
  6
C_SOLID_M
100
AcDbLine
 10
-0.2
 20
6.5
 30
0.0
 11
-27.200001
 21
6.5
 31
0.0
  0
LINE
  5
54
330
1E
100
AcDbEntity
  8
MO_001_VIEW_PV
  6
C_SOLID_M
100
AcDbLine
 10
-0.2
 20
-6.5
 30
0.0
 11
-27.200001
 21
-6.5
 31
0.0
  0
LINE
  5
55
330
1E
100
AcDbEntity
  8
MO_001_VIEW_PV
  6
C_SOLID_M
100
AcDbLine
 10
-26.6
 20
6.5
 30
0.0
 11
-26.6
 21
-6.5
 31
0.0
  0
LINE
  5
56
330
1E
100
AcDbEntity
  8
MO_001_VIEW_PV
  6
C_SOLID_M
100
AcDbLine
 10
0.0
 20
6.299999999999999
 30
0.0
 11
0.0
 21
-6.299999999999999
 31
0.0
  0
LINE
  5
57
330
1E
100
AcDbEntity
  8
MO_001_VIEW_PV
  6
C_SOLID_M
100
AcDbLine
 10
6.4
 20
3.75
 30
0.0
 11
6.4
 21
-3.75
 31
0.0
  0
LINE
  5
58
330
1E
100
AcDbEntity
  8
MO_001_VIEW_PV
  6
C_SOLID_M
100
AcDbLine
 10
5.65
 20
4.5
 30
0.0
 11
4.275
 21
4.5
 31
0.0
  0
LINE
  5
59
330
1E
100
AcDbEntity
  8
MO_001_VIEW_PV
  6
C_SOLID_M
100
AcDbLine
 10
5.65
 20
-4.5
 30
0.0
 11
4.275
 21
-4.5
 31
0.0
  0
LINE
  5
5A
330
1E
100
AcDbEntity
  8
MO_001_VIEW_PV
  6
C_SOLID_M
100
AcDbLine
 10
5.65
 20
4.5
 30
0.0
 11
5.65
 21
-4.5
 31
0.0
  0
LINE
  5
5B
330
1E
100
AcDbEntity
  8
MO_001_VIEW_PV
  6
C_SOLID_M
100
AcDbLine
 10
6.4
 20
3.75
 30
0.0
 11
4.275
 21
3.75
 31
0.0
  0
LINE
  5
5C
330
1E
100
AcDbEntity
  8
MO_001_VIEW_PV
  6
C_SOLID_M
100
AcDbLine
 10
6.4
 20
-3.75
 30
0.0
 11
4.275
 21
-3.75
 31
0.0
  0
LINE
  5
5D
330
1E
100
AcDbEntity
  8
MO_001_VIEW_PV
  6
C_SOLID_M
100
AcDbLine
 10
6.399999
 20
3.749998999999999
 30
0.0
 11
5.649999
 21
4.499998999999999
 31
0.0
  0
LINE
  5
5E
330
1E
100
AcDbEntity
  8
MO_001_VIEW_PV
  6
C_SOLID_M
100
AcDbLine
 10
6.399999
 20
-3.749998999999999
 30
0.0
 11
5.649999
 21
-4.499998999999999
 31
0.0
  0
ARC
  5
5F
330
1E
100
AcDbEntity
  8
MO_001_VIEW_PV
  6
C_SOLID_M
100
AcDbCircle
 10
42.0
 20
0.0
 30
0.0
 40
6.5
100
AcDbArc
 50
37.380133
 51
82.61986699999999
  0
ARC
  5
60
330
1E
100
AcDbEntity
  8
MO_001_VIEW_PV
  6
C_SOLID_L
100
AcDbCircle
 10
42.0
 20
0.0
 30
0.0
 40
4.5
100
AcDbArc
 50
330.0736049999999
 51
29.926402
  0
LINE
  5
61
330
1E
100
AcDbEntity
  8
MO_001_VIEW_PV
  6
C_CENTER_L
100
AcDbLine
 10
32.0
 20
0.0
 30
0.0
 11
52.0
 21
0.0
 31
0.0
  0
LINE
  5
62
330
1E
100
AcDbEntity
  8
MO_001_VIEW_PV
  6
C_CENTER_L
100
AcDbLine
 10
42.0
 20
10.0
 30
0.0
 11
42.0
 21
-10.0
 31
0.0
  0
LINE
  5
63
330
1E
100
AcDbEntity
  8
MO_001_VIEW_PV
  6
C_SOLID_M
100
AcDbLine
 10
0.9
 20
4.5
 30
0.0
 11
0.9
 21
-4.5
 31
0.0
  0
LINE
  5
64
330
1E
100
AcDbEntity
  8
MO_001_VIEW_PV
  6
C_SOLID_M
100
AcDbLine
 10
0.9
 20
-3.75
 30
0.0
 11
0.15
 21
-4.5
 31
0.0
  0
LINE
  5
65
330
1E
100
AcDbEntity
  8
MO_001_VIEW_PV
  6
C_SOLID_M
100
AcDbLine
 10
0.9
 20
3.75
 30
0.0
 11
0.15
 21
4.5
 31
0.0
  0
CIRCLE
  5
66
330
1E
100
AcDbEntity
  8
MO_001_VIEW_PV
  6
C_SOLID_M
100
AcDbCircle
 10
42.0
 20
0.0
 30
0.0
 40
1.0
  0
LINE
  5
67
330
1E
100
AcDbEntity
  8
MO_001_VIEW_PV
  6
C_SOLID_M
100
AcDbLine
 10
48.0
 20
3.464101999999999
 30
0.0
 11
48.0
 21
-3.464101999999999
 31
0.0
  0
LINE
  5
68
330
1E
100
AcDbEntity
  8
MO_001_VIEW_PV
  6
C_SOLID_M
100
AcDbLine
 10
36.0
 20
3.464101999999999
 30
0.0
 11
36.0
 21
-3.464098999999999
 31
0.0
  0
LINE
  5
69
330
1E
100
AcDbEntity
  8
MO_001_VIEW_PV
  6
C_SOLID_M
100
AcDbLine
 10
36.000009
 20
3.464102999999999
 30
0.0
 11
42.000002
 21
6.928200999999999
 31
0.0
  0
LINE
  5
6A
330
1E
100
AcDbEntity
  8
MO_001_VIEW_PV
  6
C_CENTER_L
100
AcDbLine
 10
42.000009
 20
-6.928202
 30
0.0
 11
48.000002
 21
-3.464104
 31
0.0
  0
LINE
  5
6B
330
1E
100
AcDbEntity
  8
MO_001_VIEW_PV
  6
C_SOLID_M
100
AcDbLine
 10
42.00000399999999
 20
-6.928196999999999
 30
0.0
 11
36.00000399999999
 21
-3.464096
 31
0.0
  0
LINE
  5
6C
330
1E
100
AcDbEntity
  8
MO_001_VIEW_PV
  6
C_SOLID_M
100
AcDbLine
 10
48.000002
 20
3.464104
 30
0.0
 11
42.000009
 21
6.928202
 31
0.0
  0
LINE
  5
6D
330
1E
100
AcDbEntity
  8
MO_001_VIEW_PV
  6
C_SOLID_M
100
AcDbLine
 10
3.739101
 20
6.928203999999999
 30
0.0
 11
2.810897999999999
 21
6.928203999999999
 31
0.0
  0
LINE
  5
6E
330
1E
100
AcDbEntity
  8
MO_001_VIEW_PV
  6
C_SOLID_M
100
AcDbLine
 10
3.739101
 20
3.464101999999999
 30
0.0
 11
2.810897999999999
 21
3.464101999999999
 31
0.0
  0
LINE
  5
6F
330
1E
100
AcDbEntity
  8
MO_001_VIEW_PV
  6
C_SOLID_M
100
AcDbLine
 10
3.739101
 20
-3.464101999999999
 30
0.0
 11
2.810897999999999
 21
-3.464101999999999
 31
0.0
  0
LINE
  5
70
330
1E
100
AcDbEntity
  8
MO_001_VIEW_PV
  6
C_SOLID_M
100
AcDbLine
 10
4.275
 20
6.0
 30
0.0
 11
4.275
 21
-6.0
 31
0.0
  0
LINE
  5
71
330
1E
100
AcDbEntity
  8
MO_001_VIEW_PV
  6
C_SOLID_M
100
AcDbLine
 10
2.274999999999999
 20
6.0
 30
0.0
 11
2.274999999999999
 21
-6.0
 31
0.0
  0
CIRCLE
  5
72
330
1E
100
AcDbEntity
  8
MO_001_VIEW_PV
  6
C_SOLID_M
100
AcDbCircle
 10
42.0
 20
0.0
 30
0.0
 40
6.0
  0
LINE
  5
73
330
1E
100
AcDbEntity
  8
MO_001_VIEW_PV
  6
C_SOLID_M
100
AcDbLine
 10
48.000002
 20
-3.464104
 30
0.0
 11
42.000009
 21
-6.928202
 31
0.0
  0
LINE
  5
74
330
1E
100
AcDbEntity
  8
MO_001_VIEW_PV
  6
C_SOLID_M
100
AcDbLine
 10
3.739101
 20
6.928202999999999
 30
0.0
 11
4.274999
 21
6.0
 31
0.0
  0
LINE
  5
75
330
1E
100
AcDbEntity
  8
MO_001_VIEW_PV
  6
C_SOLID_M
100
AcDbLine
 10
2.810897999999999
 20
6.928202999999999
 30
0.0
 11
2.274999999999999
 21
6.0
 31
0.0
  0
ARC
  5
76
330
1E
100
AcDbEntity
  8
MO_001_VIEW_PV
  6
C_SOLID_M
100
AcDbCircle
 10
1.208013999999999
 20
5.196152999999999
 30
0.0
 40
3.066985999999999
100
AcDbArc
 50
325.6157379999999
 51
359.999991
  0
LINE
  5
77
330
1E
100
AcDbEntity
  8
MO_001_VIEW_PV
  6
C_SOLID_M
100
AcDbLine
 10
2.274999999999999
 20
4.5
 30
0.0
 11
0.0
 21
4.5
 31
0.0
  0
LINE
  5
78
330
1E
100
AcDbEntity
  8
MO_001_VIEW_PV
  6
C_SOLID_M
100
AcDbLine
 10
2.274999999999999
 20
3.75
 30
0.0
 11
0.9
 21
3.75
 31
0.0
  0
LINE
  5
79
330
1E
100
AcDbEntity
  8
MO_001_VIEW_PV
  6
C_SOLID_M
100
AcDbLine
 10
2.274999999999999
 20
-3.75
 30
0.0
 11
0.9
 21
-3.75
 31
0.0
  0
LINE
  5
7A
330
1E
100
AcDbEntity
  8
MO_001_VIEW_PV
  6
C_SOLID_M
100
AcDbLine
 10
2.274999999999999
 20
-4.5
 30
0.0
 11
0.0
 21
-4.5
 31
0.0
  0
ARC
  5
7B
330
1E
100
AcDbEntity
  8
MO_001_VIEW_PV
  6
C_SOLID_M
100
AcDbCircle
 10
5.341986
 20
5.196152999999999
 30
0.0
 40
3.066985999999999
100
AcDbArc
 50
180.000009
 51
214.38426
  0
ARC
  5
7C
330
1E
100
AcDbEntity
  8
MO_001_VIEW_PV
  6
C_SOLID_M
100
AcDbCircle
 10
1.208013999999999
 20
-5.196152999999999
 30
0.0
 40
3.066985999999999
100
AcDbArc
 50
0.0
 51
34.384262
  0
ARC
  5
7D
330
1E
100
AcDbEntity
  8
MO_001_VIEW_PV
  6
C_SOLID_M
100
AcDbCircle
 10
5.341986
 20
-5.196152999999999
 30
0.0
 40
3.066985999999999
100
AcDbArc
 50
145.6157399999999
 51
179.9999909999999
  0
LINE
  5
7E
330
1E
100
AcDbEntity
  8
MO_001_VIEW_PV
  6
C_SOLID_M
100
AcDbLine
 10
3.739101
 20
-6.928202999999999
 30
0.0
 11
4.274999
 21
-6.0
 31
0.0
  0
LINE
  5
7F
330
1E
100
AcDbEntity
  8
MO_001_VIEW_PV
  6
C_SOLID_M
100
AcDbLine
 10
2.810897999999999
 20
-6.928202999999999
 30
0.0
 11
2.274999999999999
 21
-6.0
 31
0.0
  0
LINE
  5
80
330
1E
100
AcDbEntity
  8
MO_001_VIEW_PV
  6
C_SOLID_M
100
AcDbLine
 10
3.739101
 20
-6.928203999999999
 30
0.0
 11
2.810897999999999
 21
-6.928203999999999
 31
0.0
  0
ARC
  5
81
330
1E
100
AcDbEntity
  8
MO_001_VIEW_PV
  6
C_SOLID_M
100
AcDbCircle
 10
-7.189091999999999
 20
0.0
 30
0.0
 40
11.464091
100
AcDbArc
 50
342.412039
 51
17.587964
  0
LINE
  5
82
330
1E
100
AcDbEntity
  8
MO_001_VIEW_PV
  6
C_SOLID_M
100
AcDbLine
 10
2.810899
 20
-6.928202999999999
 30
0.0
 11
2.274999999999999
 21
-6.0
 31
0.0
  0
LINE
  5
83
330
1E
100
AcDbEntity
  8
MO_001_VIEW_PV
  6
C_SOLID_M
100
AcDbLine
 10
3.739101
 20
-6.928202999999999
 30
0.0
 11
4.275
 21
-5.999998999999999
 31
0.0
  0
LINE
  5
84
330
1E
100
AcDbEntity
  8
MO_001_VIEW_PV
  6
C_SOLID_M
100
AcDbLine
 10
2.810897999999999
 20
-6.928203999999999
 30
0.0
 11
3.739101
 21
-6.928203999999999
 31
0.0
  0
ARC
  5
85
330
1E
100
AcDbEntity
  8
MO_001_VIEW_PV
  6
C_SOLID_M
100
AcDbCircle
 10
13.739092
 20
0.0
 30
0.0
 40
11.464091
100
AcDbArc
 50
162.412036
 51
197.5879609999999
  0
ARC
  5
86
330
1E
100
AcDbEntity
  8
MO_001_VIEW_PV
  6
C_SOLID_M
100
AcDbCircle
 10
42.0
 20
0.0
 30
0.0
 40
6.5
100
AcDbArc
 50
157.3801399999999
 51
202.619857
  0
ARC
  5
87
330
1E
100
AcDbEntity
  8
MO_001_VIEW_PV
  6
C_SOLID_M
100
AcDbCircle
 10
42.0
 20
0.0
 30
0.0
 40
6.5
100
AcDbArc
 50
217.3800899999999
 51
262.61991
  0
ARC
  5
88
330
1E
100
AcDbEntity
  8
MO_001_VIEW_PV
  6
C_SOLID_M
100
AcDbCircle
 10
42.0
 20
0.0
 30
0.0
 40
6.5
100
AcDbArc
 50
277.3801329999999
 51
322.619867
  0
ARC
  5
89
330
1E
100
AcDbEntity
  8
MO_001_VIEW_PV
  6
C_SOLID_M
100
AcDbCircle
 10
42.0
 20
0.0
 30
0.0
 40
6.5
100
AcDbArc
 50
337.38013
 51
22.61985999999999
  0
ARC
  5
8A
330
1E
100
AcDbEntity
  8
MO_001_VIEW_PV
  6
C_SOLID_M
100
AcDbCircle
 10
42.0
 20
0.0
 30
0.0
 40
6.5
100
AcDbArc
 50
97.38008999999999
 51
142.61991
  0
LINE
  5
8B
330
1E
100
AcDbEntity
  8
MO_001_VIEW_PV
  6
C_SOLID_M
100
AcDbLine
 10
45.900002
 20
2.244991999999999
 30
0.0
 11
45.900002
 21
-2.244991999999999
 31
0.0
  0
ARC
  5
8C
330
1E
100
AcDbEntity
  8
MO_001_VIEW_PV
  6
C_SOLID_M
100
AcDbCircle
 10
42.0
 20
0.0
 30
0.0
 40
4.5
100
AcDbArc
 50
29.92638799999999
 51
330.073591
  0
LINE
  5
8D
330
1E
100
AcDbEntity
  8
MO_001_VIEW_PV
  6
C_CENTER_L
100
AcDbLine
 10
21.4508
 20
0.0
 30
0.0
 11
-34.273804
 21
0.0
 31
0.0
  0
LINE
  5
8E
330
1E
100
AcDbEntity
  8
MO_001_NOSHOW
  6
C_SOLID_M
100
AcDbLine
 10
58.118036
 20
-12.36195
 30
0.0
 11
58.667945
 21
-6.076463999999999
 31
0.0
  0
LINE
  5
8F
330
1E
100
AcDbEntity
  8
MO_001_VIEW_PV
  6
C_SOLID_M
100
AcDbLine
 10
-32.955295
 20
-9.551479999999999
 30
0.0
 11
-30.23315399999999
 21
-6.829339999999999
 31
0.0
  0
LINE
  5
90
330
1E
100
AcDbEntity
  8
MO_001_VIEW_PV
  6
C_SOLID_M
100
AcDbLine
 10
-33.987671
 20
-8.519116999999999
 30
0.0
 11
-31.265524
 21
-5.796971
 31
0.0
  0
ARC
  5
91
330
1E
100
AcDbEntity
  8
MO_001_VIEW_PV
  6
C_SOLID_M
100
AcDbCircle
 10
-33.41142999999999
 20
-9.491439999999998
 30
0.0
 40
0.4600680000000001
100
AcDbArc
 50
352.4994229999999
 51
97.50062900000001
  0
ARC
  5
92
330
1E
100
AcDbEntity
  8
MO_001_VIEW_PV
  6
C_SOLID_M
100
AcDbCircle
 10
-33.01535399999999
 20
-9.095364999999999
 30
0.0
 40
0.4600680000000001
100
AcDbArc
 50
172.499405
 51
277.500559
  0
ARC
  5
93
330
1E
100
AcDbEntity
  8
MO_001_VIEW_PV
  6
C_SOLID_M
100
AcDbCircle
 10
-33.53154399999999
 20
-8.579174
 30
0.0
 40
0.4600680000000001
100
AcDbArc
 50
172.498859
 51
277.5004229999999
  0
LINE
  5
94
330
1E
100
AcDbEntity
  8
MO_001_VIEW_PV
  6
C_SOLID_M
100
AcDbLine
 10
-40.705185
 20
-15.23662999999999
 30
0.0
 11
-34.69477299999999
 21
-9.226219
 31
0.0
  0
LINE
  5
95
330
1E
100
AcDbEntity
  8
MO_001_VIEW_PV
  6
C_SOLID_M
100
AcDbLine
 10
-39.67281599999999
 20
-16.269
 30
0.0
 11
-33.66240399999999
 21
-10.25858799999999
 31
0.0
  0
ARC
  5
96
330
1E
100
AcDbEntity
  8
MO_001_VIEW_PV
  6
C_SOLID_M
100
AcDbCircle
 10
-34.634731
 20
-9.682349999999999
 30
0.0
 40
0.4600680000000001
100
AcDbArc
 50
352.499368
 51
97.500575
  0
ARC
  5
97
330
1E
100
AcDbEntity
  8
MO_001_VIEW_PV
  6
C_SOLID_M
100
AcDbCircle
 10
-34.238655
 20
-9.286274999999999
 30
0.0
 40
0.4600680000000001
100
AcDbArc
 50
172.499446
 51
277.500614
  0
ARC
  5
98
330
1E
100
AcDbEntity
  8
MO_001_VIEW_PV
  6
C_SOLID_M
100
AcDbCircle
 10
-34.118542
 20
-10.198541
 30
0.0
 40
0.4600680000000001
100
AcDbArc
 50
352.498849
 51
97.50042399999999
  0
LINE
  5
99
330
1E
100
AcDbEntity
  8
MO_001_VIEW_PV
  6
C_SOLID_M
100
AcDbLine
 10
-39.67281599999999
 20
-16.269002
 30
0.0
 11
-40.70518599999999
 21
-15.236632
 31
0.0
  0
LINE
  5
9A
330
1E
100
AcDbEntity
  8
MO_001_VIEW_PV
  6
C_SOLID_M
100
AcDbLine
 10
-40.365778
 20
-15.576039
 30
0.0
 11
-43.90131199999999
 21
-19.111573
 31
0.0
  0
LINE
  5
9B
330
1E
100
AcDbEntity
  8
MO_001_VIEW_PV
  6
C_SOLID_M
100
AcDbLine
 10
-40.01222499999999
 20
-15.929592
 30
0.0
 11
-43.547758
 21
-19.46512699999999
 31
0.0
  0
LINE
  5
9C
330
1E
100
AcDbEntity
  8
MO_001_VIEW_PV
  6
C_SOLID_M
100
AcDbLine
 10
-43.547758
 20
-19.46512699999999
 30
0.0
 11
-43.901311
 21
-19.11157399999999
 31
0.0
  0
ARC
  5
9D
330
1E
100
AcDbEntity
  8
MO_001_VIEW_PV
  6
C_SOLID_M
100
AcDbCircle
 10
-27.729996
 20
-9.332504
 30
0.0
 40
3.540008999999999
100
AcDbArc
 50
90.00000899999999
 51
135.0
  0
ARC
  5
9E
330
1E
100
AcDbEntity
  8
MO_001_VIEW_PV
  6
C_SOLID_M
100
AcDbCircle
 10
-27.729996
 20
-9.332504
 30
0.0
 40
5.0
100
AcDbArc
 50
90.00000899999999
 51
135.0
  0
LINE
  5
9F
330
1E
100
AcDbEntity
  8
MO_001_VIEW_PV
  6
C_SOLID_M
100
AcDbLine
 10
-27.200001
 20
-5.792494999999999
 30
0.0
 11
-27.729996
 21
-5.792494999999999
 31
0.0
  0
LINE
  5
A0
330
1E
100
AcDbEntity
  8
MO_001_VIEW_PV
  6
C_SOLID_M
100
AcDbLine
 10
-27.200001
 20
-4.332504
 30
0.0
 11
-29.729996
 21
-4.332504
 31
0.0
  0
LINE
  5
A1
330
1E
100
AcDbEntity
  8
MO_001_VIEW_PV
  6
C_SOLID_M
100
AcDbLine
 10
18.199999
 20
-1.0
 30
0.0
 11
6.4
 21
-1.0
 31
0.0
  0
LINE
  5
A2
330
1E
100
AcDbEntity
  8
MO_001_VIEW_PV
  6
C_SOLID_M
100
AcDbLine
 10
18.199999
 20
1.0
 30
0.0
 11
6.4
 21
1.0
 31
0.0
  0
CIRCLE
  5
A3
330
1E
100
AcDbEntity
  8
MO_001_VIEW_PV
  6
C_SOLID_M
100
AcDbCircle
 10
42.0
 20
0.0
 30
0.0
 40
3.799999999999999
  0
LINE
  5
A4
330
1E
100
AcDbEntity
  8
MO_001_VIEW_PV
  6
C_SOLID_M
100
AcDbLine
 10
-0.2
 20
6.500001
 30
0.0
 11
0.0
 21
6.300000999999999
 31
0.0
  0
LINE
  5
A5
330
1E
100
AcDbEntity
  8
MO_001_VIEW_PV
  6
C_SOLID_M
100
AcDbLine
 10
0.0
 20
-6.299999999999999
 30
0.0
 11
-0.2
 21
-6.5
 31
0.0
  0
LINE
  5
A6
330
1E
100
AcDbEntity
  8
MO_001_VIEW_PV
  6
C_SOLID_M
100
AcDbLine
 10
-0.2
 20
6.5
 30
0.0
 11
-0.2
 21
-6.5
 31
0.0
  0
ARC
  5
A7
330
1E
100
AcDbEntity
  8
MO_001_VIEW_PV
  6
C_SOLID_M
100
AcDbCircle
 10
42.0
 20
0.0
 30
0.0
 40
6.299999999999999
100
AcDbArc
 50
42.247203
 51
77.75279000000001
  0
ARC
  5
A8
330
1E
100
AcDbEntity
  8
MO_001_VIEW_PV
  6
C_SOLID_M
100
AcDbCircle
 10
42.0
 20
0.0
 30
0.0
 40
6.299999999999999
100
AcDbArc
 50
102.2471459999999
 51
137.752853
  0
ARC
  5
A9
330
1E
100
AcDbEntity
  8
MO_001_VIEW_PV
  6
C_SOLID_M
100
AcDbCircle
 10
42.0
 20
0.0
 30
0.0
 40
6.299999999999999
100
AcDbArc
 50
162.2472099999999
 51
197.7528
  0
ARC
  5
AA
330
1E
100
AcDbEntity
  8
MO_001_VIEW_PV
  6
C_SOLID_M
100
AcDbCircle
 10
42.0
 20
0.0
 30
0.0
 40
6.299999999999999
100
AcDbArc
 50
342.247213
 51
17.75279
  0
ARC
  5
AB
330
1E
100
AcDbEntity
  8
MO_001_VIEW_PV
  6
C_SOLID_M
100
AcDbCircle
 10
42.0
 20
0.0
 30
0.0
 40
6.299999999999999
100
AcDbArc
 50
282.24721
 51
317.7527970000001
  0
ARC
  5
AC
330
1E
100
AcDbEntity
  8
MO_001_VIEW_PV
  6
C_SOLID_M
100
AcDbCircle
 10
42.0
 20
0.0
 30
0.0
 40
6.299999999999999
100
AcDbArc
 50
222.2470369999999
 51
257.7529699999999
  0
LINE
  5
AD
330
1E
100
AcDbEntity
  8
MO_001_VIEW_PV
  6
C_SOLID_M
100
AcDbLine
 10
-27.200001
 20
6.5
 30
0.0
 11
-27.200001
 21
-6.5
 31
0.0
  0
LINE
  5
AE
330
1E
100
AcDbEntity
  8
MO_001_VIEW_PV
  6
C_SOLID_M
100
AcDbLine
 10
-30.1
 20
2.000001999999999
 30
0.0
 11
-30.1
 21
-2.000001999999999
 31
0.0
  0
LINE
  5
AF
330
1E
100
AcDbEntity
  8
MO_001_VIEW_PV
  6
C_SOLID_M
100
AcDbLine
 10
-29.6
 20
2.5
 30
0.0
 11
-28.6
 21
2.5
 31
0.0
  0
LINE
  5
B0
330
1E
100
AcDbEntity
  8
MO_001_VIEW_PV
  6
C_SOLID_M
100
AcDbLine
 10
-29.6
 20
-2.5
 30
0.0
 11
-28.6
 21
-2.5
 31
0.0
  0
LINE
  5
B1
330
1E
100
AcDbEntity
  8
MO_001_VIEW_PV
  6
C_SOLID_M
100
AcDbLine
 10
-29.599998
 20
2.499999
 30
0.0
 11
-30.099998
 21
2.0
 31
0.0
  0
LINE
  5
B2
330
1E
100
AcDbEntity
  8
MO_001_VIEW_PV
  6
C_SOLID_M
100
AcDbLine
 10
-29.599998
 20
-2.499999
 30
0.0
 11
-30.099998
 21
-2.0
 31
0.0
  0
LINE
  5
B3
330
1E
100
AcDbEntity
  8
MO_001_VIEW_PV
  6
C_SOLID_M
100
AcDbLine
 10
-29.6
 20
2.5
 30
0.0
 11
-29.6
 21
-2.5
 31
0.0
  0
LINE
  5
B4
330
1E
100
AcDbEntity
  8
MO_001_VIEW_PV
  6
C_SOLID_M
100
AcDbLine
 10
-28.6
 20
3.5
 30
0.0
 11
-28.6
 21
-2.744483999999999
 31
0.0
  0
LINE
  5
B5
330
1E
100
AcDbEntity
  8
MO_001_VIEW_PV
  6
C_SOLID_M
100
AcDbLine
 10
-28.6
 20
3.5
 30
0.0
 11
-28.000002
 21
3.5
 31
0.0
  0
LINE
  5
B6
330
1E
100
AcDbEntity
  8
MO_001_VIEW_PV
  6
C_SOLID_M
100
AcDbLine
 10
-28.000002
 20
4.25
 30
0.0
 11
-27.200001
 21
4.25
 31
0.0
  0
LINE
  5
B7
330
1E
100
AcDbEntity
  8
MO_001_VIEW_PV
  6
C_SOLID_M
100
AcDbLine
 10
-28.000002
 20
4.25
 30
0.0
 11
-28.000002
 21
-4.25
 31
0.0
  0
LINE
  5
B8
330
1E
100
AcDbEntity
  8
MO_001_VIEW_PV
  6
C_SOLID_M
100
AcDbLine
 10
-28.000002
 20
-4.25
 30
0.0
 11
-27.200001
 21
-4.25
 31
0.0
  0
LINE
  5
B9
330
1E
100
AcDbEntity
  8
MO_001_VIEW_PV
  6
C_SOLID_M
100
AcDbLine
 10
-28.6
 20
-2.744483999999999
 30
0.0
 11
-28.000002
 21
-2.744483999999999
 31
0.0
  0
LINE
  5
BA
330
1E
100
AcDbEntity
  8
MO_001_VIEW_PV
  6
C_SOLID_M
100
AcDbLine
 10
18.199999
 20
1.0
 30
0.0
 11
18.199999
 21
-1.0
 31
0.0
  0
CIRCLE
  5
BB
330
1E
100
AcDbEntity
  8
MO_001_VIEW_PV
  6
C_SOLID_M
100
AcDbCircle
 10
42.0
 20
0.0
 30
0.0
 40
1.3
  0
CIRCLE
  5
BC
330
1E
100
AcDbEntity
  8
MO_001_VIEW_PV
  6
C_SOLID_M
100
AcDbCircle
 10
42.0
 20
0.0
 30
0.0
 40
1.6
  0
LINE
  5
BD
330
1E
100
AcDbEntity
  8
MO_001_VIEW_PV
  6
C_SOLID_M
100
AcDbLine
 10
42.42754999999999
 20
-12.48920299999999
 30
0.0
 11
42.00002
 21
-7.602522999999999
 31
0.0
  0
LINE
  5
BE
330
1E
100
AcDbEntity
  8
MO_001_VIEW_PV
  6
C_SOLID_M
100
AcDbLine
 10
43.881982
 20
-12.361957
 30
0.0
 11
43.356604
 21
-6.35686
 31
0.0
  0
ARC
  5
BF
330
1E
100
AcDbEntity
  8
MO_001_VIEW_PV
  6
C_SOLID_M
100
AcDbCircle
 10
42.815536
 20
-12.736385
 30
0.0
 40
0.4600680000000001
100
AcDbArc
 50
42.499373
 51
147.500572
  0
ARC
  5
C0
330
1E
100
AcDbEntity
  8
MO_001_VIEW_PV
  6
C_SOLID_M
100
AcDbCircle
 10
42.766708
 20
-12.178381
 30
0.0
 40
0.4600680000000001
100
AcDbArc
 50
222.4994399999999
 51
327.500597
  0
ARC
  5
C1
330
1E
100
AcDbEntity
  8
MO_001_VIEW_PV
  6
C_SOLID_M
100
AcDbCircle
 10
43.49394199999999
 20
-12.114758
 30
0.0
 40
0.4600680000000001
100
AcDbArc
 50
222.499577
 51
327.501144
  0
LINE
  5
C2
330
1E
100
AcDbEntity
  8
MO_001_VIEW_PV
  6
C_SOLID_M
100
AcDbLine
 10
44.709951
 20
-21.825807
 30
0.0
 11
43.969124
 21
-13.35814899999999
 31
0.0
  0
LINE
  5
C3
330
1E
100
AcDbEntity
  8
MO_001_VIEW_PV
  6
C_SOLID_M
100
AcDbLine
 10
43.25551599999999
 20
-21.95305199999999
 30
0.0
 11
42.514688
 21
-13.48539399999999
 31
0.0
  0
ARC
  5
C4
330
1E
100
AcDbEntity
  8
MO_001_VIEW_PV
  6
C_SOLID_M
100
AcDbCircle
 10
43.629921
 20
-13.668959
 30
0.0
 40
0.4600680000000001
100
AcDbArc
 50
42.49942800000001
 51
147.500626
  0
ARC
  5
C5
330
1E
100
AcDbEntity
  8
MO_001_VIEW_PV
  6
C_SOLID_M
100
AcDbCircle
 10
43.58109999999999
 20
-13.110954
 30
0.0
 40
0.4600680000000001
100
AcDbArc
 50
222.499399
 51
327.500556
  0
ARC
  5
C6
330
1E
100
AcDbEntity
  8
MO_001_VIEW_PV
  6
C_SOLID_M
100
AcDbCircle
 10
42.90270200000001
 20
-13.732582
 30
0.0
 40
0.4600680000000001
100
AcDbArc
 50
42.49957799999999
 51
147.501145
  0
LINE
  5
C7
330
1E
100
AcDbEntity
  8
MO_001_VIEW_PV
  6
C_SOLID_M
100
AcDbLine
 10
43.25553
 20
-21.95306099999999
 30
0.0
 11
44.709962
 21
-21.82581499999999
 31
0.0
  0
LINE
  5
C8
330
1E
100
AcDbEntity
  8
MO_001_VIEW_PV
  6
C_SOLID_M
100
AcDbLine
 10
44.23179799999999
 20
-21.867651
 30
0.0
 11
44.66757199999999
 21
-26.848612
 31
0.0
  0
LINE
  5
C9
330
1E
100
AcDbEntity
  8
MO_001_VIEW_PV
  6
C_SOLID_M
100
AcDbLine
 10
43.73370399999999
 20
-21.911228
 30
0.0
 11
44.169478
 21
-26.892189
 31
0.0
  0
LINE
  5
CA
330
1E
100
AcDbEntity
  8
MO_001_VIEW_PV
  6
C_SOLID_M
100
AcDbLine
 10
44.169477
 20
-26.892187
 30
0.0
 11
44.66757
 21
-26.848609
 31
0.0
  0
ARC
  5
CB
330
1E
100
AcDbEntity
  8
MO_001_VIEW_PV
  6
C_SOLID_M
100
AcDbCircle
 10
40.506042
 20
-12.114758
 30
0.0
 40
0.4600680000000001
100
AcDbArc
 50
212.4994419999999
 51
317.500599
  0
ARC
  5
CC
330
1E
100
AcDbEntity
  8
MO_001_VIEW_PV
  6
C_SOLID_M
100
AcDbCircle
 10
40.45722199999999
 20
-12.67276
 30
0.0
 40
0.4600680000000001
100
AcDbArc
 50
32.499375
 51
137.5005739999999
  0
ARC
  5
CD
330
1E
100
AcDbEntity
  8
MO_001_VIEW_PV
  6
C_SOLID_M
100
AcDbCircle
 10
41.233276
 20
-12.178381
 30
0.0
 40
0.4600680000000001
100
AcDbArc
 50
212.499579
 51
317.501146
  0
ARC
  5
CE
330
1E
100
AcDbEntity
  8
MO_001_VIEW_PV
  6
C_SOLID_M
100
AcDbCircle
 10
41.097305
 20
-13.732584
 30
0.0
 40
0.4600680000000001
100
AcDbArc
 50
32.49943
 51
137.500628
  0
ARC
  5
CF
330
1E
100
AcDbEntity
  8
MO_001_VIEW_PV
  6
C_SOLID_M
100
AcDbCircle
 10
41.146118
 20
-13.17458
 30
0.0
 40
0.4600680000000001
100
AcDbArc
 50
212.4994009999999
 51
317.500558
  0
ARC
  5
D0
330
1E
100
AcDbEntity
  8
MO_001_VIEW_PV
  6
C_SOLID_M
100
AcDbCircle
 10
40.370087
 20
-13.66896099999999
 30
0.0
 40
0.4600680000000001
100
AcDbArc
 50
32.49958
 51
137.501147
  0
LINE
  5
D1
330
1E
100
AcDbEntity
  8
MO_001_VIEW_PV
  6
C_SOLID_M
100
AcDbLine
 10
39.290064
 20
-21.825797
 30
0.0
 11
40.030884
 21
-13.35814599999999
 31
0.0
  0
LINE
  5
D2
330
1E
100
AcDbEntity
  8
MO_001_VIEW_PV
  6
C_SOLID_M
100
AcDbLine
 10
40.7445
 20
-21.953045
 30
0.0
 11
41.48532
 21
-13.485392
 31
0.0
  0
LINE
  5
D3
330
1E
100
AcDbEntity
  8
MO_001_VIEW_PV
  6
C_SOLID_M
100
AcDbLine
 10
40.74451899999999
 20
-21.953057
 30
0.0
 11
39.290087
 21
-21.82581
 31
0.0
  0
LINE
  5
D4
330
1E
100
AcDbEntity
  8
MO_001_VIEW_PV
  6
C_SOLID_M
100
AcDbLine
 10
39.768232
 20
-21.86763399999999
 30
0.0
 11
39.332449
 21
-26.848611
 31
0.0
  0
LINE
  5
D5
330
1E
100
AcDbEntity
  8
MO_001_VIEW_PV
  6
C_SOLID_M
100
AcDbLine
 10
40.266329
 20
-21.91121099999999
 30
0.0
 11
39.830546
 21
-26.892186
 31
0.0
  0
LINE
  5
D6
330
1E
100
AcDbEntity
  8
MO_001_VIEW_PV
  6
C_SOLID_M
100
AcDbLine
 10
39.83057399999999
 20
-26.8922
 30
0.0
 11
39.332477
 21
-26.84862199999999
 31
0.0
  0
LINE
  5
D7
330
1E
100
AcDbEntity
  8
MO_001_VIEW_PV
  6
C_SOLID_M
100
AcDbLine
 10
40.118052
 20
-12.361953
 30
0.0
 11
40.64342899999999
 21
-6.356863999999999
 31
0.0
  0
LINE
  5
D8
330
1E
100
AcDbEntity
  8
MO_001_VIEW_PV
  6
C_SOLID_M
100
AcDbLine
 10
41.572484
 20
-12.489199
 30
0.0
 11
42.06214699999999
 21
-6.892327
 31
0.0
  0
LINE
  5
D9
330
1E
100
AcDbEntity
  8
MO_001_VIEW_PV
  6
C_SOLID_L
100
AcDbLine
 10
7.775966999999999
 20
-15.0
 30
0.0
 11
33.919724
 21
-15.0
 31
0.0
  0
LINE
  5
DA
330
1E
100
AcDbEntity
  8
MO_001_VIEW_PV
  6
C_SOLID_L
100
AcDbLine
 10
-30.469059
 20
-24.0
 30
0.0
 11
11.46234699999999
 21
-24.0
 31
0.0
  0
LINE
  5
DB
330
1E
100
AcDbEntity
  8
MO_001_VIEW_PV
  6
C_SOLID_M
100
AcDbLine
 10
-34.91393499999999
 20
-8.640788
 30
0.0
 11
-32.230108
 21
-6.761552
 31
0.0
  0
LINE
  5
DC
330
1E
100
AcDbEntity
  8
MO_001_VIEW_PV
  6
C_SOLID_M
100
AcDbLine
 10
-35.751358
 20
-7.444838
 30
0.0
 11
-32.597875
 21
-5.236744999999999
 31
0.0
  0
ARC
  5
DD
330
1E
100
AcDbEntity
  8
MO_001_VIEW_PV
  6
C_SOLID_M
100
AcDbCircle
 10
-35.352715
 20
-8.502454999999999
 30
0.0
 40
0.4600680000000001
100
AcDbArc
 50
342.4994229999999
 51
87.500631
  0
ARC
  5
DE
330
1E
100
AcDbEntity
  8
MO_001_VIEW_PV
  6
C_SOLID_M
100
AcDbCircle
 10
-34.893879
 20
-8.181174
 30
0.0
 40
0.4600680000000001
100
AcDbArc
 50
162.499407
 51
267.5005609999999
  0
ARC
  5
DF
330
1E
100
AcDbEntity
  8
MO_001_VIEW_PV
  6
C_SOLID_M
100
AcDbCircle
 10
-35.31259199999999
 20
-7.583189999999999
 30
0.0
 40
0.4600680000000001
100
AcDbArc
 50
162.498861
 51
267.500425
  0
LINE
  5
E0
330
1E
100
AcDbEntity
  8
MO_001_VIEW_PV
  6
C_SOLID_M
100
AcDbLine
 10
-43.533306
 20
-12.893815
 30
0.0
 11
-36.57051
 21
-8.018413
 31
0.0
  0
LINE
  5
E1
330
1E
100
AcDbEntity
  8
MO_001_VIEW_PV
  6
C_SOLID_M
100
AcDbLine
 10
-42.695889
 20
-14.08977
 30
0.0
 11
-35.733093
 21
-9.214368999999999
 31
0.0
  0
ARC
  5
E2
330
1E
100
AcDbEntity
  8
MO_001_VIEW_PV
  6
C_SOLID_M
100
AcDbCircle
 10
-36.590584
 20
-8.478041000000001
 30
0.0
 40
0.4600680000000001
100
AcDbArc
 50
342.499368
 51
87.50057700000001
  0
ARC
  5
E3
330
1E
100
AcDbEntity
  8
MO_001_VIEW_PV
  6
C_SOLID_M
100
AcDbCircle
 10
-36.131744
 20
-8.15676
 30
0.0
 40
0.4600680000000001
100
AcDbArc
 50
162.4994479999999
 51
267.500616
  0
ARC
  5
E4
330
1E
100
AcDbEntity
  8
MO_001_VIEW_PV
  6
C_SOLID_M
100
AcDbCircle
 10
-36.171871
 20
-9.076024
 30
0.0
 40
0.4600680000000001
100
AcDbArc
 50
342.498849
 51
87.500426
  0
LINE
  5
E5
330
1E
100
AcDbEntity
  8
MO_001_VIEW_PV
  6
C_SOLID_M
100
AcDbLine
 10
-42.695886
 20
-14.089769
 30
0.0
 11
-43.533302
 21
-12.893814
 31
0.0
  0
LINE
  5
E6
330
1E
100
AcDbEntity
  8
MO_001_VIEW_PV
  6
C_SOLID_M
100
AcDbLine
 10
-43.257995
 20
-13.287009
 30
0.0
 11
-47.35375499999999
 21
-16.154892
 31
0.0
  0
LINE
  5
E7
330
1E
100
AcDbEntity
  8
MO_001_VIEW_PV
  6
C_SOLID_M
100
AcDbLine
 10
-42.97120699999999
 20
-13.696585
 30
0.0
 11
-47.06696599999999
 21
-16.56446799999999
 31
0.0
  0
LINE
  5
E8
330
1E
100
AcDbEntity
  8
MO_001_VIEW_PV
  6
C_SOLID_M
100
AcDbLine
 10
-47.06695999999999
 20
-16.56446199999999
 30
0.0
 11
-47.353749
 21
-16.15488599999999
 31
0.0
  0
ARC
  5
E9
330
1E
100
AcDbEntity
  8
MO_001_VIEW_PV
  6
C_SOLID_M
100
AcDbCircle
 10
-29.729996
 20
-9.332504
 30
0.0
 40
5.0
100
AcDbArc
 50
90.000002
 51
125.0000019999999
  0
LINE
  5
EA
330
1E
100
AcDbEntity
  8
MO_001_VIEW_PV
  6
C_CENTER_L
100
AcDbLine
 10
72.0
 20
-7.0
 30
0.0
 11
72.0
 21
-23.0
 31
0.0
  0
LINE
  5
EB
330
1E
100
AcDbEntity
  8
MO_001_VIEW_PV
  6
C_CENTER_L
100
AcDbLine
 10
64.0
 20
-15.0
 30
0.0
 11
80.0
 21
-15.0
 31
0.0
  0
ARC
  5
EC
330
1E
100
AcDbEntity
  8
MO_001_VIEW_PV
  6
C_SOLID_M
100
AcDbCircle
 10
72.0
 20
-15.0
 30
0.0
 40
4.599999999999999
100
AcDbArc
 50
29.59184199999999
 51
330.408161
  0
LINE
  5
ED
330
1E
100
AcDbEntity
  8
MO_001_VIEW_PV
  6
C_SOLID_M
100
AcDbLine
 10
76.0
 20
-12.728437
 30
0.0
 11
76.0
 21
-17.271564
 31
0.0
  0
LINE
  5
EE
330
1E
100
AcDbEntity
  8
MO_001_VIEW_PV
  6
C_SOLID_L
100
AcDbLine
 10
63.339745
 20
-29.99999799999999
 30
0.0
 11
69.69999699999999
 21
-18.983719
 31
0.0
  0
LINE
  5
EF
330
1E
100
AcDbEntity
  8
MO_001_VIEW_PV
  6
C_SOLID_L
100
AcDbLine
 10
63.33975200000001
 20
-30.0
 30
0.0
 11
84.0
 21
-30.0
 31
0.0
  0
TEXT
  5
F0
330
1E
100
AcDbEntity
  8
MO_001_VIEW_PV
  6
C_SOLID_L
100
AcDbText
 10
-46.488281
 20
-47.08359399999999
 30
0.0
 40
4.167187
  1
S-50 Push
100
AcDbText
  0
TEXT
  5
F1
330
1E
100
AcDbEntity
  8
MO_001_VIEW_PV
  6
C_SOLID_L
100
AcDbText
 10
-29.245812
 20
-23.27388
 30
0.0
 40
3.0
  1
長さ150以上
100
AcDbText
  0
TEXT
  5
F2
330
1E
100
AcDbEntity
  8
MO_001_VIEW_PV
  6
C_SOLID_L
100
AcDbText
 10
-30.166581
 20
-28.01939799999999
 30
0.0
 40
3.0
  1
(UL1430 AWG28)
100
AcDbText
  0
TEXT
  5
F3
330
1E
100
AcDbEntity
  8
MO_001_VIEW_PV
  6
C_SOLID_L
100
AcDbText
 10
8.774924999999999
 20
-14.047276
 30
0.0
 40
3.0
  1
M9 P0.75
100
AcDbText
  0
TEXT
  5
F4
330
1E
100
AcDbEntity
  8
MO_001_VIEW_PV
  6
C_SOLID_L
100
AcDbText
 10
78.40862900000001
 20
-27.310104
 30
0.0
 40
1.5
  1
%%P0.1
100
AcDbText
  0
TEXT
  5
F5
330
1E
100
AcDbEntity
  8
MO_001_VIEW_PV
  6
C_SOLID_L
100
AcDbText
 10
66.62291500000001
 20
-29.185104
 30
0.0
 40
3.0
  1
%%C9.2
100
AcDbText
  0
TEXT
  5
F6
330
1E
100
AcDbEntity
  8
MO_001_VIEW_PV
  6
C_SOLID_L
100
AcDbText
 10
64.214286
 20
-47.5
 30
0.0
 40
5.0
  1
取付け穴
100
AcDbText
  0
TEXT
  5
F7
330
1E
100
AcDbEntity
  8
MO_001_VIEW_PV
  6
C_SOLID_L
100
AcDbText
 10
19.21428599999999
 20
-47.5
 30
0.0
 40
5.0
  1
単位：mm
100
AcDbText
  0
TEXT
  5
F8
330
1E
100
AcDbEntity
  8
MO_001_VIEW_PV
  6
C_SOLID_L
100
AcDbText
 10
19.21428599999999
 20
-53.5
 30
0.0
 40
5.0
  1
図は励磁時を示す
100
AcDbText
  0
TEXT
  5
F9
330
1E
100
AcDbEntity
  8
MO_001_VIEW_PV
  6
C_SOLID_L
100
AcDbText
 10
9.80052
 20
-34.269562
 30
0.0
 40
3.0
  1
M9 P0.75の不完全
100
AcDbText
  0
TEXT
  5
FA
330
1E
100
AcDbEntity
  8
MO_001_VIEW_PV
  6
C_SOLID_L
100
AcDbText
 10
9.80052
 20
-38.769562
 30
0.0
 40
3.0
  1
ネジ部 1.5以下
100
AcDbText
  0
DIMENSION
  5
FC
330
1E
100
AcDbEntity
  8
MO_001_VIEW_PV
  6
C_SOLID_M
100
AcDbDimension
  2
*D0
 10
16.0
 20
32.0
 30
0.0
 11
16.0
 21
32.0
 31
0.0
  3
STANDARD
100
AcDbAlignedDimension
 13
6.4
 23
3.75
 33
0.0
 14
0.0
 24
6.299999999999999
 34
0.0
100
AcDbRotatedDimension
  0
DIMENSION
  5
FE
330
1E
100
AcDbEntity
  8
MO_001_VIEW_PV
  6
C_SOLID_M
100
AcDbDimension
  2
*D1
 10
58.0
 20
24.0
 30
0.0
 11
58.0
 21
24.0
 31
0.0
  3
STANDARD
100
AcDbAlignedDimension
 13
48.5
 23
0.0
 33
0.0
 14
35.5
 24
0.0
 34
0.0
100
AcDbRotatedDimension
  0
DIMENSION
  5
100
330
1E
100
AcDbEntity
  8
MO_001_VIEW_PV
  6
C_SOLID_M
100
AcDbDimension
  2
*D2
 10
58.0
 20
18.0
 30
0.0
 11
58.0
 21
18.0
 31
0.0
  3
STANDARD
100
AcDbAlignedDimension
 13
48.0
 23
3.464101999999999
 33
0.0
 14
36.0
 24
3.464101999999999
 34
0.0
100
AcDbRotatedDimension
  0
DIMENSION
  5
102
330
1E
100
AcDbEntity
  8
MO_001_VIEW_PV
  6
C_SOLID_M
100
AcDbDimension
  2
*D3
 10
58.0
 20
12.0
 30
0.0
 11
58.0
 21
12.0
 31
0.0
  3
STANDARD
100
AcDbAlignedDimension
 13
45.900002
 23
2.244991999999999
 33
0.0
 14
42.0
 24
10.0
 34
0.0
100
AcDbRotatedDimension
  0
DIMENSION
  5
104
330
1E
100
AcDbEntity
  8
MO_001_VIEW_PV
  6
C_SOLID_M
100
AcDbDimension
  2
*D4
 10
24.313148
 20
24.0
 30
0.0
 11
24.313148
 21
24.0
 31
0.0
  3
STANDARD
100
AcDbAlignedDimension
 13
6.4
 23
3.75
 33
0.0
 14
18.199999
 24
1.0
 34
0.0
100
AcDbRotatedDimension
  0
DIMENSION
  5
106
330
1E
100
AcDbEntity
  8
MO_001_VIEW_PV
  6
C_SOLID_M
100
AcDbDimension
  2
*D5
 10
-38.877193
 20
24.0
 30
0.0
 11
-38.877193
 21
24.0
 31
0.0
  3
STANDARD
100
AcDbAlignedDimension
 13
-30.1
 23
2.000001999999999
 33
0.0
 14
-27.200001
 24
6.5
 34
0.0
100
AcDbRotatedDimension
  0
DIMENSION
  5
108
330
1E
100
AcDbEntity
  8
MO_001_VIEW_PV
  6
C_SOLID_M
100
AcDbDimension
  2
*D6
 10
-13.6
 20
24.0
 30
0.0
 11
-13.6
 21
24.0
 31
0.0
  3
STANDARD
100
AcDbAlignedDimension
 13
-27.200001
 23
6.5
 33
0.0
 14
0.0
 24
6.299999999999999
 34
0.0
100
AcDbRotatedDimension
  0
DIMENSION
  5
10A
330
1E
100
AcDbEntity
  8
MO_001_VIEW_PV
  6
C_SOLID_M
100
AcDbDimension
  2
*D7
 10
24.0
 20
15.0
 30
0.0
 11
24.0
 21
15.0
 31
0.0
  3
STANDARD
100
AcDbAlignedDimension
 13
18.199999
 23
-1.0
 33
0.0
 14
18.199999
 24
1.0
 34
0.0
 50
89.98785500000002
100
AcDbRotatedDimension
  0
DIMENSION
  5
10C
330
1E
100
AcDbEntity
  8
MO_001_VIEW_PV
  6
C_SOLID_M
100
AcDbDimension
  2
*D8
 10
-48.0
 20
-17.76322399999999
 30
0.0
 11
-48.0
 21
-17.76322399999999
 31
0.0
  3
STANDARD
100
AcDbAlignedDimension
 13
-28.000002
 23
4.25
 33
0.0
 14
-28.000002
 24
-4.25
 34
0.0
 50
270.012145
100
AcDbRotatedDimension
  0
LINE
  5
10D
330
1E
100
AcDbEntity
  8
MO_001_VIEW_PV
  6
C_SOLID_L
100
AcDbLine
 10
4.9625
 20
-4.5
 30
0.0
 11
7.775966999999999
 21
-14.99999899999999
 31
0.0
  0
POLYLINE
  5
10E
330
1E
100
AcDbEntity
  8
MO_001_VIEW_PV
  6
C_SOLID_L
100
AcDb2dPolyline
 66
     1
 10
0.0
 20
0.0
 30
0.0
 70
     1
  0
VERTEX
  5
1B6
330
10E
100
AcDbEntity
  8
MO_001_VIEW_PV
  6
C_SOLID_L
100
AcDbVertex
100
AcDb2dVertex
 10
6.384958
 20
-7.554168999999999
 30
0.0
  0
VERTEX
  5
1B7
330
10E
100
AcDbEntity
  8
MO_001_VIEW_PV
  6
C_SOLID_L
100
AcDbVertex
100
AcDb2dVertex
 10
5.09398
 20
-4.990689999999999
 30
0.0
  0
VERTEX
  5
1B8
330
10E
100
AcDbEntity
  8
MO_001_VIEW_PV
  6
C_SOLID_L
100
AcDbVertex
100
AcDb2dVertex
 10
5.257699999999999
 20
-7.856217
 30
0.0
  0
SEQEND
  5
1B9
330
10E
100
AcDbEntity
  8
MO_001_VIEW_PV
  6
C_SOLID_L
  0
LINE
  5
113
330
1E
100
AcDbEntity
  8
MO_001_VIEW_PV
  6
C_SOLID_L
100
AcDbLine
 10
-36.667609
 20
-13.263794
 30
0.0
 11
-30.469058
 21
-23.999999
 31
0.0
  0
POLYLINE
  5
114
330
1E
100
AcDbEntity
  8
MO_001_VIEW_PV
  6
C_SOLID_L
100
AcDb2dPolyline
 66
     1
 10
0.0
 20
0.0
 30
0.0
 70
     1
  0
VERTEX
  5
1BA
330
114
100
AcDbEntity
  8
MO_001_VIEW_PV
  6
C_SOLID_L
100
AcDbVertex
100
AcDb2dVertex
 10
-34.503143
 20
-15.845735
 30
0.0
  0
VERTEX
  5
1BB
330
114
100
AcDbEntity
  8
MO_001_VIEW_PV
  6
C_SOLID_L
100
AcDbVertex
100
AcDb2dVertex
 10
-36.413609
 20
-13.703735
 30
0.0
  0
VERTEX
  5
1BC
330
114
100
AcDbEntity
  8
MO_001_VIEW_PV
  6
C_SOLID_L
100
AcDbVertex
100
AcDb2dVertex
 10
-35.513815
 20
-16.429247
 30
0.0
  0
SEQEND
  5
1BD
330
114
100
AcDbEntity
  8
MO_001_VIEW_PV
  6
C_SOLID_L
  0
DIMENSION
  5
11A
330
1E
100
AcDbEntity
  8
MO_001_VIEW_PV
  6
C_SOLID_M
100
AcDbDimension
  2
*D9
 10
87.50083899999999
 20
3.0
 30
0.0
 11
87.50083899999999
 21
3.0
 31
0.0
  3
STANDARD
100
AcDbAlignedDimension
 13
76.0
 23
-12.728437
 33
0.0
 14
67.400002
 24
-15.0
 34
0.0
100
AcDbRotatedDimension
  0
DIMENSION
  5
11C
330
1E
100
AcDbEntity
  8
MO_001_VIEW_PV
  6
C_SOLID_M
100
AcDbDimension
  2
*D10
 10
84.0
 20
-3.0
 30
0.0
 11
84.0
 21
-3.0
 31
0.0
  1
(4)
  3
STANDARD
100
AcDbAlignedDimension
 13
76.0
 23
-12.728437
 33
0.0
 14
72.0
 24
-7.0
 34
0.0
100
AcDbRotatedDimension
  0
LINE
  5
11D
330
1E
100
AcDbEntity
  8
MO_001_VIEW_PV
  6
C_SOLID_L
100
AcDbLine
 10
74.300003
 20
-11.01628
 30
0.0
 11
71.999999
 21
-14.999997
 31
0.0
  0
POLYLINE
  5
11E
330
1E
100
AcDbEntity
  8
MO_001_VIEW_PV
  6
C_SOLID_L
100
AcDb2dPolyline
 66
     1
 10
0.0
 20
0.0
 30
0.0
 70
     1
  0
VERTEX
  5
1BE
330
11E
100
AcDbEntity
  8
MO_001_VIEW_PV
  6
C_SOLID_L
100
AcDbVertex
100
AcDb2dVertex
 10
73.14620699999998
 20
-14.181733
 30
0.0
  0
VERTEX
  5
1BF
330
11E
100
AcDbEntity
  8
MO_001_VIEW_PV
  6
C_SOLID_L
100
AcDbVertex
100
AcDb2dVertex
 10
74.046003
 20
-11.456221
 30
0.0
  0
VERTEX
  5
1C0
330
11E
100
AcDbEntity
  8
MO_001_VIEW_PV
  6
C_SOLID_L
100
AcDbVertex
100
AcDb2dVertex
 10
72.135536
 20
-13.59822
 30
0.0
  0
SEQEND
  5
1C1
330
11E
100
AcDbEntity
  8
MO_001_VIEW_PV
  6
C_SOLID_L
  0
LINE
  5
123
330
1E
100
AcDbEntity
  8
MO_001_VIEW_PV
  6
C_SOLID_L
100
AcDbLine
 10
69.70000500000001
 20
-18.983717
 30
0.0
 11
72.000005
 21
-14.99999899999999
 31
0.0
  0
POLYLINE
  5
124
330
1E
100
AcDbEntity
  8
MO_001_VIEW_PV
  6
C_SOLID_L
100
AcDb2dPolyline
 66
     1
 10
0.0
 20
0.0
 30
0.0
 70
     1
  0
VERTEX
  5
1C2
330
124
100
AcDbEntity
  8
MO_001_VIEW_PV
  6
C_SOLID_L
100
AcDbVertex
100
AcDb2dVertex
 10
70.85379899999999
 20
-15.818263
 30
0.0
  0
VERTEX
  5
1C3
330
124
100
AcDbEntity
  8
MO_001_VIEW_PV
  6
C_SOLID_L
100
AcDbVertex
100
AcDb2dVertex
 10
69.95400500000001
 20
-18.543776
 30
0.0
  0
VERTEX
  5
1C4
330
124
100
AcDbEntity
  8
MO_001_VIEW_PV
  6
C_SOLID_L
100
AcDbVertex
100
AcDb2dVertex
 10
71.86447099999999
 20
-16.401775
 30
0.0
  0
SEQEND
  5
1C5
330
124
100
AcDbEntity
  8
MO_001_VIEW_PV
  6
C_SOLID_L
  0
ENDSEC
  0
SECTION
  2
OBJECTS
  0
DICTIONARY
  5
1A
330
0
100
AcDbDictionary
  3
ACAD_GROUP
350
1B
  3
ACAD_MLINESTYLE
350
1C
  3
ACAD_LAYOUT
350
1AC
  3
ACAD_PLOTSETTINGS
350
1AD
1001
ACAD
1000
TREAT_AS_HARD
1070
     0
  0
DICTIONARY
  5
1B2
330
1E
100
AcDbDictionary
  3
ACAD_LAYOUTSELFREF
350
1B3
  0
DICTIONARY
  5
1B4
330
1F
100
AcDbDictionary
  3
ACAD_LAYOUTSELFREF
350
1B5
  0
DICTIONARY
  5
1B
102
{ACAD_REACTORS
330
1A
102
}
330
1A
100
AcDbDictionary
1001
ACAD
1000
TREAT_AS_HARD
1070
     0
  0
DICTIONARY
  5
1C
102
{ACAD_REACTORS
330
1A
102
}
330
1A
100
AcDbDictionary
  3
STANDARD
350
1D
1001
ACAD
1000
TREAT_AS_HARD
1070
     0
  0
DICTIONARY
  5
1AC
102
{ACAD_REACTORS
330
1A
102
}
330
1A
100
AcDbDictionary
1001
ACAD
1000
TREAT_AS_HARD
1070
     0
  0
DICTIONARY
  5
1AD
102
{ACAD_REACTORS
330
1A
102
}
330
1A
100
AcDbDictionary
1001
ACAD
1000
TREAT_AS_HARD
1070
     0
  0
XRECORD
  5
1B3
102
{ACAD_REACTORS
330
1B2
102
}
330
1B2
100
AcDbXrecord
340
1E
  0
XRECORD
  5
1B5
102
{ACAD_REACTORS
330
1B4
102
}
330
1B4
100
AcDbXrecord
340
1F
  0
MLINESTYLE
  5
1D
102
{ACAD_REACTORS
330
1C
102
}
330
1C
100
AcDbMlineStyle
  2
STANDARD
 70
     0
  3

 62
     0
 51
90.0
 52
90.0
 71
     2
 49
0.5
 62
   256
  6
BYLAYER
 49
-0.5
 62
   256
  6
BYLAYER
  0
ENDSEC
  0
EOF
