  0
SECTION
  2
HEADER
  9
$ACADVER
  1
AC1012
  9
$DWGCODEPAGE
  3
dos932
  9
$INSBASE
 10
0.0
 20
0.0
 30
0.0
  9
$EXTMIN
 10
-70.00486829774513
 20
-53.50497034303256
 30
-0.0015258207003583
  9
$EXTMAX
 10
89.54142104064516
 20
28.12548848221251
 30
0.0000000349246037
  9
$LIMMIN
 10
-70.0
 20
-57.25
  9
$LIMMAX
 10
89.536552
 20
30.0
  9
$ORTHOMODE
 70
     0
  9
$REGENMODE
 70
     1
  9
$FILLMODE
 70
     1
  9
$QTEXTMODE
 70
     0
  9
$MIRRTEXT
 70
     1
  9
$DRAGMODE
 70
     2
  9
$LTSCALE
 40
1.0
  9
$OSMODE
 70
    37
  9
$ATTMODE
 70
     1
  9
$TEXTSIZE
 40
4.1672
  9
$TRACEWID
 40
0.05
  9
$TEXTSTYLE
  7
STANDARD
  9
$CLAYER
  8
0
  9
$CELTYPE
  6
CONTINUOUS
  9
$CECOLOR
 62
   256
  9
$CELTSCALE
 40
1.0
  9
$DELOBJ
 70
     1
  9
$DISPSILH
 70
     0
  9
$DIMSCALE
 40
1.0
  9
$DIMASZ
 40
0.18
  9
$DIMEXO
 40
0.0625
  9
$DIMDLI
 40
0.38
  9
$DIMRND
 40
0.0
  9
$DIMDLE
 40
0.0
  9
$DIMEXE
 40
0.18
  9
$DIMTP
 40
0.0
  9
$DIMTM
 40
0.0
  9
$DIMTXT
 40
0.18
  9
$DIMCEN
 40
0.09
  9
$DIMTSZ
 40
0.0
  9
$DIMTOL
 70
     0
  9
$DIMLIM
 70
     0
  9
$DIMTIH
 70
     1
  9
$DIMTOH
 70
     1
  9
$DIMSE1
 70
     0
  9
$DIMSE2
 70
     0
  9
$DIMTAD
 70
     0
  9
$DIMZIN
 70
     0
  9
$DIMBLK
  1

  9
$DIMASO
 70
     1
  9
$DIMSHO
 70
     1
  9
$DIMPOST
  1

  9
$DIMAPOST
  1

  9
$DIMALT
 70
     0
  9
$DIMALTD
 70
     2
  9
$DIMALTF
 40
25.4
  9
$DIMLFAC
 40
1.0
  9
$DIMTOFL
 70
     0
  9
$DIMTVP
 40
0.0
  9
$DIMTIX
 70
     0
  9
$DIMSOXD
 70
     0
  9
$DIMSAH
 70
     0
  9
$DIMBLK1
  1

  9
$DIMBLK2
  1

  9
$DIMSTYLE
  2
STANDARD
  9
$DIMCLRD
 70
     0
  9
$DIMCLRE
 70
     0
  9
$DIMCLRT
 70
     0
  9
$DIMTFAC
 40
1.0
  9
$DIMGAP
 40
0.09
  9
$DIMJUST
 70
     0
  9
$DIMSD1
 70
     0
  9
$DIMSD2
 70
     0
  9
$DIMTOLJ
 70
     1
  9
$DIMTZIN
 70
     0
  9
$DIMALTZ
 70
     0
  9
$DIMALTTZ
 70
     0
  9
$DIMFIT
 70
     3
  9
$DIMUPT
 70
     0
  9
$DIMUNIT
 70
     2
  9
$DIMDEC
 70
     4
  9
$DIMTDEC
 70
     4
  9
$DIMALTU
 70
     2
  9
$DIMALTTD
 70
     2
  9
$DIMTXSTY
  7
STANDARD
  9
$DIMAUNIT
 70
     0
  9
$LUNITS
 70
     2
  9
$LUPREC
 70
     6
  9
$SKETCHINC
 40
0.1
  9
$FILLETRAD
 40
0.0
  9
$AUNITS
 70
     0
  9
$AUPREC
 70
     4
  9
$MENU
  1
acad
  9
$ELEVATION
 40
0.0
  9
$PELEVATION
 40
0.0
  9
$THICKNESS
 40
0.0
  9
$LIMCHECK
 70
     0
  9
$BLIPMODE
 70
     0
  9
$CHAMFERA
 40
0.0
  9
$CHAMFERB
 40
0.0
  9
$CHAMFERC
 40
0.0
  9
$CHAMFERD
 40
0.0
  9
$SKPOLY
 70
     0
  9
$TDCREATE
 40
2376126.114256134
  9
$TDUPDATE
 40
2451667.439216319
  9
$TDINDWG
 40
0.0008886574
  9
$TDUSRTIMER
 40
0.0008880787
  9
$USRTIMER
 70
     1
  9
$ANGBASE
 50
0.0
  9
$ANGDIR
 70
     0
  9
$PDMODE
 70
     0
  9
$PDSIZE
 40
0.0
  9
$PLINEWID
 40
0.0
  9
$COORDS
 70
     1
  9
$SPLFRAME
 70
     0
  9
$SPLINETYPE
 70
     6
  9
$SPLINESEGS
 70
     8
  9
$ATTDIA
 70
     0
  9
$ATTREQ
 70
     1
  9
$HANDLING
 70
 10241
  9
$HANDSEED
  5
23C
  9
$SURFTAB1
 70
     6
  9
$SURFTAB2
 70
     6
  9
$SURFTYPE
 70
     6
  9
$SURFU
 70
     6
  9
$SURFV
 70
     6
  9
$UCSNAME
  2
MO_001_VIEW_PV_P
  9
$UCSORG
 10
0.0
 20
0.0
 30
0.0
  9
$UCSXDIR
 10
1.0
 20
0.0
 30
0.0
  9
$UCSYDIR
 10
-0.0000000002051034
 20
1.0
 30
0.0
  9
$PUCSNAME
  2

  9
$PUCSORG
 10
0.0
 20
0.0
 30
0.0
  9
$PUCSXDIR
 10
1.0
 20
0.0
 30
0.0
  9
$PUCSYDIR
 10
0.0
 20
1.0
 30
0.0
  9
$USERI1
 70
     0
  9
$USERI2
 70
     0
  9
$USERI3
 70
     0
  9
$USERI4
 70
     0
  9
$USERI5
 70
     0
  9
$USERR1
 40
0.0
  9
$USERR2
 40
0.0
  9
$USERR3
 40
0.0
  9
$USERR4
 40
0.0
  9
$USERR5
 40
0.0
  9
$WORLDVIEW
 70
     1
  9
$SHADEDGE
 70
     3
  9
$SHADEDIF
 70
    70
  9
$TILEMODE
 70
     1
  9
$MAXACTVP
 70
    16
  9
$PINSBASE
 10
0.0
 20
0.0
 30
0.0
  9
$PLIMCHECK
 70
     0
  9
$PEXTMIN
 10
-70.0
 20
-57.25
 30
1.000000000000000E+20
  9
$PEXTMAX
 10
89.536552
 20
30.0
 30
-1.000000000000000E+20
  9
$PLIMMIN
 10
0.0
 20
0.0
  9
$PLIMMAX
 10
12.0
 20
9.0
  9
$UNITMODE
 70
     0
  9
$VISRETAIN
 70
     0
  9
$PLINEGEN
 70
     0
  9
$PSLTSCALE
 70
     1
  9
$TREEDEPTH
 70
  3020
  9
$PICKSTYLE
 70
     1
  9
$CMLSTYLE
  2
STANDARD
  9
$CMLJUST
 70
     0
  9
$CMLSCALE
 40
1.0
  9
$SAVEIMAGES
 70
     1
  0
ENDSEC
  0
SECTION
  2
CLASSES
  0
CLASS
  1
ACDBDICTIONARYWDFLT
  2
AcDbDictionaryWithDefault
  3
AutoCAD 2000
 90
    32768
280
     0
281
     0
  0
CLASS
  1
ACDBPLACEHOLDER
  2
AcDbPlaceHolder
  3
AutoCAD 2000
 90
    32768
280
     0
281
     0
  0
CLASS
  1
LAYOUT
  2
AcDbLayout
  3
AutoCAD 2000
 90
    32768
280
     0
281
     0
  0
CLASS
  1
LONG_TRANSACTION
  2
AcDbLongTransaction
  3
AutoCAD 2000
 90
    32768
280
     0
281
     0
  0
CLASS
  1
LWPOLYLINE
  2
AcDbPolyline
  3
AutoCAD 2000
 90
    32768
280
     0
281
     1
  0
CLASS
  1
HATCH
  2
AcDbHatch
  3
AutoCAD 2000
 90
    32768
280
     0
281
     1
  0
CLASS
  1
XRECORD
  2
AcDbXrecord
  3
AutoCAD 2000
 90
    32768
280
     0
281
     0
  0
ENDSEC
  0
SECTION
  2
TABLES
  0
TABLE
  2
VPORT
  5
7
330
0
100
AcDbSymbolTable
 70
     2
  0
VPORT
  5
201
330
7
100
AcDbSymbolTableRecord
100
AcDbViewportTableRecord
  2
*ACTIVE
 70
     0
 10
0.0
 20
0.0
 11
1.0
 21
1.0
 12
9.76827543787499
 22
-13.62500055176993
 13
0.0
 23
0.0
 14
6.349999999999999
 24
6.349999999999999
 15
6.349999999999999
 25
6.349999999999999
 16
0.0
 26
0.0
 36
1.0
 17
0.0
 27
0.0
 37
0.0
 40
171.7431439389982
 41
1.691964285714285
 42
50.0
 43
0.0
 44
0.0
 50
0.0
 51
0.0
 71
     0
 72
   100
 73
     1
 74
     1
 75
     0
 76
     0
 77
     0
 78
     0
  0
ENDTAB
  0
TABLE
  2
LTYPE
  5
4
330
0
100
AcDbSymbolTable
 70
    37
  0
LTYPE
  5
12
330
4
100
AcDbSymbolTableRecord
100
AcDbLinetypeTableRecord
  2
BYBLOCK
 70
     0
  3

 72
    65
 73
     0
 40
0.0
  0
LTYPE
  5
13
330
4
100
AcDbSymbolTableRecord
100
AcDbLinetypeTableRecord
  2
BYLAYER
 70
     0
  3

 72
    65
 73
     0
 40
0.0
  0
LTYPE
  5
14
330
4
100
AcDbSymbolTableRecord
100
AcDbLinetypeTableRecord
  2
CONTINUOUS
 70
     0
  3
DXF Default line type
 72
    65
 73
     0
 40
0.0
  0
LTYPE
  5
20
330
4
100
AcDbSymbolTableRecord
100
AcDbLinetypeTableRecord
  2
DASHED
 70
     0
  3
DXF Dashed
 72
    65
 73
     2
 40
0.75
 49
0.5
 74
     0
 49
-0.25
 74
     0
  0
LTYPE
  5
21
330
4
100
AcDbSymbolTableRecord
100
AcDbLinetypeTableRecord
  2
HIDDEN
 70
     0
  3
DXF Hidden
 72
    65
 73
     2
 40
0.375
 49
0.25
 74
     0
 49
-0.125
 74
     0
  0
LTYPE
  5
22
330
4
100
AcDbSymbolTableRecord
100
AcDbLinetypeTableRecord
  2
CENTER
 70
     0
  3
DXF Center
 72
    65
 73
     4
 40
2.0
 49
1.25
 74
     0
 49
-0.25
 74
     0
 49
0.25
 74
     0
 49
-0.25
 74
     0
  0
LTYPE
  5
23
330
4
100
AcDbSymbolTableRecord
100
AcDbLinetypeTableRecord
  2
PHANTOM
 70
     0
  3
DXF Phantom
 72
    65
 73
     6
 40
2.5
 49
1.25
 74
     0
 49
-0.25
 74
     0
 49
0.25
 74
     0
 49
-0.25
 74
     0
 49
0.25
 74
     0
 49
-0.25
 74
     0
  0
LTYPE
  5
24
330
4
100
AcDbSymbolTableRecord
100
AcDbLinetypeTableRecord
  2
DOT
 70
     0
  3
DXF DOT
 72
    65
 73
     2
 40
0.25
 49
0.0
 74
     0
 49
-0.25
 74
     0
  0
LTYPE
  5
25
330
4
100
AcDbSymbolTableRecord
100
AcDbLinetypeTableRecord
  2
DASHDOT
 70
     0
  3
DXF Dash Dot
 72
    65
 73
     4
 40
1.0
 49
0.5
 74
     0
 49
-0.25
 74
     0
 49
0.0
 74
     0
 49
-0.25
 74
     0
  0
LTYPE
  5
26
330
4
100
AcDbSymbolTableRecord
100
AcDbLinetypeTableRecord
  2
BORDER
 70
     0
  3
DXF Border
 72
    65
 73
     6
 40
1.75
 49
0.5
 74
     0
 49
-0.25
 74
     0
 49
0.5
 74
     0
 49
-0.25
 74
     0
 49
0.0
 74
     0
 49
-0.25
 74
     0
  0
LTYPE
  5
27
330
4
100
AcDbSymbolTableRecord
100
AcDbLinetypeTableRecord
  2
DIVIDE
 70
     0
  3
DXF Divide
 72
    65
 73
     6
 40
1.25
 49
0.5
 74
     0
 49
-0.25
 74
     0
 49
0.0
 74
     0
 49
-0.25
 74
     0
 49
0.0
 74
     0
 49
-0.25
 74
     0
  0
LTYPE
  5
28
330
4
100
AcDbSymbolTableRecord
100
AcDbLinetypeTableRecord
  2
C_SOLID_L
 70
     0
  3
CADAM Solid Light
 72
    65
 73
     0
 40
0.0
  0
LTYPE
  5
29
330
4
100
AcDbSymbolTableRecord
100
AcDbLinetypeTableRecord
  2
C_SOLID_M
 70
     0
  3
CADAM Solid Medium
 72
    65
 73
     0
 40
0.0
  0
LTYPE
  5
2A
330
4
100
AcDbSymbolTableRecord
100
AcDbLinetypeTableRecord
  2
C_SOLID_H
 70
     0
  3
CADAM Solid Heavy
 72
    65
 73
     0
 40
0.0
  0
LTYPE
  5
2B
330
4
100
AcDbSymbolTableRecord
100
AcDbLinetypeTableRecord
  2
C_DASHED_L
 70
     0
  3
CADAM Dashed Light
 72
    65
 73
     2
 40
0.375
 49
0.25
 74
     0
 49
-0.125
 74
     0
  0
LTYPE
  5
2C
330
4
100
AcDbSymbolTableRecord
100
AcDbLinetypeTableRecord
  2
C_DASHED_M
 70
     0
  3
CADAM Dashed Medium
 72
    65
 73
     2
 40
0.5
 49
0.375
 74
     0
 49
-0.125
 74
     0
  0
LTYPE
  5
2D
330
4
100
AcDbSymbolTableRecord
100
AcDbLinetypeTableRecord
  2
C_CENTER_L
 70
     0
  3
CADAM Center Light
 72
    65
 73
     4
 40
2.0
 49
1.25
 74
     0
 49
-0.25
 74
     0
 49
0.25
 74
     0
 49
-0.25
 74
     0
  0
LTYPE
  5
2E
330
4
100
AcDbSymbolTableRecord
100
AcDbLinetypeTableRecord
  2
C_PHANTOM_L
 70
     0
  3
CADAM Phantom Light
 72
    65
 73
     6
 40
2.5
 49
1.25
 74
     0
 49
-0.25
 74
     0
 49
0.25
 74
     0
 49
-0.25
 74
     0
 49
0.25
 74
     0
 49
-0.25
 74
     0
  0
LTYPE
  5
2F
330
4
100
AcDbSymbolTableRecord
100
AcDbLinetypeTableRecord
  2
C_BREAK_M
 70
     0
  3
CADAM Break Medium
 72
    65
 73
     4
 40
1.0
 49
0.5
 74
     0
 49
-0.25
 74
     0
 49
0.0
 74
     0
 49
-0.25
 74
     0
  0
LTYPE
  5
30
330
4
100
AcDbSymbolTableRecord
100
AcDbLinetypeTableRecord
  2
C_NC
 70
     0
  3
CADAM NC
 72
    65
 73
     0
 40
0.0
  0
LTYPE
  5
31
330
4
100
AcDbSymbolTableRecord
100
AcDbLinetypeTableRecord
  2
DSH1
 70
     0
  3
CADAM Style2 Type 1 Dashed Line
 72
    65
 73
     2
 40
0.075
 49
0.04
 74
     0
 49
-0.035
 74
     0
  0
LTYPE
  5
32
330
4
100
AcDbSymbolTableRecord
100
AcDbLinetypeTableRecord
  2
DSH2
 70
     0
  3
CADAM Style2 Type 2 Dashed Line
 72
    65
 73
     2
 40
0.15
 49
0.11
 74
     0
 49
-0.04
 74
     0
  0
LTYPE
  5
33
330
4
100
AcDbSymbolTableRecord
100
AcDbLinetypeTableRecord
  2
DSH3
 70
     0
  3
CADAM Style2 Type 3 Dashed Line
 72
    65
 73
     2
 40
0.2
 49
0.15
 74
     0
 49
-0.05
 74
     0
  0
LTYPE
  5
34
330
4
100
AcDbSymbolTableRecord
100
AcDbLinetypeTableRecord
  2
DSH4
 70
     0
  3
CADAM Style2 Type 4 Dashed Line
 72
    65
 73
     2
 40
0.36
 49
0.28
 74
     0
 49
-0.08
 74
     0
  0
LTYPE
  5
35
330
4
100
AcDbSymbolTableRecord
100
AcDbLinetypeTableRecord
  2
DSH5
 70
     0
  3
CADAM Style2 Type 5 Dashed Line
 72
    65
 73
     2
 40
0.47
 49
0.39
 74
     0
 49
-0.08
 74
     0
  0
LTYPE
  5
36
330
4
100
AcDbSymbolTableRecord
100
AcDbLinetypeTableRecord
  2
DSH6
 70
     0
  3
CADAM Style2 Type 6 Dashed Line
 72
    65
 73
     2
 40
0.9
 49
0.8100000000000001
 74
     0
 49
-0.09
 74
     0
  0
LTYPE
  5
37
330
4
100
AcDbSymbolTableRecord
100
AcDbLinetypeTableRecord
  2
PL1
 70
     0
  3
Style 2 Type 1 Phantom Line
 72
    65
 73
     6
 40
1.0
 49
0.6
 74
     0
 49
-0.08
 74
     0
 49
0.08
 74
     0
 49
-0.08
 74
     0
 49
0.08
 74
     0
 49
-0.08
 74
     0
  0
LTYPE
  5
38
330
4
100
AcDbSymbolTableRecord
100
AcDbLinetypeTableRecord
  2
PL2
 70
     0
  3
Style 2 Type 2 Phantom Line
 72
    65
 73
     6
 40
1.08
 49
0.6
 74
     0
 49
-0.08
 74
     0
 49
0.12
 74
     0
 49
-0.08
 74
     0
 49
0.12
 74
     0
 49
-0.08
 74
     0
  0
LTYPE
  5
39
330
4
100
AcDbSymbolTableRecord
100
AcDbLinetypeTableRecord
  2
PL3
 70
     0
  3
Style 2 Type 3 Phantom Line
 72
    65
 73
     6
 40
2.0
 49
1.439999999999999
 74
     0
 49
-0.08
 74
     0
 49
0.16
 74
     0
 49
-0.08
 74
     0
 49
0.16
 74
     0
 49
-0.08
 74
     0
  0
LTYPE
  5
3A
330
4
100
AcDbSymbolTableRecord
100
AcDbLinetypeTableRecord
  2
CL1
 70
     0
  3
CADAM Style 2 Type 1 Center Line
 72
    65
 73
     4
 40
0.7
 49
0.45
 74
     0
 49
-0.06
 74
     0
 49
0.13
 74
     0
 49
-0.06
 74
     0
  0
LTYPE
  5
3B
330
4
100
AcDbSymbolTableRecord
100
AcDbLinetypeTableRecord
  2
CL2
 70
     0
  3
CADAM Style 2 Type 2 Center Line
 72
    65
 73
     4
 40
1.199999999999999
 49
1.01
 74
     0
 49
-0.06
 74
     0
 49
0.11
 74
     0
 49
-0.06
 74
     0
  0
LTYPE
  5
3C
330
4
100
AcDbSymbolTableRecord
100
AcDbLinetypeTableRecord
  2
CL3
 70
     0
  3
CADAM Style 2 Type 3 Center Line
 72
    65
 73
     4
 40
1.199999999999999
 49
0.98
 74
     0
 49
-0.06
 74
     0
 49
0.1
 74
     0
 49
-0.06
 74
     0
  0
LTYPE
  5
3D
330
4
100
AcDbSymbolTableRecord
100
AcDbLinetypeTableRecord
  2
CL4
 70
     0
  3
CADAM Style 2 Type 4 Center Line
 72
    65
 73
     4
 40
2.2
 49
1.929999999999999
 74
     0
 49
-0.07
 74
     0
 49
0.13
 74
     0
 49
-0.07
 74
     0
  0
LTYPE
  5
3E
330
4
100
AcDbSymbolTableRecord
100
AcDbLinetypeTableRecord
  2
CL5
 70
     0
  3
CADAM Style 2 Type 5 Center Line
 72
    65
 73
     4
 40
2.2
 49
1.879999999999999
 74
     0
 49
-0.07
 74
     0
 49
0.18
 74
     0
 49
-0.07
 74
     0
  0
LTYPE
  5
3F
330
4
100
AcDbSymbolTableRecord
100
AcDbLinetypeTableRecord
  2
SBK1
 70
     0
  3
CADAM Style 2 Type 1 SetBack Line
 72
    65
 73
     8
 40
2.7
 49
0.1
 74
     0
 49
-0.08
 74
     0
 49
0.1
 74
     0
 49
-0.8
 74
     0
 49
0.0
 74
     0
 49
0.0
 74
     0
 49
0.0
 74
     0
 49
0.0
 74
     0
  0
LTYPE
  5
40
330
4
100
AcDbSymbolTableRecord
100
AcDbLinetypeTableRecord
  2
SBK2
 70
     0
  3
CADAM Style 2 Type 2 SetBack Line
 72
    65
 73
     8
 40
3.709999999999999
 49
0.13
 74
     0
 49
-0.08
 74
     0
 49
0.13
 74
     0
 49
-0.8
 74
     0
 49
0.0
 74
     0
 49
0.0
 74
     0
 49
0.0
 74
     0
 49
0.0
 74
     0
  0
LTYPE
  5
41
330
4
100
AcDbSymbolTableRecord
100
AcDbLinetypeTableRecord
  2
STCH
 70
     0
  3
CADAM Style2 Stitch Line
 72
    65
 73
     2
 40
0.25
 49
0.0
 74
     0
 49
-0.25
 74
     0
  0
LTYPE
  5
42
330
4
100
AcDbSymbolTableRecord
100
AcDbLinetypeTableRecord
  2
MTCH
 70
     0
  3
CADAM Style2 Match Line
 72
    65
 73
     6
 40
2.0
 49
1.439999999999999
 74
     0
 49
-0.8
 74
     0
 49
0.16
 74
     0
 49
-0.08
 74
     0
 49
0.16
 74
     0
 49
-0.08
 74
     0
  0
LTYPE
  5
43
330
4
100
AcDbSymbolTableRecord
100
AcDbLinetypeTableRecord
  2
SLD
 70
     0
  3
CADAM Solid_EXT2
 72
    65
 73
     0
 40
0.0
  0
ENDTAB
  0
TABLE
  2
LAYER
  5
2
330
0
100
AcDbSymbolTable
 70
     7
  0
LAYER
  5
15
330
2
100
AcDbSymbolTableRecord
100
AcDbLayerTableRecord
  2
0
 70
     0
 62
     7
  6
CONTINUOUS
  0
LAYER
  5
44
330
2
100
AcDbSymbolTableRecord
100
AcDbLayerTableRecord
  2
MO_001_NOSHOW
 70
     1
 62
     7
  6
CONTINUOUS
  0
LAYER
  5
45
330
2
100
AcDbSymbolTableRecord
100
AcDbLayerTableRecord
  2
MO_001_VIEW_PV
 70
     0
 62
     7
  6
CONTINUOUS
  0
LAYER
  5
46
330
2
100
AcDbSymbolTableRecord
100
AcDbLayerTableRecord
  2
OVERLAY_MAP
 70
     1
 62
     7
  6
CONTINUOUS
  0
LAYER
  5
47
330
2
100
AcDbSymbolTableRecord
100
AcDbLayerTableRecord
  2
DITTOS
 70
     0
 62
     7
  6
CONTINUOUS
  0
LAYER
  5
48
330
2
100
AcDbSymbolTableRecord
100
AcDbLayerTableRecord
  2
SYMBOLS
 70
     0
 62
     7
  6
CONTINUOUS
  0
LAYER
  5
49
330
2
100
AcDbSymbolTableRecord
100
AcDbLayerTableRecord
  2
SETS
 70
     0
 62
     7
  6
CONTINUOUS
  0
ENDTAB
  0
TABLE
  2
STYLE
  5
3
330
0
100
AcDbSymbolTable
 70
     1
  0
STYLE
  5
18
330
3
100
AcDbSymbolTableRecord
100
AcDbTextStyleTableRecord
  2
STANDARD
 70
     0
 40
4.1672
 41
1.0
 50
0.0
 71
     0
 42
4.1672
  3
monotxt
  4
BIGFONT
  0
ENDTAB
  0
TABLE
  2
VIEW
  5
5
330
0
100
AcDbSymbolTable
 70
     0
  0
ENDTAB
  0
TABLE
  2
UCS
  5
6
330
0
100
AcDbSymbolTable
 70
     1
  0
UCS
  5
4A
330
6
100
AcDbSymbolTableRecord
100
AcDbUCSTableRecord
  2
MO_001_VIEW_PV_P
 70
     0
 10
0.0
 20
0.0
 30
0.0
 11
1.0
 21
0.0
 31
0.0
 12
-0.0000000002051034
 22
1.0
 32
0.0
  0
ENDTAB
  0
TABLE
  2
APPID
  5
8
330
0
100
AcDbSymbolTable
 70
     1
  0
APPID
  5
17
330
8
100
AcDbSymbolTableRecord
100
AcDbRegAppTableRecord
  2
ACAD
 70
     0
  0
ENDTAB
  0
TABLE
  2
DIMSTYLE
  5
9
330
0
100
AcDbSymbolTable
 70
     1
  0
DIMSTYLE
105
19
102
{ACAD_REACTORS
330
139
330
13B
330
13D
330
13F
330
141
330
143
330
145
330
147
330
15B
330
15D
330
15F
330
161
102
}
330
9
100
AcDbSymbolTableRecord
100
AcDbDimStyleTableRecord
  2
STANDARD
 70
     0
  3

  4

  5

  6

  7

 40
1.0
 41
0.18
 42
0.0625
 43
0.38
 44
0.18
 45
0.0
 46
0.0
 47
0.0
 48
0.0
140
0.18
141
0.09
142
0.0
143
25.4
144
1.0
145
0.0
146
1.0
147
0.09
 71
     0
 72
     0
 73
     1
 74
     1
 75
     0
 76
     0
 77
     0
 78
     0
170
     0
171
     2
172
     0
173
     0
174
     0
175
     0
176
     0
177
     0
178
     0
270
     2
271
     4
272
     4
273
     2
274
     2
340
18
275
     0
280
     0
281
     0
282
     0
283
     1
284
     0
285
     0
286
     0
287
     3
288
     0
  0
ENDTAB
  0
TABLE
  2
BLOCK_RECORD
  5
C
330
0
100
AcDbSymbolTable
 70
    12
  0
BLOCK_RECORD
  5
1E
102
{ACAD_XDICTIONARY
360
202
102
}
330
C
100
AcDbSymbolTableRecord
100
AcDbBlockTableRecord
  2
*MODEL_SPACE
  0
BLOCK_RECORD
  5
1F
102
{ACAD_XDICTIONARY
360
204
102
}
330
C
100
AcDbSymbolTableRecord
100
AcDbBlockTableRecord
  2
*PAPER_SPACE
  0
BLOCK_RECORD
  5
138
330
C
100
AcDbSymbolTableRecord
100
AcDbBlockTableRecord
  2
*D0
  0
BLOCK_RECORD
  5
13A
330
C
100
AcDbSymbolTableRecord
100
AcDbBlockTableRecord
  2
*D1
  0
BLOCK_RECORD
  5
13C
330
C
100
AcDbSymbolTableRecord
100
AcDbBlockTableRecord
  2
*D2
  0
BLOCK_RECORD
  5
13E
330
C
100
AcDbSymbolTableRecord
100
AcDbBlockTableRecord
  2
*D3
  0
BLOCK_RECORD
  5
140
330
C
100
AcDbSymbolTableRecord
100
AcDbBlockTableRecord
  2
*D4
  0
BLOCK_RECORD
  5
142
330
C
100
AcDbSymbolTableRecord
100
AcDbBlockTableRecord
  2
*D5
  0
BLOCK_RECORD
  5
144
330
C
100
AcDbSymbolTableRecord
100
AcDbBlockTableRecord
  2
*D6
  0
BLOCK_RECORD
  5
146
330
C
100
AcDbSymbolTableRecord
100
AcDbBlockTableRecord
  2
*D7
  0
BLOCK_RECORD
  5
15A
330
C
100
AcDbSymbolTableRecord
100
AcDbBlockTableRecord
  2
*D8
  0
BLOCK_RECORD
  5
15C
330
C
100
AcDbSymbolTableRecord
100
AcDbBlockTableRecord
  2
*D9
  0
BLOCK_RECORD
  5
15E
330
C
100
AcDbSymbolTableRecord
100
AcDbBlockTableRecord
  2
*D10
  0
BLOCK_RECORD
  5
160
330
C
100
AcDbSymbolTableRecord
100
AcDbBlockTableRecord
  2
*D11
  0
ENDTAB
  0
ENDSEC
  0
SECTION
  2
BLOCKS
  0
BLOCK
  5
E
330
1E
100
AcDbEntity
  8
0
100
AcDbBlockBegin
  2
*MODEL_SPACE
 70
     0
 10
0.0
 20
0.0
 30
0.0
  3
*MODEL_SPACE
  1

  0
ENDBLK
  5
F
330
1E
100
AcDbEntity
  8
0
100
AcDbBlockEnd
  0
BLOCK
  5
10
330
1F
100
AcDbEntity
 67
     1
  8
0
100
AcDbBlockBegin
  2
*PAPER_SPACE
 70
     0
 10
0.0
 20
0.0
 30
0.0
  3
*PAPER_SPACE
  1

  0
ENDBLK
  5
11
330
1F
100
AcDbEntity
 67
     1
  8
0
100
AcDbBlockEnd
  0
BLOCK
  5
16E
330
138
100
AcDbEntity
  8
0
100
AcDbBlockBegin
  2
*D0
 70
     1
 10
0.0
 20
0.0
 30
0.0
  3
*D0
  1

  0
TEXT
  5
16F
330
138
100
AcDbEntity
  8
MO_001_VIEW_PV
  6
BYBLOCK
100
AcDbText
 10
16.514286
 20
26.625
 30
0.0
 40
1.5
  1
%%P0.5
100
AcDbText
  0
TEXT
  5
170
330
138
100
AcDbEntity
  8
MO_001_VIEW_PV
  6
BYBLOCK
100
AcDbText
 10
4.728571999999999
 20
24.75
 30
0.0
 40
3.0
  1
26.6
100
AcDbText
  0
LINE
  5
171
330
138
100
AcDbEntity
  8
MO_001_VIEW_PV
  6
BYBLOCK
100
AcDbLine
 10
0.0
 20
24.0
 30
0.0
 11
26.6
 21
24.0
 31
0.0
  0
SOLID
  5
172
330
138
100
AcDbEntity
  8
MO_001_VIEW_PV
  6
BYBLOCK
100
AcDbTrace
 10
3.318259999999999
 20
24.583512
 30
0.0
 11
0.508
 21
24.0
 31
0.0
 12
3.318259999999999
 22
23.416488
 32
0.0
 13
3.318259999999999
 23
23.416488
 33
0.0
  0
SOLID
  5
173
330
138
100
AcDbEntity
  8
MO_001_VIEW_PV
  6
BYBLOCK
100
AcDbTrace
 10
23.28174
 20
23.416488
 30
0.0
 11
26.09199999999999
 21
24.0
 31
0.0
 12
23.28174
 22
24.583512
 32
0.0
 13
23.28174
 23
24.583512
 33
0.0
  0
LINE
  5
174
330
138
100
AcDbEntity
  8
MO_001_VIEW_PV
  6
BYBLOCK
100
AcDbLine
 10
0.0
 20
6.5
 30
0.0
 11
0.0
 21
26.285999
 31
0.0
  0
LINE
  5
175
330
138
100
AcDbEntity
  8
MO_001_VIEW_PV
  6
BYBLOCK
100
AcDbLine
 10
26.6
 20
6.5
 30
0.0
 11
26.6
 21
26.285999
 31
0.0
  0
ENDBLK
  5
176
330
138
100
AcDbEntity
  8
0
100
AcDbBlockEnd
  0
BLOCK
  5
177
330
13A
100
AcDbEntity
  8
0
100
AcDbBlockBegin
  2
*D1
 70
     1
 10
0.0
 20
0.0
 30
0.0
  3
*D1
  1

  0
TEXT
  5
178
330
13A
100
AcDbEntity
  8
MO_001_VIEW_PV
  6
BYBLOCK
100
AcDbText
 10
-5.535713999999999
 20
26.625
 30
0.0
 40
1.5
  1
%%P0.6
100
AcDbText
  0
TEXT
  5
179
330
13A
100
AcDbEntity
  8
MO_001_VIEW_PV
  6
BYBLOCK
100
AcDbText
 10
-17.321429
 20
24.75
 30
0.0
 40
3.0
  1
17.5
100
AcDbText
  0
LINE
  5
17A
330
13A
100
AcDbEntity
  8
MO_001_VIEW_PV
  6
BYBLOCK
100
AcDbLine
 10
-17.5
 20
24.0
 30
0.0
 11
0.0
 21
24.0
 31
0.0
  0
LINE
  5
17B
330
13A
100
AcDbEntity
  8
MO_001_VIEW_PV
  6
BYBLOCK
100
AcDbLine
 10
-17.5
 20
24.0
 30
0.0
 11
-23.85
 21
24.0
 31
0.0
  0
LINE
  5
17C
330
13A
100
AcDbEntity
  8
MO_001_VIEW_PV
  6
BYBLOCK
100
AcDbLine
 10
0.0
 20
24.0
 30
0.0
 11
6.349999999999999
 21
24.0
 31
0.0
  0
SOLID
  5
17D
330
13A
100
AcDbEntity
  8
MO_001_VIEW_PV
  6
BYBLOCK
100
AcDbTrace
 10
-20.81826
 20
23.416488
 30
0.0
 11
-18.00799999999999
 21
24.0
 31
0.0
 12
-20.81826
 22
24.583512
 32
0.0
 13
-20.81826
 23
24.583512
 33
0.0
  0
SOLID
  5
17E
330
13A
100
AcDbEntity
  8
MO_001_VIEW_PV
  6
BYBLOCK
100
AcDbTrace
 10
3.318259999999999
 20
24.583512
 30
0.0
 11
0.508
 21
24.0
 31
0.0
 12
3.318259999999999
 22
23.416488
 32
0.0
 13
3.318259999999999
 23
23.416488
 33
0.0
  0
LINE
  5
17F
330
13A
100
AcDbEntity
  8
MO_001_VIEW_PV
  6
BYBLOCK
100
AcDbLine
 10
-17.5
 20
2.5
 30
0.0
 11
-17.5
 21
26.285999
 31
0.0
  0
LINE
  5
180
330
13A
100
AcDbEntity
  8
MO_001_VIEW_PV
  6
BYBLOCK
100
AcDbLine
 10
0.0
 20
6.5
 30
0.0
 11
0.0
 21
26.285999
 31
0.0
  0
LINE
  5
181
330
13A
100
AcDbEntity
  8
MO_001_VIEW_PV
  6
BYBLOCK
100
AcDbLine
 10
-18.28571499999999
 20
24.0
 30
0.0
 11
-17.5
 21
24.0
 31
0.0
  0
LINE
  5
182
330
13A
100
AcDbEntity
  8
MO_001_VIEW_PV
  6
BYBLOCK
100
AcDbLine
 10
0.0
 20
24.0
 30
0.0
 11
0.7857140000000001
 21
24.0
 31
0.0
  0
ENDBLK
  5
183
330
13A
100
AcDbEntity
  8
0
100
AcDbBlockEnd
  0
BLOCK
  5
184
330
13C
100
AcDbEntity
  8
0
100
AcDbBlockBegin
  2
*D2
 70
     1
 10
0.0
 20
0.0
 30
0.0
  3
*D2
  1

  0
TEXT
  5
185
330
13C
100
AcDbEntity
  8
MO_001_VIEW_PV
  6
BYBLOCK
100
AcDbText
 10
12.571715
 20
20.625
 30
0.0
 40
1.5
  1
%%P0.5
100
AcDbText
  0
TEXT
  5
186
330
13C
100
AcDbEntity
  8
MO_001_VIEW_PV
  6
BYBLOCK
100
AcDbText
 10
0.7860010000000001
 20
18.75
 30
0.0
 40
3.0
  1
14.3
100
AcDbText
  0
LINE
  5
187
330
13C
100
AcDbEntity
  8
MO_001_VIEW_PV
  6
BYBLOCK
100
AcDbLine
 10
-14.3
 20
18.0
 30
0.0
 11
0.0
 21
18.0
 31
0.0
  0
SOLID
  5
188
330
13C
100
AcDbEntity
  8
MO_001_VIEW_PV
  6
BYBLOCK
100
AcDbTrace
 10
-10.98173999999999
 20
18.58351199999999
 30
0.0
 11
-13.79199999999999
 21
18.0
 31
0.0
 12
-10.98173999999999
 22
17.416488
 32
0.0
 13
-10.98173999999999
 23
17.416488
 33
0.0
  0
SOLID
  5
189
330
13C
100
AcDbEntity
  8
MO_001_VIEW_PV
  6
BYBLOCK
100
AcDbTrace
 10
-3.318259999999999
 20
17.416488
 30
0.0
 11
-0.508
 21
18.0
 31
0.0
 12
-3.318259999999999
 22
18.58351199999999
 32
0.0
 13
-3.318259999999999
 23
18.58351199999999
 33
0.0
  0
LINE
  5
18A
330
13C
100
AcDbEntity
  8
MO_001_VIEW_PV
  6
BYBLOCK
100
AcDbLine
 10
-14.3
 20
4.208938999999999
 30
0.0
 11
-14.3
 21
20.285999
 31
0.0
  0
LINE
  5
18B
330
13C
100
AcDbEntity
  8
MO_001_VIEW_PV
  6
BYBLOCK
100
AcDbLine
 10
0.0
 20
6.5
 30
0.0
 11
0.0
 21
20.285999
 31
0.0
  0
LINE
  5
18C
330
13C
100
AcDbEntity
  8
MO_001_VIEW_PV
  6
BYBLOCK
100
AcDbLine
 10
0.0
 20
18.0
 30
0.0
 11
18.893145
 21
18.0
 31
0.0
  0
ENDBLK
  5
18D
330
13C
100
AcDbEntity
  8
0
100
AcDbBlockEnd
  0
BLOCK
  5
18E
330
13E
100
AcDbEntity
  8
0
100
AcDbBlockBegin
  2
*D3
 70
     1
 10
0.0
 20
0.0
 30
0.0
  3
*D3
  1

  0
TEXT
  5
18F
330
13E
100
AcDbEntity
  8
MO_001_VIEW_PV
  6
BYBLOCK
100
AcDbText
 10
13.273459
 20
14.625
 30
0.0
 40
1.5
  1
%%P0.2
100
AcDbText
  0
TEXT
  5
190
330
13E
100
AcDbEntity
  8
MO_001_VIEW_PV
  6
BYBLOCK
100
AcDbText
 10
4.487744999999999
 20
12.75
 30
0.0
 40
3.0
  1
6.4
100
AcDbText
  0
LINE
  5
191
330
13E
100
AcDbEntity
  8
MO_001_VIEW_PV
  6
BYBLOCK
100
AcDbLine
 10
0.0
 20
12.0
 30
0.0
 11
-6.4
 21
12.0
 31
0.0
  0
LINE
  5
192
330
13E
100
AcDbEntity
  8
MO_001_VIEW_PV
  6
BYBLOCK
100
AcDbLine
 10
0.0
 20
12.0
 30
0.0
 11
6.349999999999999
 21
12.0
 31
0.0
  0
LINE
  5
193
330
13E
100
AcDbEntity
  8
MO_001_VIEW_PV
  6
BYBLOCK
100
AcDbLine
 10
-6.4
 20
12.0
 30
0.0
 11
-12.75
 21
12.0
 31
0.0
  0
SOLID
  5
194
330
13E
100
AcDbEntity
  8
MO_001_VIEW_PV
  6
BYBLOCK
100
AcDbTrace
 10
3.318259999999999
 20
12.58351199999999
 30
0.0
 11
0.508
 21
12.0
 31
0.0
 12
3.318259999999999
 22
11.416488
 32
0.0
 13
3.318259999999999
 23
11.416488
 33
0.0
  0
SOLID
  5
195
330
13E
100
AcDbEntity
  8
MO_001_VIEW_PV
  6
BYBLOCK
100
AcDbTrace
 10
-9.71826
 20
11.416488
 30
0.0
 11
-6.907999999999999
 21
12.0
 31
0.0
 12
-9.71826
 22
12.58351199999999
 32
0.0
 13
-9.71826
 23
12.58351199999999
 33
0.0
  0
LINE
  5
196
330
13E
100
AcDbEntity
  8
MO_001_VIEW_PV
  6
BYBLOCK
100
AcDbLine
 10
0.0
 20
6.5
 30
0.0
 11
0.0
 21
14.286
 31
0.0
  0
LINE
  5
197
330
13E
100
AcDbEntity
  8
MO_001_VIEW_PV
  6
BYBLOCK
100
AcDbLine
 10
-6.4
 20
3.75
 30
0.0
 11
-6.4
 21
14.286
 31
0.0
  0
LINE
  5
198
330
13E
100
AcDbEntity
  8
MO_001_VIEW_PV
  6
BYBLOCK
100
AcDbLine
 10
19.594889
 20
12.0
 30
0.0
 11
0.0
 21
12.0
 31
0.0
  0
ENDBLK
  5
199
330
13E
100
AcDbEntity
  8
0
100
AcDbBlockEnd
  0
BLOCK
  5
19A
330
140
100
AcDbEntity
  8
0
100
AcDbBlockBegin
  2
*D4
 70
     1
 10
0.0
 20
0.0
 30
0.0
  3
*D4
  1

  0
TEXT
  5
19B
330
140
100
AcDbEntity
  8
MO_001_VIEW_PV
  6
BYBLOCK
100
AcDbText
 10
-43.295243
 20
26.625
 30
0.0
 40
1.5
  1
%%P0.3
100
AcDbText
  0
TEXT
  5
19C
330
140
100
AcDbEntity
  8
MO_001_VIEW_PV
  6
BYBLOCK
100
AcDbText
 10
-52.080958
 20
24.75
 30
0.0
 40
3.0
  1
%%C13
100
AcDbText
  0
LINE
  5
19D
330
140
100
AcDbEntity
  8
MO_001_VIEW_PV
  6
BYBLOCK
100
AcDbLine
 10
-66.5
 20
24.0
 30
0.0
 11
-53.5
 21
24.0
 31
0.0
  0
SOLID
  5
19E
330
140
100
AcDbEntity
  8
MO_001_VIEW_PV
  6
BYBLOCK
100
AcDbTrace
 10
-63.18174
 20
24.583512
 30
0.0
 11
-65.992
 21
24.0
 31
0.0
 12
-63.18174
 22
23.416488
 32
0.0
 13
-63.18174
 23
23.416488
 33
0.0
  0
SOLID
  5
19F
330
140
100
AcDbEntity
  8
MO_001_VIEW_PV
  6
BYBLOCK
100
AcDbTrace
 10
-56.81826
 20
23.416488
 30
0.0
 11
-54.008
 21
24.0
 31
0.0
 12
-56.81826
 22
24.583512
 32
0.0
 13
-56.81826
 23
24.583512
 33
0.0
  0
LINE
  5
1A0
330
140
100
AcDbEntity
  8
MO_001_VIEW_PV
  6
BYBLOCK
100
AcDbLine
 10
-66.5
 20
0.0
 30
0.0
 11
-66.5
 21
26.285999
 31
0.0
  0
LINE
  5
1A1
330
140
100
AcDbEntity
  8
MO_001_VIEW_PV
  6
BYBLOCK
100
AcDbLine
 10
-53.5
 20
0.0
 30
0.0
 11
-53.5
 21
26.285999
 31
0.0
  0
LINE
  5
1A2
330
140
100
AcDbEntity
  8
MO_001_VIEW_PV
  6
BYBLOCK
100
AcDbLine
 10
-53.5
 20
24.0
 30
0.0
 11
-36.97381599999999
 21
24.0
 31
0.0
  0
ENDBLK
  5
1A3
330
140
100
AcDbEntity
  8
0
100
AcDbBlockEnd
  0
BLOCK
  5
1A4
330
142
100
AcDbEntity
  8
0
100
AcDbBlockBegin
  2
*D5
 70
     1
 10
0.0
 20
0.0
 30
0.0
  3
*D5
  1

  0
LINE
  5
1A5
330
142
100
AcDbEntity
  8
MO_001_VIEW_PV
  6
BYBLOCK
100
AcDbLine
 10
-66.0
 20
18.0
 30
0.0
 11
-54.0
 21
18.0
 31
0.0
  0
SOLID
  5
1A6
330
142
100
AcDbEntity
  8
MO_001_VIEW_PV
  6
BYBLOCK
100
AcDbTrace
 10
-62.68174000000001
 20
18.58351199999999
 30
0.0
 11
-65.492
 21
18.0
 31
0.0
 12
-62.68174000000001
 22
17.416488
 32
0.0
 13
-62.68174000000001
 23
17.416488
 33
0.0
  0
SOLID
  5
1A7
330
142
100
AcDbEntity
  8
MO_001_VIEW_PV
  6
BYBLOCK
100
AcDbTrace
 10
-57.31825999999999
 20
17.416488
 30
0.0
 11
-54.508
 21
18.0
 31
0.0
 12
-57.31825999999999
 22
18.58351199999999
 32
0.0
 13
-57.31825999999999
 23
18.58351199999999
 33
0.0
  0
LINE
  5
1A8
330
142
100
AcDbEntity
  8
MO_001_VIEW_PV
  6
BYBLOCK
100
AcDbLine
 10
-66.0
 20
3.464101999999999
 30
0.0
 11
-66.0
 21
20.285999
 31
0.0
  0
LINE
  5
1A9
330
142
100
AcDbEntity
  8
MO_001_VIEW_PV
  6
BYBLOCK
100
AcDbLine
 10
-54.0
 20
3.464101999999999
 30
0.0
 11
-54.0
 21
20.285999
 31
0.0
  0
TEXT
  5
1AA
330
142
100
AcDbEntity
  8
MO_001_VIEW_PV
  6
BYBLOCK
100
AcDbText
 10
-46.839727
 20
20.625
 30
0.0
 40
1.5
  1
%%P0.2
100
AcDbText
  0
TEXT
  5
1AB
330
142
100
AcDbEntity
  8
MO_001_VIEW_PV
  6
BYBLOCK
100
AcDbText
 10
-52.625441
 20
18.75
 30
0.0
 40
3.0
  1
12
100
AcDbText
  0
LINE
  5
1AC
330
142
100
AcDbEntity
  8
MO_001_VIEW_PV
  6
BYBLOCK
100
AcDbLine
 10
-54.0
 20
18.0
 30
0.0
 11
-40.518299
 21
18.0
 31
0.0
  0
ENDBLK
  5
1AD
330
142
100
AcDbEntity
  8
0
100
AcDbBlockEnd
  0
BLOCK
  5
1AE
330
144
100
AcDbEntity
  8
0
100
AcDbBlockBegin
  2
*D6
 70
     1
 10
0.0
 20
0.0
 30
0.0
  3
*D6
  1

  0
LINE
  5
1AF
330
144
100
AcDbEntity
  8
MO_001_VIEW_PV
  6
BYBLOCK
100
AcDbLine
 10
-60.0
 20
12.0
 30
0.0
 11
-56.099998
 21
12.0
 31
0.0
  0
LINE
  5
1B0
330
144
100
AcDbEntity
  8
MO_001_VIEW_PV
  6
BYBLOCK
100
AcDbLine
 10
-60.0
 20
12.0
 30
0.0
 11
-66.34999999999999
 21
12.0
 31
0.0
  0
LINE
  5
1B1
330
144
100
AcDbEntity
  8
MO_001_VIEW_PV
  6
BYBLOCK
100
AcDbLine
 10
-56.099998
 20
12.0
 30
0.0
 11
-49.749999
 21
12.0
 31
0.0
  0
SOLID
  5
1B2
330
144
100
AcDbEntity
  8
MO_001_VIEW_PV
  6
BYBLOCK
100
AcDbTrace
 10
-63.31825999999999
 20
11.416488
 30
0.0
 11
-60.508
 21
12.0
 31
0.0
 12
-63.31825999999999
 22
12.58351199999999
 32
0.0
 13
-63.31825999999999
 23
12.58351199999999
 33
0.0
  0
SOLID
  5
1B3
330
144
100
AcDbEntity
  8
MO_001_VIEW_PV
  6
BYBLOCK
100
AcDbTrace
 10
-52.781738
 20
12.58351199999999
 30
0.0
 11
-55.591998
 21
12.0
 31
0.0
 12
-52.781738
 22
11.416488
 32
0.0
 13
-52.781738
 23
11.416488
 33
0.0
  0
LINE
  5
1B4
330
144
100
AcDbEntity
  8
MO_001_VIEW_PV
  6
BYBLOCK
100
AcDbLine
 10
-60.0
 20
10.0
 30
0.0
 11
-60.0
 21
14.286
 31
0.0
  0
LINE
  5
1B5
330
144
100
AcDbEntity
  8
MO_001_VIEW_PV
  6
BYBLOCK
100
AcDbLine
 10
-56.099998
 20
2.244991999999999
 30
0.0
 11
-56.099998
 21
14.286
 31
0.0
  0
TEXT
  5
1B6
330
144
100
AcDbEntity
  8
MO_001_VIEW_PV
  6
BYBLOCK
100
AcDbText
 10
-42.666173
 20
14.625
 30
0.0
 40
1.5
  1
%%P0.2
100
AcDbText
  0
TEXT
  5
1B7
330
144
100
AcDbEntity
  8
MO_001_VIEW_PV
  6
BYBLOCK
100
AcDbText
 10
-51.451887
 20
12.75
 30
0.0
 40
3.0
  1
3.9
100
AcDbText
  0
LINE
  5
1B8
330
144
100
AcDbEntity
  8
MO_001_VIEW_PV
  6
BYBLOCK
100
AcDbLine
 10
-56.099998
 20
12.0
 30
0.0
 11
-36.344746
 21
12.0
 31
0.0
  0
ENDBLK
  5
1B9
330
144
100
AcDbEntity
  8
0
100
AcDbBlockEnd
  0
BLOCK
  5
1BA
330
146
100
AcDbEntity
  8
0
100
AcDbBlockBegin
  2
*D7
 70
     1
 10
0.0
 20
0.0
 30
0.0
  3
*D7
  1

  0
TEXT
  5
1BB
330
146
100
AcDbEntity
  8
MO_001_VIEW_PV
  6
BYBLOCK
100
AcDbText
 10
3.116416
 20
-21.375
 30
0.0
 40
1.5
  1
%%P0.2
100
AcDbText
  0
TEXT
  5
1BC
330
146
100
AcDbEntity
  8
MO_001_VIEW_PV
  6
BYBLOCK
100
AcDbText
 10
-5.669298999999999
 20
-23.25
 30
0.0
 40
3.0
  1
6.5
100
AcDbText
  0
LINE
  5
1BD
330
146
100
AcDbEntity
  8
MO_001_VIEW_PV
  6
BYBLOCK
100
AcDbLine
 10
-11.00000099999999
 20
-24.0
 30
0.0
 11
-17.5
 21
-24.0
 31
0.0
  0
LINE
  5
1BE
330
146
100
AcDbEntity
  8
MO_001_VIEW_PV
  6
BYBLOCK
100
AcDbLine
 10
-11.00000099999999
 20
-24.0
 30
0.0
 11
-4.650001
 21
-24.0
 31
0.0
  0
LINE
  5
1BF
330
146
100
AcDbEntity
  8
MO_001_VIEW_PV
  6
BYBLOCK
100
AcDbLine
 10
-17.5
 20
-24.0
 30
0.0
 11
-23.85
 21
-24.0
 31
0.0
  0
SOLID
  5
1C0
330
146
100
AcDbEntity
  8
MO_001_VIEW_PV
  6
BYBLOCK
100
AcDbTrace
 10
-7.681741
 20
-23.416488
 30
0.0
 11
-10.49200099999999
 21
-24.0
 31
0.0
 12
-7.681741
 22
-24.583512
 32
0.0
 13
-7.681741
 23
-24.583512
 33
0.0
  0
SOLID
  5
1C1
330
146
100
AcDbEntity
  8
MO_001_VIEW_PV
  6
BYBLOCK
100
AcDbTrace
 10
-20.81826
 20
-24.583512
 30
0.0
 11
-18.00799999999999
 21
-24.0
 31
0.0
 12
-20.81826
 22
-23.416488
 32
0.0
 13
-20.81826
 23
-23.416488
 33
0.0
  0
LINE
  5
1C2
330
146
100
AcDbEntity
  8
MO_001_VIEW_PV
  6
BYBLOCK
100
AcDbLine
 10
-11.00000099999999
 20
-0.9
 30
0.0
 11
-11.00000099999999
 21
-26.285999
 31
0.0
  0
LINE
  5
1C3
330
146
100
AcDbEntity
  8
MO_001_VIEW_PV
  6
BYBLOCK
100
AcDbLine
 10
-17.5
 20
-2.5
 30
0.0
 11
-17.5
 21
-26.285999
 31
0.0
  0
LINE
  5
1C4
330
146
100
AcDbEntity
  8
MO_001_VIEW_PV
  6
BYBLOCK
100
AcDbLine
 10
9.437844
 20
-24.0
 30
0.0
 11
-11.00000099999999
 21
-24.0
 31
0.0
  0
ENDBLK
  5
1C5
330
146
100
AcDbEntity
  8
0
100
AcDbBlockEnd
  0
BLOCK
  5
1C6
330
15A
100
AcDbEntity
  8
0
100
AcDbBlockBegin
  2
*D8
 70
     1
 10
0.0
 20
0.0
 30
0.0
  3
*D8
  1

  0
TEXT
  5
1C7
330
15A
100
AcDbEntity
  8
MO_001_VIEW_PV
  6
BYBLOCK
100
AcDbText
 10
-26.625
 20
13.86910499999999
 30
0.0
 40
1.5
  1
%%P0.1
 50
90.0
100
AcDbText
  0
TEXT
  5
1C8
330
15A
100
AcDbEntity
  8
MO_001_VIEW_PV
  6
BYBLOCK
100
AcDbText
 10
-24.75
 20
5.083391
 30
0.0
 40
3.0
  1
1.8
 50
90.0
100
AcDbText
  0
LINE
  5
1C9
330
15A
100
AcDbEntity
  8
MO_001_VIEW_PV
  6
BYBLOCK
100
AcDbLine
 10
-24.0
 20
0.9
 30
0.0
 11
-24.0
 21
-0.9
 31
0.0
  0
LINE
  5
1CA
330
15A
100
AcDbEntity
  8
MO_001_VIEW_PV
  6
BYBLOCK
100
AcDbLine
 10
-24.0
 20
0.9
 30
0.0
 11
-24.0
 21
7.25
 31
0.0
  0
LINE
  5
1CB
330
15A
100
AcDbEntity
  8
MO_001_VIEW_PV
  6
BYBLOCK
100
AcDbLine
 10
-24.0
 20
-0.9
 30
0.0
 11
-24.0
 21
-7.25
 31
0.0
  0
SOLID
  5
1CC
330
15A
100
AcDbEntity
  8
MO_001_VIEW_PV
  6
BYBLOCK
100
AcDbTrace
 10
-24.583512
 20
4.218259999999999
 30
0.0
 11
-24.0
 21
1.408
 31
0.0
 12
-23.416488
 22
4.218259999999999
 32
0.0
 13
-23.416488
 23
4.218259999999999
 33
0.0
  0
SOLID
  5
1CD
330
15A
100
AcDbEntity
  8
MO_001_VIEW_PV
  6
BYBLOCK
100
AcDbTrace
 10
-23.416488
 20
-4.218259999999999
 30
0.0
 11
-24.0
 21
-1.408
 31
0.0
 12
-24.583512
 22
-4.218259999999999
 32
0.0
 13
-24.583512
 23
-4.218259999999999
 33
0.0
  0
LINE
  5
1CE
330
15A
100
AcDbEntity
  8
MO_001_VIEW_PV
  6
BYBLOCK
100
AcDbLine
 10
-17.5
 20
0.9
 30
0.0
 11
-26.285999
 21
0.9
 31
0.0
  0
LINE
  5
1CF
330
15A
100
AcDbEntity
  8
MO_001_VIEW_PV
  6
BYBLOCK
100
AcDbLine
 10
-17.5
 20
-0.9
 30
0.0
 11
-26.285999
 21
-0.9
 31
0.0
  0
LINE
  5
1D0
330
15A
100
AcDbEntity
  8
MO_001_VIEW_PV
  6
BYBLOCK
100
AcDbLine
 10
-24.0
 20
20.190535
 30
0.0
 11
-24.0
 21
0.9
 31
0.0
  0
ENDBLK
  5
1D1
330
15A
100
AcDbEntity
  8
0
100
AcDbBlockEnd
  0
BLOCK
  5
1D2
330
15C
100
AcDbEntity
  8
0
100
AcDbBlockBegin
  2
*D9
 70
     1
 10
0.0
 20
0.0
 30
0.0
  3
*D9
  1

  0
TEXT
  5
1D3
330
15C
100
AcDbEntity
  8
MO_001_VIEW_PV
  6
BYBLOCK
100
AcDbText
 10
-32.625
 20
12.719981
 30
0.0
 40
1.5
  1
%%P0.05
 50
90.0
100
AcDbText
  0
TEXT
  5
1D4
330
15C
100
AcDbEntity
  8
MO_001_VIEW_PV
  6
BYBLOCK
100
AcDbText
 10
-30.75
 20
6.934267
 30
0.0
 40
3.0
  1
%%C5
 50
90.0
100
AcDbText
  0
LINE
  5
1D5
330
15C
100
AcDbEntity
  8
MO_001_VIEW_PV
  6
BYBLOCK
100
AcDbLine
 10
-30.0
 20
2.5
 30
0.0
 11
-30.0
 21
-2.5
 31
0.0
  0
LINE
  5
1D6
330
15C
100
AcDbEntity
  8
MO_001_VIEW_PV
  6
BYBLOCK
100
AcDbLine
 10
-30.0
 20
2.5
 30
0.0
 11
-30.0
 21
8.849999999999999
 31
0.0
  0
LINE
  5
1D7
330
15C
100
AcDbEntity
  8
MO_001_VIEW_PV
  6
BYBLOCK
100
AcDbLine
 10
-30.0
 20
-2.5
 30
0.0
 11
-30.0
 21
-8.849999999999999
 31
0.0
  0
SOLID
  5
1D8
330
15C
100
AcDbEntity
  8
MO_001_VIEW_PV
  6
BYBLOCK
100
AcDbTrace
 10
-30.583512
 20
5.818259999999999
 30
0.0
 11
-30.0
 21
3.008
 31
0.0
 12
-29.416488
 22
5.818259999999999
 32
0.0
 13
-29.416488
 23
5.818259999999999
 33
0.0
  0
SOLID
  5
1D9
330
15C
100
AcDbEntity
  8
MO_001_VIEW_PV
  6
BYBLOCK
100
AcDbTrace
 10
-29.416488
 20
-5.818259999999999
 30
0.0
 11
-30.0
 21
-3.008
 31
0.0
 12
-30.583512
 22
-5.818259999999999
 32
0.0
 13
-30.583512
 23
-5.818259999999999
 33
0.0
  0
LINE
  5
1DA
330
15C
100
AcDbEntity
  8
MO_001_VIEW_PV
  6
BYBLOCK
100
AcDbLine
 10
-17.5
 20
2.5
 30
0.0
 11
-32.28599899999999
 21
2.5
 31
0.0
  0
LINE
  5
1DB
330
15C
100
AcDbEntity
  8
MO_001_VIEW_PV
  6
BYBLOCK
100
AcDbLine
 10
-17.5
 20
-2.5
 30
0.0
 11
-32.28599899999999
 21
-2.5
 31
0.0
  0
LINE
  5
1DC
330
15C
100
AcDbEntity
  8
MO_001_VIEW_PV
  6
BYBLOCK
100
AcDbLine
 10
-30.0
 20
20.54140999999999
 30
0.0
 11
-30.0
 21
2.5
 31
0.0
  0
ENDBLK
  5
1DD
330
15C
100
AcDbEntity
  8
0
100
AcDbBlockEnd
  0
BLOCK
  5
1DE
330
15E
100
AcDbEntity
  8
0
100
AcDbBlockBegin
  2
*D10
 70
     1
 10
0.0
 20
0.0
 30
0.0
  3
*D10
  1

  0
LINE
  5
1DF
330
15E
100
AcDbEntity
  8
MO_001_VIEW_PV
  6
BYBLOCK
100
AcDbLine
 10
61.400002
 20
3.0
 30
0.0
 11
70.0
 21
3.0
 31
0.0
  0
LINE
  5
1E0
330
15E
100
AcDbEntity
  8
MO_001_VIEW_PV
  6
BYBLOCK
100
AcDbLine
 10
61.400002
 20
3.0
 30
0.0
 11
55.050002
 21
3.0
 31
0.0
  0
LINE
  5
1E1
330
15E
100
AcDbEntity
  8
MO_001_VIEW_PV
  6
BYBLOCK
100
AcDbLine
 10
70.0
 20
3.0
 30
0.0
 11
76.34999999999999
 21
3.0
 31
0.0
  0
SOLID
  5
1E2
330
15E
100
AcDbEntity
  8
MO_001_VIEW_PV
  6
BYBLOCK
100
AcDbTrace
 10
58.081741
 20
2.416488
 30
0.0
 11
60.892002
 21
3.0
 31
0.0
 12
58.081741
 22
3.583511
 32
0.0
 13
58.081741
 23
3.583511
 33
0.0
  0
SOLID
  5
1E3
330
15E
100
AcDbEntity
  8
MO_001_VIEW_PV
  6
BYBLOCK
100
AcDbTrace
 10
73.31825999999999
 20
3.583511
 30
0.0
 11
70.50799999999999
 21
3.0
 31
0.0
 12
73.31825999999999
 22
2.416488
 32
0.0
 13
73.31825999999999
 23
2.416488
 33
0.0
  0
LINE
  5
1E4
330
15E
100
AcDbEntity
  8
MO_001_VIEW_PV
  6
BYBLOCK
100
AcDbLine
 10
61.400002
 20
-15.0
 30
0.0
 11
61.400002
 21
5.285998999999999
 31
0.0
  0
LINE
  5
1E5
330
15E
100
AcDbEntity
  8
MO_001_VIEW_PV
  6
BYBLOCK
100
AcDbLine
 10
70.0
 20
-12.728437
 30
0.0
 11
70.0
 21
5.285998999999999
 31
0.0
  0
TEXT
  5
1E6
330
15E
100
AcDbEntity
  8
MO_001_VIEW_PV
  6
BYBLOCK
100
AcDbText
 10
83.215125
 20
5.625
 30
0.0
 40
1.5
  1
%%P0.1
100
AcDbText
  0
TEXT
  5
1E7
330
15E
100
AcDbEntity
  8
MO_001_VIEW_PV
  6
BYBLOCK
100
AcDbText
 10
74.429411
 20
3.75
 30
0.0
 40
3.0
  1
8.6
100
AcDbText
  0
LINE
  5
1E8
330
15E
100
AcDbEntity
  8
MO_001_VIEW_PV
  6
BYBLOCK
100
AcDbLine
 10
70.0
 20
3.0
 30
0.0
 11
89.536552
 21
3.0
 31
0.0
  0
ENDBLK
  5
1E9
330
15E
100
AcDbEntity
  8
0
100
AcDbBlockEnd
  0
BLOCK
  5
1EA
330
160
100
AcDbEntity
  8
0
100
AcDbBlockBegin
  2
*D11
 70
     1
 10
0.0
 20
0.0
 30
0.0
  3
*D11
  1

  0
LINE
  5
1EB
330
160
100
AcDbEntity
  8
MO_001_VIEW_PV
  6
BYBLOCK
100
AcDbLine
 10
66.0
 20
-3.0
 30
0.0
 11
70.0
 21
-3.0
 31
0.0
  0
LINE
  5
1EC
330
160
100
AcDbEntity
  8
MO_001_VIEW_PV
  6
BYBLOCK
100
AcDbLine
 10
66.0
 20
-3.0
 30
0.0
 11
59.64999999999999
 21
-3.0
 31
0.0
  0
LINE
  5
1ED
330
160
100
AcDbEntity
  8
MO_001_VIEW_PV
  6
BYBLOCK
100
AcDbLine
 10
70.0
 20
-3.0
 30
0.0
 11
76.34999999999999
 21
-3.0
 31
0.0
  0
SOLID
  5
1EE
330
160
100
AcDbEntity
  8
MO_001_VIEW_PV
  6
BYBLOCK
100
AcDbTrace
 10
62.68174000000001
 20
-3.583512
 30
0.0
 11
65.492
 21
-3.0
 31
0.0
 12
62.68174000000001
 22
-2.416488
 32
0.0
 13
62.68174000000001
 23
-2.416488
 33
0.0
  0
SOLID
  5
1EF
330
160
100
AcDbEntity
  8
MO_001_VIEW_PV
  6
BYBLOCK
100
AcDbTrace
 10
73.31825999999999
 20
-2.416488
 30
0.0
 11
70.50799999999999
 21
-3.0
 31
0.0
 12
73.31825999999999
 22
-3.583512
 32
0.0
 13
73.31825999999999
 23
-3.583512
 33
0.0
  0
LINE
  5
1F0
330
160
100
AcDbEntity
  8
MO_001_VIEW_PV
  6
BYBLOCK
100
AcDbLine
 10
66.0
 20
-7.0
 30
0.0
 11
66.0
 21
-0.7140000000000001
 31
0.0
  0
LINE
  5
1F1
330
160
100
AcDbEntity
  8
MO_001_VIEW_PV
  6
BYBLOCK
100
AcDbLine
 10
70.0
 20
-12.728437
 30
0.0
 11
70.0
 21
-0.7140000000000001
 31
0.0
  0
TEXT
  5
1F2
330
160
100
AcDbEntity
  8
MO_001_VIEW_PV
  6
BYBLOCK
100
AcDbText
 10
73.92857099999999
 20
-2.25
 30
0.0
 40
3.0
  1
(4)
100
AcDbText
  0
LINE
  5
1F3
330
160
100
AcDbEntity
  8
MO_001_VIEW_PV
  6
BYBLOCK
100
AcDbLine
 10
70.0
 20
-3.0
 30
0.0
 11
83.03571299999999
 21
-3.0
 31
0.0
  0
ENDBLK
  5
1F4
330
160
100
AcDbEntity
  8
0
100
AcDbBlockEnd
  0
ENDSEC
  0
SECTION
  2
ENTITIES
  0
TEXT
  5
4B
330
1E
100
AcDbEntity
  8
OVERLAY_MAP
  6
C_SOLID_L
100
AcDbText
 10
0.0
 20
6.349999999999999
 30
0.0
 40
4.1672
  1
Model Overlay Name
100
AcDbText
  0
TEXT
  5
4C
330
1E
100
AcDbEntity
  8
OVERLAY_MAP
  6
C_SOLID_L
100
AcDbText
 10
126.999998
 20
0.0
 30
0.0
 40
4.1672
  1
Number
100
AcDbText
  0
TEXT
  5
4D
330
1E
100
AcDbEntity
  8
OVERLAY_MAP
  6
C_SOLID_L
100
AcDbText
 10
177.7999969999999
 20
0.0
 30
0.0
 40
4.1672
  1
File Text
100
AcDbText
  0
TEXT
  5
4E
330
1E
100
AcDbEntity
  8
OVERLAY_MAP
  6
C_SOLID_L
100
AcDbText
 10
0.0
 20
-6.349999999999999
 30
0.0
 40
4.1672
  1
tb s50pull 
100
AcDbText
  0
TEXT
  5
4F
330
1E
100
AcDbEntity
  8
OVERLAY_MAP
  6
C_SOLID_L
100
AcDbText
 10
126.999998
 20
-6.349999999999999
 30
0.0
 40
4.1672
  1
001
100
AcDbText
  0
TEXT
  5
50
330
1E
100
AcDbEntity
  8
OVERLAY_MAP
  6
C_SOLID_L
100
AcDbText
 10
177.7999969999999
 20
-6.349999999999999
 30
0.0
 40
4.1672
  1
                                                                   00118
100
AcDbText
  0
POINT
  5
51
330
1E
100
AcDbEntity
  8
MO_001_NOSHOW
  6
C_SOLID_M
100
AcDbPoint
 10
60.0
 20
-4.850000999999999
 30
0.0
  0
LINE
  5
52
330
1E
100
AcDbEntity
  8
MO_001_VIEW_PV
  6
C_SOLID_M
100
AcDbLine
 10
0.6
 20
6.5
 30
0.0
 11
0.6
 21
-6.5
 31
0.0
  0
LINE
  5
53
330
1E
100
AcDbEntity
  8
MO_001_VIEW_PV
  6
C_SOLID_M
100
AcDbLine
 10
0.0
 20
6.5
 30
0.0
 11
26.6
 21
6.5
 31
0.0
  0
LINE
  5
54
330
1E
100
AcDbEntity
  8
MO_001_VIEW_PV
  6
C_SOLID_M
100
AcDbLine
 10
0.0
 20
-6.5
 30
0.0
 11
26.6
 21
-6.5
 31
0.0
  0
LINE
  5
55
330
1E
100
AcDbEntity
  8
MO_001_VIEW_PV
  6
C_SOLID_M
100
AcDbLine
 10
26.6
 20
6.5
 30
0.0
 11
26.6
 21
-6.5
 31
0.0
  0
LINE
  5
56
330
1E
100
AcDbEntity
  8
MO_001_VIEW_PV
  6
C_SOLID_M
100
AcDbLine
 10
0.0
 20
6.5
 30
0.0
 11
0.0
 21
-6.5
 31
0.0
  0
LINE
  5
57
330
1E
100
AcDbEntity
  8
MO_001_VIEW_PV
  6
C_SOLID_M
100
AcDbLine
 10
-6.4
 20
3.75
 30
0.0
 11
-6.4
 21
-3.75
 31
0.0
  0
LINE
  5
58
330
1E
100
AcDbEntity
  8
MO_001_VIEW_PV
  6
C_SOLID_M
100
AcDbLine
 10
-5.65
 20
4.5
 30
0.0
 11
-4.275
 21
4.5
 31
0.0
  0
LINE
  5
59
330
1E
100
AcDbEntity
  8
MO_001_VIEW_PV
  6
C_SOLID_M
100
AcDbLine
 10
-5.65
 20
-4.5
 30
0.0
 11
-4.275
 21
-4.5
 31
0.0
  0
LINE
  5
5A
330
1E
100
AcDbEntity
  8
MO_001_VIEW_PV
  6
C_SOLID_M
100
AcDbLine
 10
-5.65
 20
-2.244991999999999
 30
0.0
 11
-5.65
 21
-4.5
 31
0.0
  0
LINE
  5
5B
330
1E
100
AcDbEntity
  8
MO_001_VIEW_PV
  6
C_SOLID_M
100
AcDbLine
 10
-6.4
 20
3.75
 30
0.0
 11
-4.275
 21
3.75
 31
0.0
  0
LINE
  5
5C
330
1E
100
AcDbEntity
  8
MO_001_VIEW_PV
  6
C_SOLID_M
100
AcDbLine
 10
-6.4
 20
-3.75
 30
0.0
 11
-4.275
 21
-3.75
 31
0.0
  0
LINE
  5
5D
330
1E
100
AcDbEntity
  8
MO_001_VIEW_PV
  6
C_SOLID_M
100
AcDbLine
 10
-6.4
 20
3.75
 30
0.0
 11
-5.65
 21
4.5
 31
0.0
  0
LINE
  5
5E
330
1E
100
AcDbEntity
  8
MO_001_VIEW_PV
  6
C_SOLID_M
100
AcDbLine
 10
-6.4
 20
-3.75
 30
0.0
 11
-5.65
 21
-4.5
 31
0.0
  0
ARC
  5
5F
330
1E
100
AcDbEntity
  8
MO_001_VIEW_PV
  6
C_SOLID_M
100
AcDbCircle
 10
-60.0
 20
0.0
 30
0.0
 40
6.5
100
AcDbArc
 50
37.380133
 51
82.61986699999999
  0
ARC
  5
60
330
1E
100
AcDbEntity
  8
MO_001_VIEW_PV
  6
C_SOLID_M
100
AcDbCircle
 10
-60.0
 20
0.0
 30
0.0
 40
4.5
100
AcDbArc
 50
0.0
 51
29.92639499999999
  0
LINE
  5
61
330
1E
100
AcDbEntity
  8
MO_001_VIEW_PV
  6
C_CENTER_L
100
AcDbLine
 10
-70.0
 20
0.0
 30
0.0
 11
-50.0
 21
0.0
 31
0.0
  0
LINE
  5
62
330
1E
100
AcDbEntity
  8
MO_001_VIEW_PV
  6
C_CENTER_L
100
AcDbLine
 10
-60.0
 20
10.0
 30
0.0
 11
-60.0
 21
-10.0
 31
0.0
  0
LINE
  5
63
330
1E
100
AcDbEntity
  8
MO_001_VIEW_PV
  6
C_SOLID_M
100
AcDbLine
 10
-56.099998
 20
-1.688931
 30
0.0
 11
-56.099998
 21
-2.244991999999999
 31
0.0
  0
LINE
  5
64
330
1E
100
AcDbEntity
  8
MO_001_VIEW_PV
  6
C_SOLID_M
100
AcDbLine
 10
-6.249998
 20
2.244991999999999
 30
0.0
 11
-4.275
 21
2.244991999999999
 31
0.0
  0
LINE
  5
65
330
1E
100
AcDbEntity
  8
MO_001_VIEW_PV
  6
C_SOLID_M
100
AcDbLine
 10
-6.249998
 20
-2.244991999999999
 30
0.0
 11
-4.275
 21
-2.244991999999999
 31
0.0
  0
LINE
  5
66
330
1E
100
AcDbEntity
  8
MO_001_VIEW_PV
  6
C_SOLID_M
100
AcDbLine
 10
-6.249998
 20
2.244991999999999
 30
0.0
 11
-6.249998
 21
-2.244991999999999
 31
0.0
  0
LINE
  5
67
330
1E
100
AcDbEntity
  8
MO_001_VIEW_PV
  6
C_SOLID_M
100
AcDbLine
 10
-0.9
 20
-2.244991999999999
 30
0.0
 11
-0.9
 21
-3.75
 31
0.0
  0
LINE
  5
68
330
1E
100
AcDbEntity
  8
MO_001_VIEW_PV
  6
C_SOLID_M
100
AcDbLine
 10
-0.15
 20
-2.244991999999999
 30
0.0
 11
-0.15
 21
-4.5
 31
0.0
  0
LINE
  5
69
330
1E
100
AcDbEntity
  8
MO_001_VIEW_PV
  6
C_SOLID_M
100
AcDbLine
 10
-0.9
 20
-3.75
 30
0.0
 11
-0.15
 21
-4.5
 31
0.0
  0
LINE
  5
6A
330
1E
100
AcDbEntity
  8
MO_001_VIEW_PV
  6
C_SOLID_M
100
AcDbLine
 10
-0.9
 20
3.75
 30
0.0
 11
-0.15
 21
4.5
 31
0.0
  0
LINE
  5
6B
330
1E
100
AcDbEntity
  8
MO_001_VIEW_PV
  6
C_SOLID_M
100
AcDbLine
 10
-5.65
 20
4.5
 30
0.0
 11
-5.65
 21
2.244991999999999
 31
0.0
  0
LINE
  5
6C
330
1E
100
AcDbEntity
  8
MO_001_VIEW_PV
  6
C_SOLID_M
100
AcDbLine
 10
-0.9
 20
3.75
 30
0.0
 11
-0.9
 21
2.244991999999999
 31
0.0
  0
LINE
  5
6D
330
1E
100
AcDbEntity
  8
MO_001_VIEW_PV
  6
C_SOLID_M
100
AcDbLine
 10
-0.15
 20
4.5
 30
0.0
 11
-0.15
 21
2.244991999999999
 31
0.0
  0
LINE
  5
6E
330
1E
100
AcDbEntity
  8
MO_001_VIEW_PV
  6
C_SOLID_M
100
AcDbLine
 10
-7.799999999999999
 20
3.5
 30
0.0
 11
-7.799999999999999
 21
-2.744483999999999
 31
0.0
  0
LINE
  5
6F
330
1E
100
AcDbEntity
  8
MO_001_VIEW_PV
  6
C_SOLID_M
100
AcDbLine
 10
-17.5
 20
-0.9
 30
0.0
 11
-17.5
 21
-2.5
 31
0.0
  0
LINE
  5
70
330
1E
100
AcDbEntity
  8
MO_001_VIEW_PV
  6
C_CENTER_L
100
AcDbLine
 10
-14.3
 20
4.208938999999999
 30
0.0
 11
-14.3
 21
-4.508083
 31
0.0
  0
LINE
  5
71
330
1E
100
AcDbEntity
  8
MO_001_VIEW_PV
  6
C_SOLID_M
100
AcDbLine
 10
-13.500001
 20
2.5
 30
0.0
 11
-7.799999999999999
 21
2.5
 31
0.0
  0
LINE
  5
72
330
1E
100
AcDbEntity
  8
MO_001_VIEW_PV
  6
C_SOLID_M
100
AcDbLine
 10
-17.5
 20
0.9
 30
0.0
 11
-11.00000099999999
 21
0.9
 31
0.0
  0
LINE
  5
73
330
1E
100
AcDbEntity
  8
MO_001_VIEW_PV
  6
C_SOLID_M
100
AcDbLine
 10
-17.5
 20
-0.9
 30
0.0
 11
-11.00000099999999
 21
-0.9
 31
0.0
  0
LINE
  5
74
330
1E
100
AcDbEntity
  8
MO_001_VIEW_PV
  6
C_SOLID_M
100
AcDbLine
 10
-11.00000099999999
 20
0.9
 30
0.0
 11
-11.00000099999999
 21
-0.9
 31
0.0
  0
LINE
  5
75
330
1E
100
AcDbEntity
  8
MO_001_VIEW_PV
  6
C_SOLID_M
100
AcDbLine
 10
-17.5
 20
2.5
 30
0.0
 11
-17.5
 21
0.9
 31
0.0
  0
LINE
  5
76
330
1E
100
AcDbEntity
  8
MO_001_VIEW_PV
  6
C_DASHED_M
100
AcDbLine
 10
-13.500001
 20
2.5
 30
0.0
 11
-13.500001
 21
0.9
 31
0.0
  0
LINE
  5
77
330
1E
100
AcDbEntity
  8
MO_001_VIEW_PV
  6
C_DASHED_M
100
AcDbLine
 10
-15.100001
 20
2.5
 30
0.0
 11
-15.100001
 21
0.9
 31
0.0
  0
CIRCLE
  5
78
330
1E
100
AcDbEntity
  8
MO_001_VIEW_PV
  6
C_SOLID_M
100
AcDbCircle
 10
-60.0
 20
0.0
 30
0.0
 40
2.5
  0
LINE
  5
79
330
1E
100
AcDbEntity
  8
MO_001_VIEW_PV
  6
C_SOLID_M
100
AcDbLine
 10
-62.33238199999999
 20
0.9
 30
0.0
 11
-57.66761800000001
 21
0.9
 31
0.0
  0
LINE
  5
7A
330
1E
100
AcDbEntity
  8
MO_001_VIEW_PV
  6
C_SOLID_M
100
AcDbLine
 10
-62.33238199999999
 20
-0.9
 30
0.0
 11
-57.66761800000001
 21
-0.9
 31
0.0
  0
LINE
  5
7B
330
1E
100
AcDbEntity
  8
MO_001_VIEW_PV
  6
C_DASHED_M
100
AcDbLine
 10
-59.19999699999999
 20
-0.9
 30
0.0
 11
-59.19999699999999
 21
-2.368543999999999
 31
0.0
  0
LINE
  5
7C
330
1E
100
AcDbEntity
  8
MO_001_VIEW_PV
  6
C_DASHED_M
100
AcDbLine
 10
-60.800003
 20
-0.9
 30
0.0
 11
-60.800003
 21
-2.368543999999999
 31
0.0
  0
LINE
  5
7D
330
1E
100
AcDbEntity
  8
MO_001_VIEW_PV
  6
C_DASHED_M
100
AcDbLine
 10
-60.800003
 20
2.368543999999999
 30
0.0
 11
-60.800003
 21
0.9
 31
0.0
  0
LINE
  5
7E
330
1E
100
AcDbEntity
  8
MO_001_VIEW_PV
  6
C_DASHED_M
100
AcDbLine
 10
-59.19999699999999
 20
2.368543999999999
 30
0.0
 11
-59.19999699999999
 21
0.9
 31
0.0
  0
POLYLINE
  5
7F
330
1E
100
AcDbEntity
  8
MO_001_VIEW_PV
  6
C_SOLID_M
100
AcDb2dPolyline
 66
     1
 10
0.0
 20
0.0
 30
0.0
  0
VERTEX
  5
206
330
7F
100
AcDbEntity
  8
MO_001_VIEW_PV
  6
C_SOLID_M
100
AcDbVertex
100
AcDb2dVertex
 10
-15.100001
 20
2.5
 30
0.0
  0
VERTEX
  5
207
330
7F
100
AcDbEntity
  8
MO_001_VIEW_PV
  6
C_SOLID_M
100
AcDbVertex
100
AcDb2dVertex
 10
-15.08462999999999
 20
2.474353999999999
 30
0.0
  0
VERTEX
  5
208
330
7F
100
AcDbEntity
  8
MO_001_VIEW_PV
  6
C_SOLID_M
100
AcDbVertex
100
AcDb2dVertex
 10
-15.04639599999999
 20
2.45269
 30
0.0
  0
VERTEX
  5
209
330
7F
100
AcDbEntity
  8
MO_001_VIEW_PV
  6
C_SOLID_M
100
AcDbVertex
100
AcDb2dVertex
 10
-14.99485799999999
 20
2.434854999999999
 30
0.0
  0
VERTEX
  5
20A
330
7F
100
AcDbEntity
  8
MO_001_VIEW_PV
  6
C_SOLID_M
100
AcDbVertex
100
AcDb2dVertex
 10
-14.936856
 20
2.420441999999999
 30
0.0
  0
VERTEX
  5
20B
330
7F
100
AcDbEntity
  8
MO_001_VIEW_PV
  6
C_SOLID_M
100
AcDbVertex
100
AcDb2dVertex
 10
-14.80958799999999
 20
2.398662999999999
 30
0.0
  0
VERTEX
  5
20C
330
7F
100
AcDbEntity
  8
MO_001_VIEW_PV
  6
C_SOLID_M
100
AcDbVertex
100
AcDb2dVertex
 10
-14.69607
 20
2.385784999999999
 30
0.0
  0
VERTEX
  5
20D
330
7F
100
AcDbEntity
  8
MO_001_VIEW_PV
  6
C_SOLID_M
100
AcDbVertex
100
AcDb2dVertex
 10
-14.504866
 20
2.372927
 30
0.0
  0
VERTEX
  5
20E
330
7F
100
AcDbEntity
  8
MO_001_VIEW_PV
  6
C_SOLID_M
100
AcDbVertex
100
AcDb2dVertex
 10
-14.3
 20
2.368543999999999
 30
0.0
  0
VERTEX
  5
20F
330
7F
100
AcDbEntity
  8
MO_001_VIEW_PV
  6
C_SOLID_M
100
AcDbVertex
100
AcDb2dVertex
 10
-13.993853
 20
2.37855
 30
0.0
  0
VERTEX
  5
210
330
7F
100
AcDbEntity
  8
MO_001_VIEW_PV
  6
C_SOLID_M
100
AcDbVertex
100
AcDb2dVertex
 10
-13.792485
 20
2.398383
 30
0.0
  0
VERTEX
  5
211
330
7F
100
AcDbEntity
  8
MO_001_VIEW_PV
  6
C_SOLID_M
100
AcDbVertex
100
AcDb2dVertex
 10
-13.66932199999999
 20
2.419124
 30
0.0
  0
VERTEX
  5
212
330
7F
100
AcDbEntity
  8
MO_001_VIEW_PV
  6
C_SOLID_M
100
AcDbVertex
100
AcDb2dVertex
 10
-13.596789
 20
2.437321999999999
 30
0.0
  0
VERTEX
  5
213
330
7F
100
AcDbEntity
  8
MO_001_VIEW_PV
  6
C_SOLID_M
100
AcDbVertex
100
AcDb2dVertex
 10
-13.554938
 20
2.452125999999999
 30
0.0
  0
VERTEX
  5
214
330
7F
100
AcDbEntity
  8
MO_001_VIEW_PV
  6
C_SOLID_M
100
AcDbVertex
100
AcDb2dVertex
 10
-13.513854
 20
2.475640999999999
 30
0.0
  0
VERTEX
  5
215
330
7F
100
AcDbEntity
  8
MO_001_VIEW_PV
  6
C_SOLID_M
100
AcDbVertex
100
AcDb2dVertex
 10
-13.499999
 20
2.5
 30
0.0
  0
SEQEND
  5
216
330
7F
100
AcDbEntity
  8
MO_001_VIEW_PV
  6
C_SOLID_M
  0
LINE
  5
91
330
1E
100
AcDbEntity
  8
MO_001_VIEW_PV
  6
C_SOLID_M
100
AcDbLine
 10
-17.5
 20
2.5
 30
0.0
 11
-15.100001
 21
2.5
 31
0.0
  0
LINE
  5
92
330
1E
100
AcDbEntity
  8
MO_001_VIEW_PV
  6
C_DASHED_M
100
AcDbLine
 10
-15.100001
 20
-2.5
 30
0.0
 11
-15.100001
 21
-0.9
 31
0.0
  0
LINE
  5
93
330
1E
100
AcDbEntity
  8
MO_001_VIEW_PV
  6
C_DASHED_M
100
AcDbLine
 10
-13.500001
 20
-2.5
 30
0.0
 11
-13.500001
 21
-0.9
 31
0.0
  0
POLYLINE
  5
94
330
1E
100
AcDbEntity
  8
MO_001_VIEW_PV
  6
C_SOLID_M
100
AcDb2dPolyline
 66
     1
 10
0.0
 20
0.0
 30
0.0
  0
VERTEX
  5
217
330
94
100
AcDbEntity
  8
MO_001_VIEW_PV
  6
C_SOLID_M
100
AcDbVertex
100
AcDb2dVertex
 10
-13.499999
 20
-2.5
 30
0.0
  0
VERTEX
  5
218
330
94
100
AcDbEntity
  8
MO_001_VIEW_PV
  6
C_SOLID_M
100
AcDbVertex
100
AcDb2dVertex
 10
-13.515371
 20
-2.474355
 30
0.0
  0
VERTEX
  5
219
330
94
100
AcDbEntity
  8
MO_001_VIEW_PV
  6
C_SOLID_M
100
AcDbVertex
100
AcDb2dVertex
 10
-13.55360499999999
 20
-2.45269
 30
0.0
  0
VERTEX
  5
21A
330
94
100
AcDbEntity
  8
MO_001_VIEW_PV
  6
C_SOLID_M
100
AcDbVertex
100
AcDb2dVertex
 10
-13.605143
 20
-2.434855999999999
 30
0.0
  0
VERTEX
  5
21B
330
94
100
AcDbEntity
  8
MO_001_VIEW_PV
  6
C_SOLID_M
100
AcDbVertex
100
AcDb2dVertex
 10
-13.663144
 20
-2.420443
 30
0.0
  0
VERTEX
  5
21C
330
94
100
AcDbEntity
  8
MO_001_VIEW_PV
  6
C_SOLID_M
100
AcDbVertex
100
AcDb2dVertex
 10
-13.790413
 20
-2.398665
 30
0.0
  0
VERTEX
  5
21D
330
94
100
AcDbEntity
  8
MO_001_VIEW_PV
  6
C_SOLID_M
100
AcDbVertex
100
AcDb2dVertex
 10
-13.903931
 20
-2.385787
 30
0.0
  0
VERTEX
  5
21E
330
94
100
AcDbEntity
  8
MO_001_VIEW_PV
  6
C_SOLID_M
100
AcDbVertex
100
AcDb2dVertex
 10
-14.09513399999999
 20
-2.372929
 30
0.0
  0
VERTEX
  5
21F
330
94
100
AcDbEntity
  8
MO_001_VIEW_PV
  6
C_SOLID_M
100
AcDbVertex
100
AcDb2dVertex
 10
-14.3
 20
-2.368545999999999
 30
0.0
  0
VERTEX
  5
220
330
94
100
AcDbEntity
  8
MO_001_VIEW_PV
  6
C_SOLID_M
100
AcDbVertex
100
AcDb2dVertex
 10
-14.60614699999999
 20
-2.378551999999999
 30
0.0
  0
VERTEX
  5
221
330
94
100
AcDbEntity
  8
MO_001_VIEW_PV
  6
C_SOLID_M
100
AcDbVertex
100
AcDb2dVertex
 10
-14.807516
 20
-2.398384
 30
0.0
  0
VERTEX
  5
222
330
94
100
AcDbEntity
  8
MO_001_VIEW_PV
  6
C_SOLID_M
100
AcDbVertex
100
AcDb2dVertex
 10
-14.930678
 20
-2.419125
 30
0.0
  0
VERTEX
  5
223
330
94
100
AcDbEntity
  8
MO_001_VIEW_PV
  6
C_SOLID_M
100
AcDbVertex
100
AcDb2dVertex
 10
-15.00321099999999
 20
-2.437323
 30
0.0
  0
VERTEX
  5
224
330
94
100
AcDbEntity
  8
MO_001_VIEW_PV
  6
C_SOLID_M
100
AcDbVertex
100
AcDb2dVertex
 10
-15.045063
 20
-2.452125999999999
 30
0.0
  0
VERTEX
  5
225
330
94
100
AcDbEntity
  8
MO_001_VIEW_PV
  6
C_SOLID_M
100
AcDbVertex
100
AcDb2dVertex
 10
-15.086147
 20
-2.475640999999999
 30
0.0
  0
VERTEX
  5
226
330
94
100
AcDbEntity
  8
MO_001_VIEW_PV
  6
C_SOLID_M
100
AcDbVertex
100
AcDb2dVertex
 10
-15.100001
 20
-2.5
 30
0.0
  0
SEQEND
  5
227
330
94
100
AcDbEntity
  8
MO_001_VIEW_PV
  6
C_SOLID_M
  0
LINE
  5
A6
330
1E
100
AcDbEntity
  8
MO_001_VIEW_PV
  6
C_SOLID_M
100
AcDbLine
 10
-13.500001
 20
-2.5
 30
0.0
 11
-7.799999999999999
 21
-2.5
 31
0.0
  0
LINE
  5
A7
330
1E
100
AcDbEntity
  8
MO_001_VIEW_PV
  6
C_SOLID_M
100
AcDbLine
 10
-17.5
 20
-2.5
 30
0.0
 11
-15.100001
 21
-2.5
 31
0.0
  0
LINE
  5
A8
330
1E
100
AcDbEntity
  8
MO_001_VIEW_PV
  6
C_SOLID_M
100
AcDbLine
 10
-7.200000999999999
 20
4.25
 30
0.0
 11
-7.200000999999999
 21
-4.25
 31
0.0
  0
LINE
  5
A9
330
1E
100
AcDbEntity
  8
MO_001_VIEW_PV
  6
C_SOLID_M
100
AcDbLine
 10
-6.4
 20
4.25
 30
0.0
 11
-6.4
 21
-4.25
 31
0.0
  0
LINE
  5
AA
330
1E
100
AcDbEntity
  8
MO_001_VIEW_PV
  6
C_SOLID_M
100
AcDbLine
 10
-7.200000999999999
 20
4.25
 30
0.0
 11
-6.4
 21
4.25
 31
0.0
  0
LINE
  5
AB
330
1E
100
AcDbEntity
  8
MO_001_VIEW_PV
  6
C_SOLID_M
100
AcDbLine
 10
-7.200000999999999
 20
-4.25
 30
0.0
 11
-6.4
 21
-4.25
 31
0.0
  0
LINE
  5
AC
330
1E
100
AcDbEntity
  8
MO_001_VIEW_PV
  6
C_SOLID_M
100
AcDbLine
 10
-54.0
 20
3.464101999999999
 30
0.0
 11
-54.0
 21
-3.464101999999999
 31
0.0
  0
LINE
  5
AD
330
1E
100
AcDbEntity
  8
MO_001_VIEW_PV
  6
C_SOLID_M
100
AcDbLine
 10
-66.0
 20
3.464101999999999
 30
0.0
 11
-66.0
 21
-3.464098999999999
 31
0.0
  0
LINE
  5
AE
330
1E
100
AcDbEntity
  8
MO_001_VIEW_PV
  6
C_SOLID_M
100
AcDbLine
 10
-66.000002
 20
3.4641
 30
0.0
 11
-60.000005
 21
6.9282
 31
0.0
  0
LINE
  5
AF
330
1E
100
AcDbEntity
  8
MO_001_VIEW_PV
  6
C_CENTER_L
100
AcDbLine
 10
-60.000002
 20
-6.928205
 30
0.0
 11
-54.000005
 21
-3.464105
 31
0.0
  0
LINE
  5
B0
330
1E
100
AcDbEntity
  8
MO_001_VIEW_PV
  6
C_SOLID_M
100
AcDbLine
 10
-60.00000299999999
 20
-6.928196
 30
0.0
 11
-66.000006
 21
-3.464093
 31
0.0
  0
LINE
  5
B1
330
1E
100
AcDbEntity
  8
MO_001_VIEW_PV
  6
C_SOLID_M
100
AcDbLine
 10
-54.000005
 20
3.464105
 30
0.0
 11
-60.000002
 21
6.928205
 31
0.0
  0
LINE
  5
B2
330
1E
100
AcDbEntity
  8
MO_001_VIEW_PV
  6
C_SOLID_M
100
AcDbLine
 10
-3.739101
 20
6.928203999999999
 30
0.0
 11
-2.810899
 21
6.928203999999999
 31
0.0
  0
LINE
  5
B3
330
1E
100
AcDbEntity
  8
MO_001_VIEW_PV
  6
C_SOLID_M
100
AcDbLine
 10
-3.739101
 20
3.464101999999999
 30
0.0
 11
-2.810899
 21
3.464101999999999
 31
0.0
  0
LINE
  5
B4
330
1E
100
AcDbEntity
  8
MO_001_VIEW_PV
  6
C_SOLID_M
100
AcDbLine
 10
-3.739101
 20
-3.464101999999999
 30
0.0
 11
-2.810899
 21
-3.464101999999999
 31
0.0
  0
LINE
  5
B5
330
1E
100
AcDbEntity
  8
MO_001_VIEW_PV
  6
C_SOLID_M
100
AcDbLine
 10
-4.275
 20
6.0
 30
0.0
 11
-4.275
 21
-6.0
 31
0.0
  0
LINE
  5
B6
330
1E
100
AcDbEntity
  8
MO_001_VIEW_PV
  6
C_SOLID_M
100
AcDbLine
 10
-2.274999999999999
 20
6.0
 30
0.0
 11
-2.274999999999999
 21
-6.0
 31
0.0
  0
CIRCLE
  5
B7
330
1E
100
AcDbEntity
  8
MO_001_VIEW_PV
  6
C_SOLID_M
100
AcDbCircle
 10
-60.0
 20
0.0
 30
0.0
 40
6.0
  0
LINE
  5
B8
330
1E
100
AcDbEntity
  8
MO_001_VIEW_PV
  6
C_SOLID_M
100
AcDbLine
 10
-54.000005
 20
-3.464105
 30
0.0
 11
-60.000002
 21
-6.928205
 31
0.0
  0
LINE
  5
B9
330
1E
100
AcDbEntity
  8
MO_001_VIEW_PV
  6
C_SOLID_M
100
AcDbLine
 10
-3.7391
 20
6.928202999999999
 30
0.0
 11
-4.274999
 21
5.999998999999999
 31
0.0
  0
LINE
  5
BA
330
1E
100
AcDbEntity
  8
MO_001_VIEW_PV
  6
C_SOLID_M
100
AcDbLine
 10
-2.810897999999999
 20
6.928202999999999
 30
0.0
 11
-2.274999999999999
 21
6.0
 31
0.0
  0
ARC
  5
BB
330
1E
100
AcDbEntity
  8
MO_001_VIEW_PV
  6
C_SOLID_M
100
AcDbCircle
 10
-1.208013999999999
 20
5.196152999999999
 30
0.0
 40
3.066985999999999
100
AcDbArc
 50
180.000009
 51
214.38426
  0
LINE
  5
BC
330
1E
100
AcDbEntity
  8
MO_001_VIEW_PV
  6
C_SOLID_M
100
AcDbLine
 10
-2.274999999999999
 20
4.5
 30
0.0
 11
0.0
 21
4.5
 31
0.0
  0
LINE
  5
BD
330
1E
100
AcDbEntity
  8
MO_001_VIEW_PV
  6
C_SOLID_M
100
AcDbLine
 10
-2.274999999999999
 20
3.75
 30
0.0
 11
-0.9
 21
3.75
 31
0.0
  0
LINE
  5
BE
330
1E
100
AcDbEntity
  8
MO_001_VIEW_PV
  6
C_SOLID_M
100
AcDbLine
 10
-2.274999999999999
 20
2.244991999999999
 30
0.0
 11
0.0
 21
2.244991999999999
 31
0.0
  0
LINE
  5
BF
330
1E
100
AcDbEntity
  8
MO_001_VIEW_PV
  6
C_SOLID_M
100
AcDbLine
 10
-2.274999999999999
 20
-2.244991999999999
 30
0.0
 11
0.0
 21
-2.244991999999999
 31
0.0
  0
LINE
  5
C0
330
1E
100
AcDbEntity
  8
MO_001_VIEW_PV
  6
C_SOLID_M
100
AcDbLine
 10
-2.274999999999999
 20
-3.75
 30
0.0
 11
-0.9
 21
-3.75
 31
0.0
  0
LINE
  5
C1
330
1E
100
AcDbEntity
  8
MO_001_VIEW_PV
  6
C_SOLID_M
100
AcDbLine
 10
-2.274999999999999
 20
-4.5
 30
0.0
 11
0.0
 21
-4.5
 31
0.0
  0
ARC
  5
C2
330
1E
100
AcDbEntity
  8
MO_001_VIEW_PV
  6
C_SOLID_M
100
AcDbCircle
 10
-5.341986
 20
5.196152999999999
 30
0.0
 40
3.066985999999999
100
AcDbArc
 50
325.6157379999999
 51
359.999991
  0
ARC
  5
C3
330
1E
100
AcDbEntity
  8
MO_001_VIEW_PV
  6
C_SOLID_M
100
AcDbCircle
 10
-1.208013999999999
 20
-5.196152999999999
 30
0.0
 40
3.066985999999999
100
AcDbArc
 50
145.6157399999999
 51
179.9999909999999
  0
ARC
  5
C4
330
1E
100
AcDbEntity
  8
MO_001_VIEW_PV
  6
C_SOLID_M
100
AcDbCircle
 10
-5.341986
 20
-5.196152999999999
 30
0.0
 40
3.066985999999999
100
AcDbArc
 50
0.0
 51
34.384265
  0
LINE
  5
C5
330
1E
100
AcDbEntity
  8
MO_001_VIEW_PV
  6
C_SOLID_M
100
AcDbLine
 10
-3.7391
 20
-6.928202999999999
 30
0.0
 11
-4.274999
 21
-5.999998999999999
 31
0.0
  0
LINE
  5
C6
330
1E
100
AcDbEntity
  8
MO_001_VIEW_PV
  6
C_SOLID_M
100
AcDbLine
 10
-2.810897999999999
 20
-6.928202999999999
 30
0.0
 11
-2.274999999999999
 21
-6.0
 31
0.0
  0
LINE
  5
C7
330
1E
100
AcDbEntity
  8
MO_001_VIEW_PV
  6
C_SOLID_M
100
AcDbLine
 10
-3.739101
 20
-6.928203999999999
 30
0.0
 11
-2.810899
 21
-6.928203999999999
 31
0.0
  0
ARC
  5
C8
330
1E
100
AcDbEntity
  8
MO_001_VIEW_PV
  6
C_SOLID_M
100
AcDbCircle
 10
7.189092999999999
 20
0.0
 30
0.0
 40
11.464091
100
AcDbArc
 50
162.412036
 51
197.5879609999999
  0
LINE
  5
C9
330
1E
100
AcDbEntity
  8
MO_001_VIEW_PV
  6
C_SOLID_M
100
AcDbLine
 10
-2.810899
 20
-6.928202999999999
 30
0.0
 11
-2.274999999999999
 21
-6.0
 31
0.0
  0
LINE
  5
CA
330
1E
100
AcDbEntity
  8
MO_001_VIEW_PV
  6
C_SOLID_M
100
AcDbLine
 10
-3.7391
 20
-6.928202999999999
 30
0.0
 11
-4.274999
 21
-5.999998999999999
 31
0.0
  0
LINE
  5
CB
330
1E
100
AcDbEntity
  8
MO_001_VIEW_PV
  6
C_SOLID_M
100
AcDbLine
 10
-2.810899
 20
-6.928203999999999
 30
0.0
 11
-3.739101
 21
-6.928203999999999
 31
0.0
  0
ARC
  5
CC
330
1E
100
AcDbEntity
  8
MO_001_VIEW_PV
  6
C_SOLID_M
100
AcDbCircle
 10
-13.73909299999999
 20
0.0
 30
0.0
 40
11.464091
100
AcDbArc
 50
342.412039
 51
17.587964
  0
ARC
  5
CD
330
1E
100
AcDbEntity
  8
MO_001_VIEW_PV
  6
C_SOLID_M
100
AcDbCircle
 10
-60.0
 20
0.0
 30
0.0
 40
6.5
100
AcDbArc
 50
157.3801399999999
 51
202.619857
  0
ARC
  5
CE
330
1E
100
AcDbEntity
  8
MO_001_VIEW_PV
  6
C_SOLID_M
100
AcDbCircle
 10
-60.0
 20
0.0
 30
0.0
 40
6.5
100
AcDbArc
 50
217.3800899999999
 51
262.61991
  0
ARC
  5
CF
330
1E
100
AcDbEntity
  8
MO_001_VIEW_PV
  6
C_SOLID_M
100
AcDbCircle
 10
-60.0
 20
0.0
 30
0.0
 40
6.5
100
AcDbArc
 50
277.3801329999999
 51
322.619867
  0
ARC
  5
D0
330
1E
100
AcDbEntity
  8
MO_001_VIEW_PV
  6
C_SOLID_M
100
AcDbCircle
 10
-60.0
 20
0.0
 30
0.0
 40
6.5
100
AcDbArc
 50
337.3801349999999
 51
22.619865
  0
ARC
  5
D1
330
1E
100
AcDbEntity
  8
MO_001_VIEW_PV
  6
C_SOLID_M
100
AcDbCircle
 10
-60.0
 20
0.0
 30
0.0
 40
6.5
100
AcDbArc
 50
97.38008999999999
 51
142.61991
  0
ARC
  5
D2
330
1E
100
AcDbEntity
  8
MO_001_VIEW_PV
  6
C_SOLID_M
100
AcDbCircle
 10
-60.0
 20
0.0
 30
0.0
 40
3.5
100
AcDbArc
 50
310.190647
 51
229.809364
  0
ARC
  5
D3
330
1E
100
AcDbEntity
  8
MO_001_VIEW_PV
  6
C_SOLID_M
100
AcDbCircle
 10
-60.0
 20
0.0
 30
0.0
 40
2.6
100
AcDbArc
 50
7.494717999999999
 51
52.505283
  0
ARC
  5
D4
330
1E
100
AcDbEntity
  8
MO_001_VIEW_PV
  6
C_SOLID_M
100
AcDbCircle
 10
-60.0
 20
0.0
 30
0.0
 40
2.6
100
AcDbArc
 50
127.4947149999999
 51
172.505279
  0
ARC
  5
D5
330
1E
100
AcDbEntity
  8
MO_001_VIEW_PV
  6
C_SOLID_M
100
AcDbCircle
 10
-62.28035
 20
0.3
 30
0.0
 40
0.3
100
AcDbArc
 50
172.505279
 51
223.422769
  0
ARC
  5
D6
330
1E
100
AcDbEntity
  8
MO_001_VIEW_PV
  6
C_SOLID_M
100
AcDbCircle
 10
-57.71965
 20
0.3
 30
0.0
 40
0.3
100
AcDbArc
 50
316.5772229999999
 51
7.494717
  0
ARC
  5
D7
330
1E
100
AcDbEntity
  8
MO_001_VIEW_PV
  6
C_SOLID_M
100
AcDbCircle
 10
-61.399979
 20
1.824841999999999
 30
0.0
 40
0.3
100
AcDbArc
 50
76.577014
 51
127.4947149999999
  0
ARC
  5
D8
330
1E
100
AcDbEntity
  8
MO_001_VIEW_PV
  6
C_SOLID_M
100
AcDbCircle
 10
-58.60002099999999
 20
1.824841999999999
 30
0.0
 40
0.3
100
AcDbArc
 50
52.50528599999999
 51
103.422984
  0
LINE
  5
D9
330
1E
100
AcDbEntity
  8
MO_001_VIEW_PV
  6
C_SOLID_M
100
AcDbLine
 10
-58.38839899999999
 20
-1.911220999999999
 30
0.0
 11
-58.224707
 21
-2.522131
 31
0.0
  0
LINE
  5
DA
330
1E
100
AcDbEntity
  8
MO_001_VIEW_PV
  6
C_SOLID_M
100
AcDbLine
 10
-61.77528
 20
-2.522133
 30
0.0
 11
-61.611587
 21
-1.911224
 31
0.0
  0
ARC
  5
DB
330
1E
100
AcDbEntity
  8
MO_001_VIEW_PV
  6
C_SOLID_M
100
AcDbCircle
 10
-62.065063
 20
-2.444484
 30
0.0
 40
0.3
100
AcDbArc
 50
229.809341
 51
344.9999859999999
  0
ARC
  5
DC
330
1E
100
AcDbEntity
  8
MO_001_VIEW_PV
  6
C_SOLID_M
100
AcDbCircle
 10
-57.93493699999999
 20
-2.444484
 30
0.0
 40
0.3
100
AcDbArc
 50
195.000006
 51
310.190664
  0
CIRCLE
  5
DD
330
1E
100
AcDbEntity
  8
MO_001_VIEW_PV
  6
C_SOLID_M
100
AcDbCircle
 10
-60.0
 20
0.0
 30
0.0
 40
4.25
  0
LINE
  5
DE
330
1E
100
AcDbEntity
  8
MO_001_VIEW_PV
  6
C_SOLID_M
100
AcDbLine
 10
-56.099998
 20
2.244991999999999
 30
0.0
 11
-56.099998
 21
1.688931
 31
0.0
  0
ARC
  5
DF
330
1E
100
AcDbEntity
  8
MO_001_VIEW_PV
  6
C_SOLID_M
100
AcDbCircle
 10
-60.0
 20
0.0
 30
0.0
 40
4.5
100
AcDbArc
 50
29.92639499999999
 51
360.0
  0
LINE
  5
E0
330
1E
100
AcDbEntity
  8
MO_001_VIEW_PV
  6
C_CENTER_L
100
AcDbLine
 10
-18.865458
 20
0.0
 30
0.0
 11
30.810957
 21
0.0
 31
0.0
  0
LINE
  5
E1
330
1E
100
AcDbEntity
  8
MO_001_VIEW_PV
  6
C_SOLID_M
100
AcDbLine
 10
-7.799999999999999
 20
3.5
 30
0.0
 11
-7.200000999999999
 21
3.5
 31
0.0
  0
LINE
  5
E2
330
1E
100
AcDbEntity
  8
MO_001_VIEW_PV
  6
C_SOLID_M
100
AcDbLine
 10
-7.799999999999999
 20
-2.744483999999999
 30
0.0
 11
-7.200000999999999
 21
-2.744483999999999
 31
0.0
  0
LINE
  5
E3
330
1E
100
AcDbEntity
  8
MO_001_NOSHOW
  6
C_SOLID_M
100
AcDbLine
 10
58.118036
 20
-12.36195
 30
0.0
 11
58.667945
 21
-6.076463999999999
 31
0.0
  0
LINE
  5
E4
330
1E
100
AcDbEntity
  8
MO_001_VIEW_PV
  6
C_SOLID_M
100
AcDbLine
 10
32.355299
 20
-9.45148
 30
0.0
 11
29.633157
 21
-6.729338
 31
0.0
  0
LINE
  5
E5
330
1E
100
AcDbEntity
  8
MO_001_VIEW_PV
  6
C_SOLID_M
100
AcDbLine
 10
33.387674
 20
-8.419117999999999
 30
0.0
 11
30.665526
 21
-5.696969999999999
 31
0.0
  0
ARC
  5
E6
330
1E
100
AcDbEntity
  8
MO_001_VIEW_PV
  6
C_SOLID_M
100
AcDbCircle
 10
32.811432
 20
-9.391439
 30
0.0
 40
0.4600680000000001
100
AcDbArc
 50
82.49936899999999
 51
187.500577
  0
ARC
  5
E7
330
1E
100
AcDbEntity
  8
MO_001_VIEW_PV
  6
C_SOLID_M
100
AcDbCircle
 10
32.415356
 20
-8.995364
 30
0.0
 40
0.4600680000000001
100
AcDbArc
 50
262.4994389999999
 51
7.500596999999999
  0
ARC
  5
E8
330
1E
100
AcDbEntity
  8
MO_001_VIEW_PV
  6
C_SOLID_M
100
AcDbCircle
 10
32.93154499999999
 20
-8.479174
 30
0.0
 40
0.4600680000000001
100
AcDbArc
 50
262.499576
 51
7.501142999999999
  0
LINE
  5
E9
330
1E
100
AcDbEntity
  8
MO_001_VIEW_PV
  6
C_SOLID_M
100
AcDbLine
 10
40.10518799999999
 20
-15.13663399999999
 30
0.0
 11
34.094777
 21
-9.126222
 31
0.0
  0
LINE
  5
EA
330
1E
100
AcDbEntity
  8
MO_001_VIEW_PV
  6
C_SOLID_M
100
AcDbLine
 10
39.07282
 20
-16.169003
 30
0.0
 11
33.062409
 21
-10.15859099999999
 31
0.0
  0
ARC
  5
EB
330
1E
100
AcDbEntity
  8
MO_001_VIEW_PV
  6
C_SOLID_M
100
AcDbCircle
 10
34.034737
 20
-9.582349999999999
 30
0.0
 40
0.4600680000000001
100
AcDbArc
 50
82.49942299999998
 51
187.5006319999999
  0
ARC
  5
EC
330
1E
100
AcDbEntity
  8
MO_001_VIEW_PV
  6
C_SOLID_M
100
AcDbCircle
 10
33.63865999999999
 20
-9.186275
 30
0.0
 40
0.4600680000000001
100
AcDbArc
 50
262.4993979999999
 51
7.500556
  0
ARC
  5
ED
330
1E
100
AcDbEntity
  8
MO_001_VIEW_PV
  6
C_SOLID_M
100
AcDbCircle
 10
33.518547
 20
-10.09854
 30
0.0
 40
0.4600680000000001
100
AcDbArc
 50
82.49957400000001
 51
187.501151
  0
LINE
  5
EE
330
1E
100
AcDbEntity
  8
MO_001_VIEW_PV
  6
C_SOLID_M
100
AcDbLine
 10
39.07282
 20
-16.169001
 30
0.0
 11
40.105187
 21
-15.13663399999999
 31
0.0
  0
LINE
  5
EF
330
1E
100
AcDbEntity
  8
MO_001_VIEW_PV
  6
C_SOLID_M
100
AcDbLine
 10
39.76577999999999
 20
-15.47603999999999
 30
0.0
 11
43.30131399999999
 21
-19.01157399999999
 31
0.0
  0
LINE
  5
F0
330
1E
100
AcDbEntity
  8
MO_001_VIEW_PV
  6
C_SOLID_M
100
AcDbLine
 10
39.412226
 20
-15.829594
 30
0.0
 11
42.94776099999999
 21
-19.36512699999999
 31
0.0
  0
LINE
  5
F1
330
1E
100
AcDbEntity
  8
MO_001_VIEW_PV
  6
C_SOLID_M
100
AcDbLine
 10
42.94776099999999
 20
-19.365128
 30
0.0
 11
43.30131399999999
 21
-19.01157399999999
 31
0.0
  0
ARC
  5
F2
330
1E
100
AcDbEntity
  8
MO_001_VIEW_PV
  6
C_SOLID_M
100
AcDbCircle
 10
27.129995
 20
-9.232503999999998
 30
0.0
 40
3.540008999999999
100
AcDbArc
 50
45.000001
 51
89.99998900000001
  0
ARC
  5
F3
330
1E
100
AcDbEntity
  8
MO_001_VIEW_PV
  6
C_SOLID_M
100
AcDbCircle
 10
27.129995
 20
-9.232503999999998
 30
0.0
 40
5.0
100
AcDbArc
 50
45.000001
 51
89.99998900000001
  0
LINE
  5
F4
330
1E
100
AcDbEntity
  8
MO_001_VIEW_PV
  6
C_SOLID_M
100
AcDbLine
 10
26.6
 20
-5.692495
 30
0.0
 11
27.129995
 21
-5.692495
 31
0.0
  0
LINE
  5
F5
330
1E
100
AcDbEntity
  8
MO_001_VIEW_PV
  6
C_SOLID_M
100
AcDbLine
 10
26.6
 20
-4.232504
 30
0.0
 11
29.129995
 21
-4.232504
 31
0.0
  0
LINE
  5
F6
330
1E
100
AcDbEntity
  8
MO_001_VIEW_PV
  6
C_SOLID_M
100
AcDbLine
 10
-59.57249799999999
 20
-12.489201
 30
0.0
 11
-60.000027
 21
-7.602524
 31
0.0
  0
LINE
  5
F7
330
1E
100
AcDbEntity
  8
MO_001_VIEW_PV
  6
C_SOLID_M
100
AcDbLine
 10
-58.118062
 20
-12.36195399999999
 30
0.0
 11
-58.64344
 21
-6.356862999999999
 31
0.0
  0
ARC
  5
F8
330
1E
100
AcDbEntity
  8
MO_001_VIEW_PV
  6
C_SOLID_M
100
AcDbCircle
 10
-59.184464
 20
-12.736385
 30
0.0
 40
0.4600680000000001
100
AcDbArc
 50
42.499373
 51
147.500572
  0
ARC
  5
F9
330
1E
100
AcDbEntity
  8
MO_001_VIEW_PV
  6
C_SOLID_M
100
AcDbCircle
 10
-59.23329200000001
 20
-12.178381
 30
0.0
 40
0.4600680000000001
100
AcDbArc
 50
222.4994399999999
 51
327.500597
  0
ARC
  5
FA
330
1E
100
AcDbEntity
  8
MO_001_VIEW_PV
  6
C_SOLID_M
100
AcDbCircle
 10
-58.506058
 20
-12.114758
 30
0.0
 40
0.4600680000000001
100
AcDbArc
 50
222.499577
 51
327.501144
  0
LINE
  5
FB
330
1E
100
AcDbEntity
  8
MO_001_VIEW_PV
  6
C_SOLID_M
100
AcDbLine
 10
-57.29005400000001
 20
-21.82580499999999
 30
0.0
 11
-58.03087399999999
 21
-13.358147
 31
0.0
  0
LINE
  5
FC
330
1E
100
AcDbEntity
  8
MO_001_VIEW_PV
  6
C_SOLID_M
100
AcDbLine
 10
-58.744489
 20
-21.95305199999999
 30
0.0
 11
-59.48531
 21
-13.485392
 31
0.0
  0
ARC
  5
FD
330
1E
100
AcDbEntity
  8
MO_001_VIEW_PV
  6
C_SOLID_M
100
AcDbCircle
 10
-58.370079
 20
-13.668959
 30
0.0
 40
0.4600680000000001
100
AcDbArc
 50
42.49942800000001
 51
147.500626
  0
ARC
  5
FE
330
1E
100
AcDbEntity
  8
MO_001_VIEW_PV
  6
C_SOLID_M
100
AcDbCircle
 10
-58.4189
 20
-13.110954
 30
0.0
 40
0.4600680000000001
100
AcDbArc
 50
222.499399
 51
327.500556
  0
ARC
  5
FF
330
1E
100
AcDbEntity
  8
MO_001_VIEW_PV
  6
C_SOLID_M
100
AcDbCircle
 10
-59.097298
 20
-13.732582
 30
0.0
 40
0.4600680000000001
100
AcDbArc
 50
42.49957799999999
 51
147.501145
  0
LINE
  5
100
330
1E
100
AcDbEntity
  8
MO_001_VIEW_PV
  6
C_SOLID_M
100
AcDbLine
 10
-58.744526
 20
-21.953057
 30
0.0
 11
-57.29009
 21
-21.82581
 31
0.0
  0
LINE
  5
101
330
1E
100
AcDbEntity
  8
MO_001_VIEW_PV
  6
C_SOLID_M
100
AcDbLine
 10
-57.768216
 20
-21.867638
 30
0.0
 11
-57.332434
 21
-26.8486
 31
0.0
  0
LINE
  5
102
330
1E
100
AcDbEntity
  8
MO_001_VIEW_PV
  6
C_SOLID_M
100
AcDbLine
 10
-58.266313
 20
-21.911214
 30
0.0
 11
-57.830531
 21
-26.892178
 31
0.0
  0
LINE
  5
103
330
1E
100
AcDbEntity
  8
MO_001_VIEW_PV
  6
C_SOLID_M
100
AcDbLine
 10
-57.830571
 20
-26.892186
 30
0.0
 11
-57.33247399999999
 21
-26.848608
 31
0.0
  0
ARC
  5
104
330
1E
100
AcDbEntity
  8
MO_001_VIEW_PV
  6
C_SOLID_M
100
AcDbCircle
 10
-61.493958
 20
-12.114758
 30
0.0
 40
0.4600680000000001
100
AcDbArc
 50
212.4994419999999
 51
317.500599
  0
ARC
  5
105
330
1E
100
AcDbEntity
  8
MO_001_VIEW_PV
  6
C_SOLID_M
100
AcDbCircle
 10
-61.542778
 20
-12.67276
 30
0.0
 40
0.4600680000000001
100
AcDbArc
 50
32.499375
 51
137.5005739999999
  0
ARC
  5
106
330
1E
100
AcDbEntity
  8
MO_001_VIEW_PV
  6
C_SOLID_M
100
AcDbCircle
 10
-60.76672399999999
 20
-12.178381
 30
0.0
 40
0.4600680000000001
100
AcDbArc
 50
212.499579
 51
317.501146
  0
ARC
  5
107
330
1E
100
AcDbEntity
  8
MO_001_VIEW_PV
  6
C_SOLID_M
100
AcDbCircle
 10
-60.90269499999999
 20
-13.732584
 30
0.0
 40
0.4600680000000001
100
AcDbArc
 50
32.49943
 51
137.500628
  0
ARC
  5
108
330
1E
100
AcDbEntity
  8
MO_001_VIEW_PV
  6
C_SOLID_M
100
AcDbCircle
 10
-60.85388199999999
 20
-13.17458
 30
0.0
 40
0.4600680000000001
100
AcDbArc
 50
212.4994009999999
 51
317.500558
  0
ARC
  5
109
330
1E
100
AcDbEntity
  8
MO_001_VIEW_PV
  6
C_SOLID_M
100
AcDbCircle
 10
-61.629913
 20
-13.66896099999999
 30
0.0
 40
0.4600680000000001
100
AcDbArc
 50
32.49958
 51
137.501147
  0
LINE
  5
10A
330
1E
100
AcDbEntity
  8
MO_001_VIEW_PV
  6
C_SOLID_M
100
AcDbLine
 10
-62.709943
 20
-21.825801
 30
0.0
 11
-61.969115
 21
-13.358143
 31
0.0
  0
LINE
  5
10B
330
1E
100
AcDbEntity
  8
MO_001_VIEW_PV
  6
C_SOLID_M
100
AcDbLine
 10
-61.25550699999999
 20
-21.953048
 30
0.0
 11
-60.514679
 21
-13.48538999999999
 31
0.0
  0
LINE
  5
10C
330
1E
100
AcDbEntity
  8
MO_001_VIEW_PV
  6
C_SOLID_M
100
AcDbLine
 10
-61.25553199999999
 20
-21.95305199999999
 30
0.0
 11
-62.709968
 21
-21.82580499999999
 31
0.0
  0
LINE
  5
10D
330
1E
100
AcDbEntity
  8
MO_001_VIEW_PV
  6
C_SOLID_M
100
AcDbLine
 10
-62.231776
 20
-21.86764099999999
 30
0.0
 11
-62.667552
 21
-26.848621
 31
0.0
  0
LINE
  5
10E
330
1E
100
AcDbEntity
  8
MO_001_VIEW_PV
  6
C_SOLID_M
100
AcDbLine
 10
-61.73367800000001
 20
-21.911219
 30
0.0
 11
-62.169454
 21
-26.892198
 31
0.0
  0
LINE
  5
10F
330
1E
100
AcDbEntity
  8
MO_001_VIEW_PV
  6
C_SOLID_M
100
AcDbLine
 10
-62.16947199999999
 20
-26.89219
 30
0.0
 11
-62.66756899999999
 21
-26.848612
 31
0.0
  0
LINE
  5
110
330
1E
100
AcDbEntity
  8
MO_001_VIEW_PV
  6
C_SOLID_M
100
AcDbLine
 10
-61.88199499999999
 20
-12.36195099999999
 30
0.0
 11
-61.35661800000001
 21
-6.35686
 31
0.0
  0
LINE
  5
111
330
1E
100
AcDbEntity
  8
MO_001_VIEW_PV
  6
C_SOLID_M
100
AcDbLine
 10
-60.42756
 20
-12.489197
 30
0.0
 11
-59.937897
 21
-6.892330999999999
 31
0.0
  0
LINE
  5
112
330
1E
100
AcDbEntity
  8
MO_001_VIEW_PV
  6
C_SOLID_L
100
AcDbLine
 10
-47.068542
 20
-15.0
 30
0.0
 11
-27.0
 21
-15.0
 31
0.0
  0
LINE
  5
113
330
1E
100
AcDbEntity
  8
MO_001_VIEW_PV
  6
C_SOLID_L
100
AcDbLine
 10
-49.788269
 20
-21.0
 30
0.0
 11
-24.626432
 21
-21.0
 31
0.0
  0
LINE
  5
114
330
1E
100
AcDbEntity
  8
MO_001_VIEW_PV
  6
C_SOLID_L
100
AcDbLine
 10
-16.795219
 20
-32.0
 30
0.0
 11
25.192526
 21
-32.0
 31
0.0
  0
ARC
  5
115
330
1E
100
AcDbEntity
  8
MO_001_VIEW_PV
  6
C_SOLID_M
100
AcDbCircle
 10
35.571877
 20
-8.976022999999999
 30
0.0
 40
0.4600680000000001
100
AcDbArc
 50
92.499572
 51
197.5011489999999
  0
ARC
  5
116
330
1E
100
AcDbEntity
  8
MO_001_VIEW_PV
  6
C_SOLID_M
100
AcDbCircle
 10
35.99058499999999
 20
-8.378038999999999
 30
0.0
 40
0.4600680000000001
100
AcDbArc
 50
92.499421
 51
197.50063
  0
ARC
  5
117
330
1E
100
AcDbEntity
  8
MO_001_VIEW_PV
  6
C_SOLID_M
100
AcDbCircle
 10
35.53175
 20
-8.056758999999999
 30
0.0
 40
0.4600680000000001
100
AcDbArc
 50
272.4993959999999
 51
17.500557
  0
LINE
  5
118
330
1E
100
AcDbEntity
  8
MO_001_VIEW_PV
  6
C_SOLID_M
100
AcDbLine
 10
42.93330599999999
 20
-12.793819
 30
0.0
 11
35.970508
 21
-7.918414
 31
0.0
  0
LINE
  5
119
330
1E
100
AcDbEntity
  8
MO_001_VIEW_PV
  6
C_SOLID_M
100
AcDbLine
 10
42.09589099999999
 20
-13.989772
 30
0.0
 11
35.133092
 21
-9.114367999999998
 31
0.0
  0
LINE
  5
11A
330
1E
100
AcDbEntity
  8
MO_001_VIEW_PV
  6
C_SOLID_M
100
AcDbLine
 10
42.37120599999999
 20
-13.59658299999999
 30
0.0
 11
46.466966
 21
-16.464465
 31
0.0
  0
LINE
  5
11B
330
1E
100
AcDbEntity
  8
MO_001_VIEW_PV
  6
C_SOLID_M
100
AcDbLine
 10
42.657994
 20
-13.187007
 30
0.0
 11
46.753754
 21
-16.054889
 31
0.0
  0
LINE
  5
11C
330
1E
100
AcDbEntity
  8
MO_001_VIEW_PV
  6
C_SOLID_M
100
AcDbLine
 10
46.466965
 20
-16.464464
 30
0.0
 11
46.753753
 21
-16.054888
 31
0.0
  0
LINE
  5
11D
330
1E
100
AcDbEntity
  8
MO_001_VIEW_PV
  6
C_SOLID_M
100
AcDbLine
 10
42.09589199999999
 20
-13.98977
 30
0.0
 11
42.93330599999999
 21
-12.793819
 31
0.0
  0
LINE
  5
11E
330
1E
100
AcDbEntity
  8
MO_001_VIEW_PV
  6
C_SOLID_M
100
AcDbLine
 10
34.313941
 20
-8.540789
 30
0.0
 11
31.630104
 21
-6.661547
 31
0.0
  0
ARC
  5
11F
330
1E
100
AcDbEntity
  8
MO_001_VIEW_PV
  6
C_SOLID_M
100
AcDbCircle
 10
34.752716
 20
-8.402453999999998
 30
0.0
 40
0.4600680000000001
100
AcDbArc
 50
92.49936700000001
 51
197.500575
  0
ARC
  5
120
330
1E
100
AcDbEntity
  8
MO_001_VIEW_PV
  6
C_SOLID_M
100
AcDbCircle
 10
34.29388
 20
-8.081172999999999
 30
0.0
 40
0.4600680000000001
100
AcDbArc
 50
272.499437
 51
17.500598
  0
ARC
  5
121
330
1E
100
AcDbEntity
  8
MO_001_VIEW_PV
  6
C_SOLID_M
100
AcDbCircle
 10
34.71259299999999
 20
-7.483189999999999
 30
0.0
 40
0.4600680000000001
100
AcDbArc
 50
272.499574
 51
17.501144
  0
LINE
  5
122
330
1E
100
AcDbEntity
  8
MO_001_VIEW_PV
  6
C_SOLID_M
100
AcDbLine
 10
35.151362
 20
-7.344841
 30
0.0
 11
31.997877
 21
-5.136745999999999
 31
0.0
  0
ARC
  5
123
330
1E
100
AcDbEntity
  8
MO_001_VIEW_PV
  6
C_SOLID_M
100
AcDbCircle
 10
29.129995
 20
-9.232503999999998
 30
0.0
 40
5.0
100
AcDbArc
 50
54.999999
 51
90.000002
  0
LINE
  5
124
330
1E
100
AcDbEntity
  8
MO_001_VIEW_PV
  6
C_CENTER_L
100
AcDbLine
 10
66.0
 20
-7.0
 30
0.0
 11
66.0
 21
-23.0
 31
0.0
  0
LINE
  5
125
330
1E
100
AcDbEntity
  8
MO_001_VIEW_PV
  6
C_CENTER_L
100
AcDbLine
 10
58.0
 20
-15.0
 30
0.0
 11
74.0
 21
-15.0
 31
0.0
  0
ARC
  5
126
330
1E
100
AcDbEntity
  8
MO_001_VIEW_PV
  6
C_SOLID_M
100
AcDbCircle
 10
66.0
 20
-15.0
 30
0.0
 40
4.599999999999999
100
AcDbArc
 50
29.59184199999999
 51
330.408161
  0
LINE
  5
127
330
1E
100
AcDbEntity
  8
MO_001_VIEW_PV
  6
C_SOLID_M
100
AcDbLine
 10
70.0
 20
-12.728437
 30
0.0
 11
70.0
 21
-17.271564
 31
0.0
  0
LINE
  5
128
330
1E
100
AcDbEntity
  8
MO_001_VIEW_PV
  6
C_SOLID_L
100
AcDbLine
 10
57.33974599999999
 20
-29.999999
 30
0.0
 11
63.699998
 21
-18.98371799999999
 31
0.0
  0
LINE
  5
129
330
1E
100
AcDbEntity
  8
MO_001_VIEW_PV
  6
C_SOLID_L
100
AcDbLine
 10
57.339748
 20
-30.0
 30
0.0
 11
78.0
 21
-30.0
 31
0.0
  0
TEXT
  5
12A
330
1E
100
AcDbEntity
  8
MO_001_VIEW_PV
  6
C_SOLID_L
100
AcDbText
 10
-58.48828100000001
 20
-47.08359399999999
 30
0.0
 40
4.167187
  1
S-50 Pull
100
AcDbText
  0
TEXT
  5
12B
330
1E
100
AcDbEntity
  8
MO_001_VIEW_PV
  6
C_SOLID_L
100
AcDbText
 10
13.21428599999999
 20
-47.5
 30
0.0
 40
5.0
  1
単位：mm
100
AcDbText
  0
TEXT
  5
12C
330
1E
100
AcDbEntity
  8
MO_001_VIEW_PV
  6
C_SOLID_L
100
AcDbText
 10
-14.947392
 20
-31.396509
 30
0.0
 40
3.0
  1
長さ150以上
100
AcDbText
  0
TEXT
  5
12D
330
1E
100
AcDbEntity
  8
MO_001_VIEW_PV
  6
C_SOLID_L
100
AcDbText
 10
-16.09972999999999
 20
-35.852219
 30
0.0
 40
3.0
  1
(UL1430 AWG28)
100
AcDbText
  0
TEXT
  5
12E
330
1E
100
AcDbEntity
  8
MO_001_VIEW_PV
  6
C_SOLID_L
100
AcDbText
 10
-48.830683
 20
-20.486235
 30
0.0
 40
3.0
  1
M9 P0.75
100
AcDbText
  0
TEXT
  5
12F
330
1E
100
AcDbEntity
  8
MO_001_VIEW_PV
  6
C_SOLID_L
100
AcDbText
 10
-33.139009
 20
-12.392138
 30
0.0
 40
1.5
  1
+0.1
100
AcDbText
  0
TEXT
  5
130
330
1E
100
AcDbEntity
  8
MO_001_VIEW_PV
  6
C_SOLID_L
100
AcDbText
 10
-33.139009
 20
-14.642138
 30
0.0
 40
1.5
  1
 0
100
AcDbText
  0
TEXT
  5
131
330
1E
100
AcDbEntity
  8
MO_001_VIEW_PV
  6
C_SOLID_L
100
AcDbText
 10
-44.924723
 20
-14.267138
 30
0.0
 40
3.0
  1
%%C1.6
100
AcDbText
  0
TEXT
  5
132
330
1E
100
AcDbEntity
  8
MO_001_VIEW_PV
  6
C_SOLID_L
100
AcDbText
 10
72.408629
 20
-27.310104
 30
0.0
 40
1.5
  1
%%P0.1
100
AcDbText
  0
TEXT
  5
133
330
1E
100
AcDbEntity
  8
MO_001_VIEW_PV
  6
C_SOLID_L
100
AcDbText
 10
60.622915
 20
-29.185104
 30
0.0
 40
3.0
  1
%%C9.2
100
AcDbText
  0
TEXT
  5
134
330
1E
100
AcDbEntity
  8
MO_001_VIEW_PV
  6
C_SOLID_L
100
AcDbText
 10
58.214286
 20
-47.5
 30
0.0
 40
5.0
  1
取付け穴
100
AcDbText
  0
TEXT
  5
135
330
1E
100
AcDbEntity
  8
MO_001_VIEW_PV
  6
C_SOLID_L
100
AcDbText
 10
13.21428599999999
 20
-53.5
 30
0.0
 40
5.0
  1
図は励磁時を示す
100
AcDbText
  0
TEXT
  5
136
330
1E
100
AcDbEntity
  8
MO_001_VIEW_PV
  6
C_SOLID_L
100
AcDbText
 10
-56.19948
 20
-34.269562
 30
0.0
 40
3.0
  1
M9 P0.75の不完全
100
AcDbText
  0
TEXT
  5
137
330
1E
100
AcDbEntity
  8
MO_001_VIEW_PV
  6
C_SOLID_L
100
AcDbText
 10
-56.19948
 20
-38.769562
 30
0.0
 40
3.0
  1
ネジ部 1.5以下
100
AcDbText
  0
DIMENSION
  5
139
330
1E
100
AcDbEntity
  8
MO_001_VIEW_PV
  6
C_SOLID_M
100
AcDbDimension
  2
*D0
 10
13.3
 20
24.0
 30
0.0
 11
13.3
 21
24.0
 31
0.0
  3
STANDARD
100
AcDbAlignedDimension
 13
26.6
 23
6.5
 33
0.0
 14
0.0
 24
6.5
 34
0.0
100
AcDbRotatedDimension
  0
DIMENSION
  5
13B
330
1E
100
AcDbEntity
  8
MO_001_VIEW_PV
  6
C_SOLID_M
100
AcDbDimension
  2
*D1
 10
-8.75
 20
24.0
 30
0.0
 11
-8.75
 21
24.0
 31
0.0
  3
STANDARD
100
AcDbAlignedDimension
 13
0.0
 23
6.5
 33
0.0
 14
-17.5
 24
2.5
 34
0.0
100
AcDbRotatedDimension
  0
DIMENSION
  5
13D
330
1E
100
AcDbEntity
  8
MO_001_VIEW_PV
  6
C_SOLID_M
100
AcDbDimension
  2
*D2
 10
9.35743
 20
18.0
 30
0.0
 11
9.35743
 21
18.0
 31
0.0
  3
STANDARD
100
AcDbAlignedDimension
 13
0.0
 23
6.5
 33
0.0
 14
-14.3
 24
4.208938999999999
 34
0.0
100
AcDbRotatedDimension
  0
DIMENSION
  5
13F
330
1E
100
AcDbEntity
  8
MO_001_VIEW_PV
  6
C_SOLID_M
100
AcDbDimension
  2
*D3
 10
11.559174
 20
12.0
 30
0.0
 11
11.559174
 21
12.0
 31
0.0
  3
STANDARD
100
AcDbAlignedDimension
 13
-6.4
 23
3.75
 33
0.0
 14
0.0
 24
6.5
 34
0.0
100
AcDbRotatedDimension
  0
DIMENSION
  5
141
330
1E
100
AcDbEntity
  8
MO_001_VIEW_PV
  6
C_SOLID_M
100
AcDbDimension
  2
*D4
 10
-45.009529
 20
24.0
 30
0.0
 11
-45.009529
 21
24.0
 31
0.0
  3
STANDARD
100
AcDbAlignedDimension
 13
-53.5
 23
0.0
 33
0.0
 14
-66.5
 24
0.0
 34
0.0
100
AcDbRotatedDimension
  0
DIMENSION
  5
143
330
1E
100
AcDbEntity
  8
MO_001_VIEW_PV
  6
C_SOLID_M
100
AcDbDimension
  2
*D5
 10
-47.05401199999999
 20
18.0
 30
0.0
 11
-47.05401199999999
 21
18.0
 31
0.0
  3
STANDARD
100
AcDbAlignedDimension
 13
-54.0
 23
3.464101999999999
 33
0.0
 14
-66.0
 24
3.464101999999999
 34
0.0
100
AcDbRotatedDimension
  0
DIMENSION
  5
145
330
1E
100
AcDbEntity
  8
MO_001_VIEW_PV
  6
C_SOLID_M
100
AcDbDimension
  2
*D6
 10
-44.380459
 20
12.0
 30
0.0
 11
-44.380459
 21
12.0
 31
0.0
  3
STANDARD
100
AcDbAlignedDimension
 13
-56.099998
 23
2.244991999999999
 33
0.0
 14
-60.0
 24
10.0
 34
0.0
100
AcDbRotatedDimension
  0
DIMENSION
  5
147
330
1E
100
AcDbEntity
  8
MO_001_VIEW_PV
  6
C_SOLID_M
100
AcDbDimension
  2
*D7
 10
1.402129999999999
 20
-24.0
 30
0.0
 11
1.402129999999999
 21
-24.0
 31
0.0
  3
STANDARD
100
AcDbAlignedDimension
 13
-17.5
 23
-2.5
 33
0.0
 14
-11.00000099999999
 24
-0.9
 34
0.0
100
AcDbRotatedDimension
  0
LINE
  5
148
330
1E
100
AcDbEntity
  8
MO_001_VIEW_PV
  6
C_SOLID_L
100
AcDbLine
 10
-14.300001
 20
-2.368545
 30
0.0
 11
-26.931458
 21
-15.000001
 31
0.0
  0
POLYLINE
  5
149
330
1E
100
AcDbEntity
  8
MO_001_VIEW_PV
  6
C_SOLID_L
100
AcDb2dPolyline
 66
     1
 10
0.0
 20
0.0
 30
0.0
 70
     1
  0
VERTEX
  5
228
330
149
100
AcDbEntity
  8
MO_001_VIEW_PV
  6
C_SOLID_L
100
AcDbVertex
100
AcDb2dVertex
 10
-16.23376
 20
-5.127513999999999
 30
0.0
  0
VERTEX
  5
229
330
149
100
AcDbEntity
  8
MO_001_VIEW_PV
  6
C_SOLID_L
100
AcDbVertex
100
AcDb2dVertex
 10
-14.659211
 20
-2.727754999999999
 30
0.0
  0
VERTEX
  5
22A
330
149
100
AcDbEntity
  8
MO_001_VIEW_PV
  6
C_SOLID_L
100
AcDbVertex
100
AcDb2dVertex
 10
-17.05897
 20
-4.302304
 30
0.0
  0
SEQEND
  5
22B
330
149
100
AcDbEntity
  8
MO_001_VIEW_PV
  6
C_SOLID_L
  0
LINE
  5
14E
330
1E
100
AcDbEntity
  8
MO_001_VIEW_PV
  6
C_SOLID_L
100
AcDbLine
 10
-4.9625
 20
-4.5
 30
0.0
 11
-24.626435
 21
-21.000001
 31
0.0
  0
POLYLINE
  5
14F
330
1E
100
AcDbEntity
  8
MO_001_VIEW_PV
  6
C_SOLID_L
100
AcDb2dPolyline
 66
     1
 10
0.0
 20
0.0
 30
0.0
 70
     1
  0
VERTEX
  5
22C
330
14F
100
AcDbEntity
  8
MO_001_VIEW_PV
  6
C_SOLID_L
100
AcDbVertex
100
AcDb2dVertex
 10
-7.12936
 20
-7.079932
 30
0.0
  0
VERTEX
  5
22D
330
14F
100
AcDbEntity
  8
MO_001_VIEW_PV
  6
C_SOLID_L
100
AcDbVertex
100
AcDb2dVertex
 10
-5.35165
 20
-4.826535999999999
 30
0.0
  0
VERTEX
  5
22E
330
14F
100
AcDbEntity
  8
MO_001_VIEW_PV
  6
C_SOLID_L
100
AcDbVertex
100
AcDb2dVertex
 10
-7.879508
 20
-6.185941
 30
0.0
  0
SEQEND
  5
22F
330
14F
100
AcDbEntity
  8
MO_001_VIEW_PV
  6
C_SOLID_L
  0
LINE
  5
154
330
1E
100
AcDbEntity
  8
MO_001_VIEW_PV
  6
C_SOLID_L
100
AcDbLine
 10
36.067615
 20
-13.163795
 30
0.0
 11
25.192526
 21
-32.0
 31
0.0
  0
POLYLINE
  5
155
330
1E
100
AcDbEntity
  8
MO_001_VIEW_PV
  6
C_SOLID_L
100
AcDb2dPolyline
 66
     1
 10
0.0
 20
0.0
 30
0.0
 70
     1
  0
VERTEX
  5
230
330
155
100
AcDbEntity
  8
MO_001_VIEW_PV
  6
C_SOLID_L
100
AcDbVertex
100
AcDb2dVertex
 10
34.913821
 20
-16.329248
 30
0.0
  0
VERTEX
  5
231
330
155
100
AcDbEntity
  8
MO_001_VIEW_PV
  6
C_SOLID_L
100
AcDbVertex
100
AcDb2dVertex
 10
35.813615
 20
-13.60373599999999
 30
0.0
  0
VERTEX
  5
232
330
155
100
AcDbEntity
  8
MO_001_VIEW_PV
  6
C_SOLID_L
100
AcDbVertex
100
AcDb2dVertex
 10
33.90314899999999
 20
-15.74573599999999
 30
0.0
  0
SEQEND
  5
233
330
155
100
AcDbEntity
  8
MO_001_VIEW_PV
  6
C_SOLID_L
  0
DIMENSION
  5
15B
330
1E
100
AcDbEntity
  8
MO_001_VIEW_PV
  6
C_SOLID_M
100
AcDbDimension
  2
*D8
 10
-24.0
 20
12.154819
 30
0.0
 11
-24.0
 21
12.154819
 31
0.0
  3
STANDARD
100
AcDbAlignedDimension
 13
-17.5
 23
0.9
 33
0.0
 14
-17.5
 24
-0.9
 34
0.0
 50
270.012145
100
AcDbRotatedDimension
  0
DIMENSION
  5
15D
330
1E
100
AcDbEntity
  8
MO_001_VIEW_PV
  6
C_SOLID_M
100
AcDbDimension
  2
*D9
 10
-30.0
 20
13.255695
 30
0.0
 11
-30.0
 21
13.255695
 31
0.0
  3
STANDARD
100
AcDbAlignedDimension
 13
-17.5
 23
2.5
 33
0.0
 14
-17.5
 24
-2.5
 34
0.0
 50
270.012145
100
AcDbRotatedDimension
  0
DIMENSION
  5
15F
330
1E
100
AcDbEntity
  8
MO_001_VIEW_PV
  6
C_SOLID_M
100
AcDbDimension
  2
*D10
 10
81.500839
 20
3.0
 30
0.0
 11
81.500839
 21
3.0
 31
0.0
  3
STANDARD
100
AcDbAlignedDimension
 13
70.0
 23
-12.728437
 33
0.0
 14
61.400002
 24
-15.0
 34
0.0
100
AcDbRotatedDimension
  0
DIMENSION
  5
161
330
1E
100
AcDbEntity
  8
MO_001_VIEW_PV
  6
C_SOLID_M
100
AcDbDimension
  2
*D11
 10
78.0
 20
-3.0
 30
0.0
 11
78.0
 21
-3.0
 31
0.0
  1
(4)
  3
STANDARD
100
AcDbAlignedDimension
 13
70.0
 23
-12.728437
 33
0.0
 14
66.0
 24
-7.0
 34
0.0
100
AcDbRotatedDimension
  0
LINE
  5
162
330
1E
100
AcDbEntity
  8
MO_001_VIEW_PV
  6
C_SOLID_L
100
AcDbLine
 10
68.300003
 20
-11.01627799999999
 30
0.0
 11
65.999999
 21
-14.99999599999999
 31
0.0
  0
POLYLINE
  5
163
330
1E
100
AcDbEntity
  8
MO_001_VIEW_PV
  6
C_SOLID_L
100
AcDb2dPolyline
 66
     1
 10
0.0
 20
0.0
 30
0.0
 70
     1
  0
VERTEX
  5
234
330
163
100
AcDbEntity
  8
MO_001_VIEW_PV
  6
C_SOLID_L
100
AcDbVertex
100
AcDb2dVertex
 10
67.14620699999999
 20
-14.18173099999999
 30
0.0
  0
VERTEX
  5
235
330
163
100
AcDbEntity
  8
MO_001_VIEW_PV
  6
C_SOLID_L
100
AcDbVertex
100
AcDb2dVertex
 10
68.046002
 20
-11.456219
 30
0.0
  0
VERTEX
  5
236
330
163
100
AcDbEntity
  8
MO_001_VIEW_PV
  6
C_SOLID_L
100
AcDbVertex
100
AcDb2dVertex
 10
66.135535
 20
-13.598219
 30
0.0
  0
SEQEND
  5
237
330
163
100
AcDbEntity
  8
MO_001_VIEW_PV
  6
C_SOLID_L
  0
LINE
  5
168
330
1E
100
AcDbEntity
  8
MO_001_VIEW_PV
  6
C_SOLID_L
100
AcDbLine
 10
63.70000699999999
 20
-18.983717
 30
0.0
 11
66.000006
 21
-14.99999899999999
 31
0.0
  0
POLYLINE
  5
169
330
1E
100
AcDbEntity
  8
MO_001_VIEW_PV
  6
C_SOLID_L
100
AcDb2dPolyline
 66
     1
 10
0.0
 20
0.0
 30
0.0
 70
     1
  0
VERTEX
  5
238
330
169
100
AcDbEntity
  8
MO_001_VIEW_PV
  6
C_SOLID_L
100
AcDbVertex
100
AcDb2dVertex
 10
64.853801
 20
-15.818263
 30
0.0
  0
VERTEX
  5
239
330
169
100
AcDbEntity
  8
MO_001_VIEW_PV
  6
C_SOLID_L
100
AcDbVertex
100
AcDb2dVertex
 10
63.95400699999999
 20
-18.543776
 30
0.0
  0
VERTEX
  5
23A
330
169
100
AcDbEntity
  8
MO_001_VIEW_PV
  6
C_SOLID_L
100
AcDbVertex
100
AcDb2dVertex
 10
65.86447199999999
 20
-16.40177399999999
 30
0.0
  0
SEQEND
  5
23B
330
169
100
AcDbEntity
  8
MO_001_VIEW_PV
  6
C_SOLID_L
  0
ENDSEC
  0
SECTION
  2
OBJECTS
  0
DICTIONARY
  5
1A
330
0
100
AcDbDictionary
  3
ACAD_GROUP
350
1B
  3
ACAD_MLINESTYLE
350
1C
  3
ACAD_LAYOUT
350
1FC
  3
ACAD_PLOTSETTINGS
350
1FD
1001
ACAD
1000
TREAT_AS_HARD
1070
     0
  0
DICTIONARY
  5
202
330
1E
100
AcDbDictionary
  3
ACAD_LAYOUTSELFREF
350
203
  0
DICTIONARY
  5
204
330
1F
100
AcDbDictionary
  3
ACAD_LAYOUTSELFREF
350
205
  0
DICTIONARY
  5
1B
102
{ACAD_REACTORS
330
1A
102
}
330
1A
100
AcDbDictionary
1001
ACAD
1000
TREAT_AS_HARD
1070
     0
  0
DICTIONARY
  5
1C
102
{ACAD_REACTORS
330
1A
102
}
330
1A
100
AcDbDictionary
  3
STANDARD
350
1D
1001
ACAD
1000
TREAT_AS_HARD
1070
     0
  0
DICTIONARY
  5
1FC
102
{ACAD_REACTORS
330
1A
102
}
330
1A
100
AcDbDictionary
1001
ACAD
1000
TREAT_AS_HARD
1070
     0
  0
DICTIONARY
  5
1FD
102
{ACAD_REACTORS
330
1A
102
}
330
1A
100
AcDbDictionary
1001
ACAD
1000
TREAT_AS_HARD
1070
     0
  0
XRECORD
  5
203
102
{ACAD_REACTORS
330
202
102
}
330
202
100
AcDbXrecord
340
1E
  0
XRECORD
  5
205
102
{ACAD_REACTORS
330
204
102
}
330
204
100
AcDbXrecord
340
1F
  0
MLINESTYLE
  5
1D
102
{ACAD_REACTORS
330
1C
102
}
330
1C
100
AcDbMlineStyle
  2
STANDARD
 70
     0
  3

 62
     0
 51
90.0
 52
90.0
 71
     2
 49
0.5
 62
   256
  6
BYLAYER
 49
-0.5
 62
   256
  6
BYLAYER
  0
ENDSEC
  0
EOF
