  0
SECTION
  2
HEADER
  9
$ACADVER
  1
AC1012
  9
$DWGCODEPAGE
  3
dos932
  9
$INSBASE
 10
0.0
 20
0.0
 30
0.0
  9
$EXTMIN
 10
-90.76322242082211
 20
-59.08761175068403
 30
-0.0015258207003583
  9
$EXTMAX
 10
95.42403650846546
 20
40.12685901803769
 30
0.0000000349246037
  9
$LIMMIN
 10
-93.0
 20
-62.20898399999999
  9
$LIMMAX
 10
95.418286
 20
42.0
  9
$ORTHOMODE
 70
     0
  9
$REGENMODE
 70
     1
  9
$FILLMODE
 70
     1
  9
$QTEXTMODE
 70
     0
  9
$MIRRTEXT
 70
     1
  9
$DRAGMODE
 70
     2
  9
$LTSCALE
 40
1.0
  9
$OSMODE
 70
    37
  9
$ATTMODE
 70
     1
  9
$TEXTSIZE
 40
4.1672
  9
$TRACEWID
 40
0.05
  9
$TEXTSTYLE
  7
STANDARD
  9
$CLAYER
  8
0
  9
$CELTYPE
  6
CONTINUOUS
  9
$CECOLOR
 62
   256
  9
$CELTSCALE
 40
1.0
  9
$DELOBJ
 70
     1
  9
$DISPSILH
 70
     0
  9
$DIMSCALE
 40
1.0
  9
$DIMASZ
 40
0.18
  9
$DIMEXO
 40
0.0625
  9
$DIMDLI
 40
0.38
  9
$DIMRND
 40
0.0
  9
$DIMDLE
 40
0.0
  9
$DIMEXE
 40
0.18
  9
$DIMTP
 40
0.0
  9
$DIMTM
 40
0.0
  9
$DIMTXT
 40
0.18
  9
$DIMCEN
 40
0.09
  9
$DIMTSZ
 40
0.0
  9
$DIMTOL
 70
     0
  9
$DIMLIM
 70
     0
  9
$DIMTIH
 70
     1
  9
$DIMTOH
 70
     1
  9
$DIMSE1
 70
     0
  9
$DIMSE2
 70
     0
  9
$DIMTAD
 70
     0
  9
$DIMZIN
 70
     0
  9
$DIMBLK
  1

  9
$DIMASO
 70
     1
  9
$DIMSHO
 70
     1
  9
$DIMPOST
  1

  9
$DIMAPOST
  1

  9
$DIMALT
 70
     0
  9
$DIMALTD
 70
     2
  9
$DIMALTF
 40
25.4
  9
$DIMLFAC
 40
1.0
  9
$DIMTOFL
 70
     0
  9
$DIMTVP
 40
0.0
  9
$DIMTIX
 70
     0
  9
$DIMSOXD
 70
     0
  9
$DIMSAH
 70
     0
  9
$DIMBLK1
  1

  9
$DIMBLK2
  1

  9
$DIMSTYLE
  2
STANDARD
  9
$DIMCLRD
 70
     0
  9
$DIMCLRE
 70
     0
  9
$DIMCLRT
 70
     0
  9
$DIMTFAC
 40
1.0
  9
$DIMGAP
 40
0.09
  9
$DIMJUST
 70
     0
  9
$DIMSD1
 70
     0
  9
$DIMSD2
 70
     0
  9
$DIMTOLJ
 70
     1
  9
$DIMTZIN
 70
     0
  9
$DIMALTZ
 70
     0
  9
$DIMALTTZ
 70
     0
  9
$DIMFIT
 70
     3
  9
$DIMUPT
 70
     0
  9
$DIMUNIT
 70
     2
  9
$DIMDEC
 70
     4
  9
$DIMTDEC
 70
     4
  9
$DIMALTU
 70
     2
  9
$DIMALTTD
 70
     2
  9
$DIMTXSTY
  7
STANDARD
  9
$DIMAUNIT
 70
     0
  9
$LUNITS
 70
     2
  9
$LUPREC
 70
     6
  9
$SKETCHINC
 40
0.1
  9
$FILLETRAD
 40
0.0
  9
$AUNITS
 70
     0
  9
$AUPREC
 70
     4
  9
$MENU
  1
acad
  9
$ELEVATION
 40
0.0
  9
$PELEVATION
 40
0.0
  9
$THICKNESS
 40
0.0
  9
$LIMCHECK
 70
     0
  9
$BLIPMODE
 70
     0
  9
$CHAMFERA
 40
0.0
  9
$CHAMFERB
 40
0.0
  9
$CHAMFERC
 40
0.0
  9
$CHAMFERD
 40
0.0
  9
$SKPOLY
 70
     0
  9
$TDCREATE
 40
2376126.114255821
  9
$TDUPDATE
 40
2451667.438220833
  9
$TDINDWG
 40
0.0011379630
  9
$TDUSRTIMER
 40
0.0011379630
  9
$USRTIMER
 70
     1
  9
$ANGBASE
 50
0.0
  9
$ANGDIR
 70
     0
  9
$PDMODE
 70
     0
  9
$PDSIZE
 40
0.0
  9
$PLINEWID
 40
0.0
  9
$COORDS
 70
     1
  9
$SPLFRAME
 70
     0
  9
$SPLINETYPE
 70
     6
  9
$SPLINESEGS
 70
     8
  9
$ATTDIA
 70
     0
  9
$ATTREQ
 70
     1
  9
$HANDLING
 70
 10241
  9
$HANDSEED
  5
219
  9
$SURFTAB1
 70
     6
  9
$SURFTAB2
 70
     6
  9
$SURFTYPE
 70
     6
  9
$SURFU
 70
     6
  9
$SURFV
 70
     6
  9
$UCSNAME
  2
MO_001_VIEW_PV_P
  9
$UCSORG
 10
0.0
 20
0.0
 30
0.0
  9
$UCSXDIR
 10
1.0
 20
0.0
 30
0.0
  9
$UCSYDIR
 10
-0.0000000002051034
 20
1.0
 30
0.0
  9
$PUCSNAME
  2

  9
$PUCSORG
 10
0.0
 20
0.0
 30
0.0
  9
$PUCSXDIR
 10
1.0
 20
0.0
 30
0.0
  9
$PUCSYDIR
 10
0.0
 20
1.0
 30
0.0
  9
$USERI1
 70
     0
  9
$USERI2
 70
     0
  9
$USERI3
 70
     0
  9
$USERI4
 70
     0
  9
$USERI5
 70
     0
  9
$USERR1
 40
0.0
  9
$USERR2
 40
0.0
  9
$USERR3
 40
0.0
  9
$USERR4
 40
0.0
  9
$USERR5
 40
0.0
  9
$WORLDVIEW
 70
     1
  9
$SHADEDGE
 70
     3
  9
$SHADEDIF
 70
    70
  9
$TILEMODE
 70
     1
  9
$MAXACTVP
 70
    16
  9
$PINSBASE
 10
0.0
 20
0.0
 30
0.0
  9
$PLIMCHECK
 70
     0
  9
$PEXTMIN
 10
-93.0
 20
-62.20898399999999
 30
1.000000000000000E+20
  9
$PEXTMAX
 10
95.418286
 20
42.0
 30
-1.000000000000000E+20
  9
$PLIMMIN
 10
0.0
 20
0.0
  9
$PLIMMAX
 10
12.0
 20
9.0
  9
$UNITMODE
 70
     0
  9
$VISRETAIN
 70
     0
  9
$PLINEGEN
 70
     0
  9
$PSLTSCALE
 70
     1
  9
$TREEDEPTH
 70
  3020
  9
$PICKSTYLE
 70
     1
  9
$CMLSTYLE
  2
STANDARD
  9
$CMLJUST
 70
     0
  9
$CMLSCALE
 40
1.0
  9
$SAVEIMAGES
 70
     1
  0
ENDSEC
  0
SECTION
  2
CLASSES
  0
CLASS
  1
ACDBDICTIONARYWDFLT
  2
AcDbDictionaryWithDefault
  3
AutoCAD 2000
 90
    32768
280
     0
281
     0
  0
CLASS
  1
ACDBPLACEHOLDER
  2
AcDbPlaceHolder
  3
AutoCAD 2000
 90
    32768
280
     0
281
     0
  0
CLASS
  1
LAYOUT
  2
AcDbLayout
  3
AutoCAD 2000
 90
    32768
280
     0
281
     0
  0
CLASS
  1
LONG_TRANSACTION
  2
AcDbLongTransaction
  3
AutoCAD 2000
 90
    32768
280
     0
281
     0
  0
CLASS
  1
LWPOLYLINE
  2
AcDbPolyline
  3
AutoCAD 2000
 90
    32768
280
     0
281
     1
  0
CLASS
  1
HATCH
  2
AcDbHatch
  3
AutoCAD 2000
 90
    32768
280
     0
281
     1
  0
CLASS
  1
XRECORD
  2
AcDbXrecord
  3
AutoCAD 2000
 90
    32768
280
     0
281
     0
  0
ENDSEC
  0
SECTION
  2
TABLES
  0
TABLE
  2
VPORT
  5
7
330
0
100
AcDbSymbolTable
 70
     2
  0
VPORT
  5
1D8
330
7
100
AcDbSymbolTableRecord
100
AcDbViewportTableRecord
  2
*ACTIVE
 70
     0
 10
0.0
 20
0.0
 11
1.0
 21
1.0
 12
7.238246673567118
 22
-13.66616868152161
 13
0.0
 23
0.0
 14
6.349999999999999
 24
6.349999999999999
 15
6.349999999999999
 25
6.349999999999999
 16
0.0
 26
0.0
 36
1.0
 17
0.0
 27
0.0
 37
0.0
 40
178.0838385072326
 41
1.691964285714285
 42
50.0
 43
0.0
 44
0.0
 50
0.0
 51
0.0
 71
     0
 72
   100
 73
     1
 74
     1
 75
     0
 76
     0
 77
     0
 78
     0
  0
ENDTAB
  0
TABLE
  2
LTYPE
  5
4
330
0
100
AcDbSymbolTable
 70
    37
  0
LTYPE
  5
12
330
4
100
AcDbSymbolTableRecord
100
AcDbLinetypeTableRecord
  2
BYBLOCK
 70
     0
  3

 72
    65
 73
     0
 40
0.0
  0
LTYPE
  5
13
330
4
100
AcDbSymbolTableRecord
100
AcDbLinetypeTableRecord
  2
BYLAYER
 70
     0
  3

 72
    65
 73
     0
 40
0.0
  0
LTYPE
  5
14
330
4
100
AcDbSymbolTableRecord
100
AcDbLinetypeTableRecord
  2
CONTINUOUS
 70
     0
  3
DXF Default line type
 72
    65
 73
     0
 40
0.0
  0
LTYPE
  5
20
330
4
100
AcDbSymbolTableRecord
100
AcDbLinetypeTableRecord
  2
DASHED
 70
     0
  3
DXF Dashed
 72
    65
 73
     2
 40
0.75
 49
0.5
 74
     0
 49
-0.25
 74
     0
  0
LTYPE
  5
21
330
4
100
AcDbSymbolTableRecord
100
AcDbLinetypeTableRecord
  2
HIDDEN
 70
     0
  3
DXF Hidden
 72
    65
 73
     2
 40
0.375
 49
0.25
 74
     0
 49
-0.125
 74
     0
  0
LTYPE
  5
22
330
4
100
AcDbSymbolTableRecord
100
AcDbLinetypeTableRecord
  2
CENTER
 70
     0
  3
DXF Center
 72
    65
 73
     4
 40
2.0
 49
1.25
 74
     0
 49
-0.25
 74
     0
 49
0.25
 74
     0
 49
-0.25
 74
     0
  0
LTYPE
  5
23
330
4
100
AcDbSymbolTableRecord
100
AcDbLinetypeTableRecord
  2
PHANTOM
 70
     0
  3
DXF Phantom
 72
    65
 73
     6
 40
2.5
 49
1.25
 74
     0
 49
-0.25
 74
     0
 49
0.25
 74
     0
 49
-0.25
 74
     0
 49
0.25
 74
     0
 49
-0.25
 74
     0
  0
LTYPE
  5
24
330
4
100
AcDbSymbolTableRecord
100
AcDbLinetypeTableRecord
  2
DOT
 70
     0
  3
DXF DOT
 72
    65
 73
     2
 40
0.25
 49
0.0
 74
     0
 49
-0.25
 74
     0
  0
LTYPE
  5
25
330
4
100
AcDbSymbolTableRecord
100
AcDbLinetypeTableRecord
  2
DASHDOT
 70
     0
  3
DXF Dash Dot
 72
    65
 73
     4
 40
1.0
 49
0.5
 74
     0
 49
-0.25
 74
     0
 49
0.0
 74
     0
 49
-0.25
 74
     0
  0
LTYPE
  5
26
330
4
100
AcDbSymbolTableRecord
100
AcDbLinetypeTableRecord
  2
BORDER
 70
     0
  3
DXF Border
 72
    65
 73
     6
 40
1.75
 49
0.5
 74
     0
 49
-0.25
 74
     0
 49
0.5
 74
     0
 49
-0.25
 74
     0
 49
0.0
 74
     0
 49
-0.25
 74
     0
  0
LTYPE
  5
27
330
4
100
AcDbSymbolTableRecord
100
AcDbLinetypeTableRecord
  2
DIVIDE
 70
     0
  3
DXF Divide
 72
    65
 73
     6
 40
1.25
 49
0.5
 74
     0
 49
-0.25
 74
     0
 49
0.0
 74
     0
 49
-0.25
 74
     0
 49
0.0
 74
     0
 49
-0.25
 74
     0
  0
LTYPE
  5
28
330
4
100
AcDbSymbolTableRecord
100
AcDbLinetypeTableRecord
  2
C_SOLID_L
 70
     0
  3
CADAM Solid Light
 72
    65
 73
     0
 40
0.0
  0
LTYPE
  5
29
330
4
100
AcDbSymbolTableRecord
100
AcDbLinetypeTableRecord
  2
C_SOLID_M
 70
     0
  3
CADAM Solid Medium
 72
    65
 73
     0
 40
0.0
  0
LTYPE
  5
2A
330
4
100
AcDbSymbolTableRecord
100
AcDbLinetypeTableRecord
  2
C_SOLID_H
 70
     0
  3
CADAM Solid Heavy
 72
    65
 73
     0
 40
0.0
  0
LTYPE
  5
2B
330
4
100
AcDbSymbolTableRecord
100
AcDbLinetypeTableRecord
  2
C_DASHED_L
 70
     0
  3
CADAM Dashed Light
 72
    65
 73
     2
 40
0.375
 49
0.25
 74
     0
 49
-0.125
 74
     0
  0
LTYPE
  5
2C
330
4
100
AcDbSymbolTableRecord
100
AcDbLinetypeTableRecord
  2
C_DASHED_M
 70
     0
  3
CADAM Dashed Medium
 72
    65
 73
     2
 40
0.5
 49
0.375
 74
     0
 49
-0.125
 74
     0
  0
LTYPE
  5
2D
330
4
100
AcDbSymbolTableRecord
100
AcDbLinetypeTableRecord
  2
C_CENTER_L
 70
     0
  3
CADAM Center Light
 72
    65
 73
     4
 40
2.0
 49
1.25
 74
     0
 49
-0.25
 74
     0
 49
0.25
 74
     0
 49
-0.25
 74
     0
  0
LTYPE
  5
2E
330
4
100
AcDbSymbolTableRecord
100
AcDbLinetypeTableRecord
  2
C_PHANTOM_L
 70
     0
  3
CADAM Phantom Light
 72
    65
 73
     6
 40
2.5
 49
1.25
 74
     0
 49
-0.25
 74
     0
 49
0.25
 74
     0
 49
-0.25
 74
     0
 49
0.25
 74
     0
 49
-0.25
 74
     0
  0
LTYPE
  5
2F
330
4
100
AcDbSymbolTableRecord
100
AcDbLinetypeTableRecord
  2
C_BREAK_M
 70
     0
  3
CADAM Break Medium
 72
    65
 73
     4
 40
1.0
 49
0.5
 74
     0
 49
-0.25
 74
     0
 49
0.0
 74
     0
 49
-0.25
 74
     0
  0
LTYPE
  5
30
330
4
100
AcDbSymbolTableRecord
100
AcDbLinetypeTableRecord
  2
C_NC
 70
     0
  3
CADAM NC
 72
    65
 73
     0
 40
0.0
  0
LTYPE
  5
31
330
4
100
AcDbSymbolTableRecord
100
AcDbLinetypeTableRecord
  2
DSH1
 70
     0
  3
CADAM Style2 Type 1 Dashed Line
 72
    65
 73
     2
 40
0.075
 49
0.04
 74
     0
 49
-0.035
 74
     0
  0
LTYPE
  5
32
330
4
100
AcDbSymbolTableRecord
100
AcDbLinetypeTableRecord
  2
DSH2
 70
     0
  3
CADAM Style2 Type 2 Dashed Line
 72
    65
 73
     2
 40
0.15
 49
0.11
 74
     0
 49
-0.04
 74
     0
  0
LTYPE
  5
33
330
4
100
AcDbSymbolTableRecord
100
AcDbLinetypeTableRecord
  2
DSH3
 70
     0
  3
CADAM Style2 Type 3 Dashed Line
 72
    65
 73
     2
 40
0.2
 49
0.15
 74
     0
 49
-0.05
 74
     0
  0
LTYPE
  5
34
330
4
100
AcDbSymbolTableRecord
100
AcDbLinetypeTableRecord
  2
DSH4
 70
     0
  3
CADAM Style2 Type 4 Dashed Line
 72
    65
 73
     2
 40
0.36
 49
0.28
 74
     0
 49
-0.08
 74
     0
  0
LTYPE
  5
35
330
4
100
AcDbSymbolTableRecord
100
AcDbLinetypeTableRecord
  2
DSH5
 70
     0
  3
CADAM Style2 Type 5 Dashed Line
 72
    65
 73
     2
 40
0.47
 49
0.39
 74
     0
 49
-0.08
 74
     0
  0
LTYPE
  5
36
330
4
100
AcDbSymbolTableRecord
100
AcDbLinetypeTableRecord
  2
DSH6
 70
     0
  3
CADAM Style2 Type 6 Dashed Line
 72
    65
 73
     2
 40
0.9
 49
0.8100000000000001
 74
     0
 49
-0.09
 74
     0
  0
LTYPE
  5
37
330
4
100
AcDbSymbolTableRecord
100
AcDbLinetypeTableRecord
  2
PL1
 70
     0
  3
Style 2 Type 1 Phantom Line
 72
    65
 73
     6
 40
1.0
 49
0.6
 74
     0
 49
-0.08
 74
     0
 49
0.08
 74
     0
 49
-0.08
 74
     0
 49
0.08
 74
     0
 49
-0.08
 74
     0
  0
LTYPE
  5
38
330
4
100
AcDbSymbolTableRecord
100
AcDbLinetypeTableRecord
  2
PL2
 70
     0
  3
Style 2 Type 2 Phantom Line
 72
    65
 73
     6
 40
1.08
 49
0.6
 74
     0
 49
-0.08
 74
     0
 49
0.12
 74
     0
 49
-0.08
 74
     0
 49
0.12
 74
     0
 49
-0.08
 74
     0
  0
LTYPE
  5
39
330
4
100
AcDbSymbolTableRecord
100
AcDbLinetypeTableRecord
  2
PL3
 70
     0
  3
Style 2 Type 3 Phantom Line
 72
    65
 73
     6
 40
2.0
 49
1.439999999999999
 74
     0
 49
-0.08
 74
     0
 49
0.16
 74
     0
 49
-0.08
 74
     0
 49
0.16
 74
     0
 49
-0.08
 74
     0
  0
LTYPE
  5
3A
330
4
100
AcDbSymbolTableRecord
100
AcDbLinetypeTableRecord
  2
CL1
 70
     0
  3
CADAM Style 2 Type 1 Center Line
 72
    65
 73
     4
 40
0.7
 49
0.45
 74
     0
 49
-0.06
 74
     0
 49
0.13
 74
     0
 49
-0.06
 74
     0
  0
LTYPE
  5
3B
330
4
100
AcDbSymbolTableRecord
100
AcDbLinetypeTableRecord
  2
CL2
 70
     0
  3
CADAM Style 2 Type 2 Center Line
 72
    65
 73
     4
 40
1.199999999999999
 49
1.01
 74
     0
 49
-0.06
 74
     0
 49
0.11
 74
     0
 49
-0.06
 74
     0
  0
LTYPE
  5
3C
330
4
100
AcDbSymbolTableRecord
100
AcDbLinetypeTableRecord
  2
CL3
 70
     0
  3
CADAM Style 2 Type 3 Center Line
 72
    65
 73
     4
 40
1.199999999999999
 49
0.98
 74
     0
 49
-0.06
 74
     0
 49
0.1
 74
     0
 49
-0.06
 74
     0
  0
LTYPE
  5
3D
330
4
100
AcDbSymbolTableRecord
100
AcDbLinetypeTableRecord
  2
CL4
 70
     0
  3
CADAM Style 2 Type 4 Center Line
 72
    65
 73
     4
 40
2.2
 49
1.929999999999999
 74
     0
 49
-0.07
 74
     0
 49
0.13
 74
     0
 49
-0.07
 74
     0
  0
LTYPE
  5
3E
330
4
100
AcDbSymbolTableRecord
100
AcDbLinetypeTableRecord
  2
CL5
 70
     0
  3
CADAM Style 2 Type 5 Center Line
 72
    65
 73
     4
 40
2.2
 49
1.879999999999999
 74
     0
 49
-0.07
 74
     0
 49
0.18
 74
     0
 49
-0.07
 74
     0
  0
LTYPE
  5
3F
330
4
100
AcDbSymbolTableRecord
100
AcDbLinetypeTableRecord
  2
SBK1
 70
     0
  3
CADAM Style 2 Type 1 SetBack Line
 72
    65
 73
     8
 40
2.7
 49
0.1
 74
     0
 49
-0.08
 74
     0
 49
0.1
 74
     0
 49
-0.8
 74
     0
 49
0.0
 74
     0
 49
0.0
 74
     0
 49
0.0
 74
     0
 49
0.0
 74
     0
  0
LTYPE
  5
40
330
4
100
AcDbSymbolTableRecord
100
AcDbLinetypeTableRecord
  2
SBK2
 70
     0
  3
CADAM Style 2 Type 2 SetBack Line
 72
    65
 73
     8
 40
3.709999999999999
 49
0.13
 74
     0
 49
-0.08
 74
     0
 49
0.13
 74
     0
 49
-0.8
 74
     0
 49
0.0
 74
     0
 49
0.0
 74
     0
 49
0.0
 74
     0
 49
0.0
 74
     0
  0
LTYPE
  5
41
330
4
100
AcDbSymbolTableRecord
100
AcDbLinetypeTableRecord
  2
STCH
 70
     0
  3
CADAM Style2 Stitch Line
 72
    65
 73
     2
 40
0.25
 49
0.0
 74
     0
 49
-0.25
 74
     0
  0
LTYPE
  5
42
330
4
100
AcDbSymbolTableRecord
100
AcDbLinetypeTableRecord
  2
MTCH
 70
     0
  3
CADAM Style2 Match Line
 72
    65
 73
     6
 40
2.0
 49
1.439999999999999
 74
     0
 49
-0.8
 74
     0
 49
0.16
 74
     0
 49
-0.08
 74
     0
 49
0.16
 74
     0
 49
-0.08
 74
     0
  0
LTYPE
  5
43
330
4
100
AcDbSymbolTableRecord
100
AcDbLinetypeTableRecord
  2
SLD
 70
     0
  3
CADAM Solid_EXT2
 72
    65
 73
     0
 40
0.0
  0
ENDTAB
  0
TABLE
  2
LAYER
  5
2
330
0
100
AcDbSymbolTable
 70
     7
  0
LAYER
  5
15
330
2
100
AcDbSymbolTableRecord
100
AcDbLayerTableRecord
  2
0
 70
     0
 62
     7
  6
CONTINUOUS
  0
LAYER
  5
44
330
2
100
AcDbSymbolTableRecord
100
AcDbLayerTableRecord
  2
MO_001_NOSHOW
 70
     1
 62
     7
  6
CONTINUOUS
  0
LAYER
  5
45
330
2
100
AcDbSymbolTableRecord
100
AcDbLayerTableRecord
  2
MO_001_VIEW_PV
 70
     0
 62
     7
  6
CONTINUOUS
  0
LAYER
  5
46
330
2
100
AcDbSymbolTableRecord
100
AcDbLayerTableRecord
  2
OVERLAY_MAP
 70
     1
 62
     7
  6
CONTINUOUS
  0
LAYER
  5
47
330
2
100
AcDbSymbolTableRecord
100
AcDbLayerTableRecord
  2
DITTOS
 70
     0
 62
     7
  6
CONTINUOUS
  0
LAYER
  5
48
330
2
100
AcDbSymbolTableRecord
100
AcDbLayerTableRecord
  2
SYMBOLS
 70
     0
 62
     7
  6
CONTINUOUS
  0
LAYER
  5
49
330
2
100
AcDbSymbolTableRecord
100
AcDbLayerTableRecord
  2
SETS
 70
     0
 62
     7
  6
CONTINUOUS
  0
ENDTAB
  0
TABLE
  2
STYLE
  5
3
330
0
100
AcDbSymbolTable
 70
     1
  0
STYLE
  5
18
330
3
100
AcDbSymbolTableRecord
100
AcDbTextStyleTableRecord
  2
STANDARD
 70
     0
 40
4.1672
 41
1.0
 50
0.0
 71
     0
 42
4.1672
  3
monotxt
  4
BIGFONT
  0
ENDTAB
  0
TABLE
  2
VIEW
  5
5
330
0
100
AcDbSymbolTable
 70
     0
  0
ENDTAB
  0
TABLE
  2
UCS
  5
6
330
0
100
AcDbSymbolTable
 70
     1
  0
UCS
  5
4A
330
6
100
AcDbSymbolTableRecord
100
AcDbUCSTableRecord
  2
MO_001_VIEW_PV_P
 70
     0
 10
0.0
 20
0.0
 30
0.0
 11
1.0
 21
0.0
 31
0.0
 12
-0.0000000002051034
 22
1.0
 32
0.0
  0
ENDTAB
  0
TABLE
  2
APPID
  5
8
330
0
100
AcDbSymbolTable
 70
     1
  0
APPID
  5
17
330
8
100
AcDbSymbolTableRecord
100
AcDbRegAppTableRecord
  2
ACAD
 70
     0
  0
ENDTAB
  0
TABLE
  2
DIMSTYLE
  5
9
330
0
100
AcDbSymbolTable
 70
     1
  0
DIMSTYLE
105
19
102
{ACAD_REACTORS
330
11B
330
11D
330
11F
330
121
330
123
330
125
330
127
330
129
330
12B
330
12D
330
12F
330
131
330
133
102
}
330
9
100
AcDbSymbolTableRecord
100
AcDbDimStyleTableRecord
  2
STANDARD
 70
     0
  3

  4

  5

  6

  7

 40
1.0
 41
0.18
 42
0.0625
 43
0.38
 44
0.18
 45
0.0
 46
0.0
 47
0.0
 48
0.0
140
0.18
141
0.09
142
0.0
143
25.4
144
1.0
145
0.0
146
1.0
147
0.09
 71
     0
 72
     0
 73
     1
 74
     1
 75
     0
 76
     0
 77
     0
 78
     0
170
     0
171
     2
172
     0
173
     0
174
     0
175
     0
176
     0
177
     0
178
     0
270
     2
271
     4
272
     4
273
     2
274
     2
340
18
275
     0
280
     0
281
     0
282
     0
283
     1
284
     0
285
     0
286
     0
287
     3
288
     0
  0
ENDTAB
  0
TABLE
  2
BLOCK_RECORD
  5
C
330
0
100
AcDbSymbolTable
 70
    13
  0
BLOCK_RECORD
  5
1E
102
{ACAD_XDICTIONARY
360
1D9
102
}
330
C
100
AcDbSymbolTableRecord
100
AcDbBlockTableRecord
  2
*MODEL_SPACE
  0
BLOCK_RECORD
  5
1F
102
{ACAD_XDICTIONARY
360
1DB
102
}
330
C
100
AcDbSymbolTableRecord
100
AcDbBlockTableRecord
  2
*PAPER_SPACE
  0
BLOCK_RECORD
  5
11A
330
C
100
AcDbSymbolTableRecord
100
AcDbBlockTableRecord
  2
*D0
  0
BLOCK_RECORD
  5
11C
330
C
100
AcDbSymbolTableRecord
100
AcDbBlockTableRecord
  2
*D1
  0
BLOCK_RECORD
  5
11E
330
C
100
AcDbSymbolTableRecord
100
AcDbBlockTableRecord
  2
*D2
  0
BLOCK_RECORD
  5
120
330
C
100
AcDbSymbolTableRecord
100
AcDbBlockTableRecord
  2
*D3
  0
BLOCK_RECORD
  5
122
330
C
100
AcDbSymbolTableRecord
100
AcDbBlockTableRecord
  2
*D4
  0
BLOCK_RECORD
  5
124
330
C
100
AcDbSymbolTableRecord
100
AcDbBlockTableRecord
  2
*D5
  0
BLOCK_RECORD
  5
126
330
C
100
AcDbSymbolTableRecord
100
AcDbBlockTableRecord
  2
*D6
  0
BLOCK_RECORD
  5
128
330
C
100
AcDbSymbolTableRecord
100
AcDbBlockTableRecord
  2
*D7
  0
BLOCK_RECORD
  5
12A
330
C
100
AcDbSymbolTableRecord
100
AcDbBlockTableRecord
  2
*D8
  0
BLOCK_RECORD
  5
12C
330
C
100
AcDbSymbolTableRecord
100
AcDbBlockTableRecord
  2
*D9
  0
BLOCK_RECORD
  5
12E
330
C
100
AcDbSymbolTableRecord
100
AcDbBlockTableRecord
  2
*D10
  0
BLOCK_RECORD
  5
130
330
C
100
AcDbSymbolTableRecord
100
AcDbBlockTableRecord
  2
*D11
  0
BLOCK_RECORD
  5
132
330
C
100
AcDbSymbolTableRecord
100
AcDbBlockTableRecord
  2
*D12
  0
ENDTAB
  0
ENDSEC
  0
SECTION
  2
BLOCKS
  0
BLOCK
  5
E
330
1E
100
AcDbEntity
  8
0
100
AcDbBlockBegin
  2
*MODEL_SPACE
 70
     0
 10
0.0
 20
0.0
 30
0.0
  3
*MODEL_SPACE
  1

  0
ENDBLK
  5
F
330
1E
100
AcDbEntity
  8
0
100
AcDbBlockEnd
  0
BLOCK
  5
10
330
1F
100
AcDbEntity
 67
     1
  8
0
100
AcDbBlockBegin
  2
*PAPER_SPACE
 70
     0
 10
0.0
 20
0.0
 30
0.0
  3
*PAPER_SPACE
  1

  0
ENDBLK
  5
11
330
1F
100
AcDbEntity
 67
     1
  8
0
100
AcDbBlockEnd
  0
BLOCK
  5
146
330
11A
100
AcDbEntity
  8
0
100
AcDbBlockBegin
  2
*D0
 70
     1
 10
0.0
 20
0.0
 30
0.0
  3
*D0
  1

  0
TEXT
  5
147
330
11A
100
AcDbEntity
  8
MO_001_VIEW_PV
  6
BYBLOCK
100
AcDbText
 10
-49.285714
 20
29.625
 30
0.0
 40
1.5
  1
%%P0.4
100
AcDbText
  0
TEXT
  5
148
330
11A
100
AcDbEntity
  8
MO_001_VIEW_PV
  6
BYBLOCK
100
AcDbText
 10
-64.07142900000001
 20
27.75
 30
0.0
 40
3.0
  1
%%C38.1
100
AcDbText
  0
LINE
  5
149
330
11A
100
AcDbEntity
  8
MO_001_VIEW_PV
  6
BYBLOCK
100
AcDbLine
 10
-73.050003
 20
27.0
 30
0.0
 11
-34.950001
 21
27.0
 31
0.0
  0
SOLID
  5
14A
330
11A
100
AcDbEntity
  8
MO_001_VIEW_PV
  6
BYBLOCK
100
AcDbTrace
 10
-69.73174300000001
 20
27.58351199999999
 30
0.0
 11
-72.542003
 21
27.0
 31
0.0
 12
-69.73174300000001
 22
26.416488
 32
0.0
 13
-69.73174300000001
 23
26.416488
 33
0.0
  0
SOLID
  5
14B
330
11A
100
AcDbEntity
  8
MO_001_VIEW_PV
  6
BYBLOCK
100
AcDbTrace
 10
-38.26826099999999
 20
26.416488
 30
0.0
 11
-35.458001
 21
27.0
 31
0.0
 12
-38.26826099999999
 22
27.58351199999999
 32
0.0
 13
-38.26826099999999
 23
27.58351199999999
 33
0.0
  0
LINE
  5
14C
330
11A
100
AcDbEntity
  8
MO_001_VIEW_PV
  6
BYBLOCK
100
AcDbLine
 10
-73.050003
 20
0.0
 30
0.0
 11
-73.050003
 21
29.285999
 31
0.0
  0
LINE
  5
14D
330
11A
100
AcDbEntity
  8
MO_001_VIEW_PV
  6
BYBLOCK
100
AcDbLine
 10
-34.950001
 20
0.0
 30
0.0
 11
-34.950001
 21
29.285999
 31
0.0
  0
ENDBLK
  5
14E
330
11A
100
AcDbEntity
  8
0
100
AcDbBlockEnd
  0
BLOCK
  5
14F
330
11C
100
AcDbEntity
  8
0
100
AcDbBlockBegin
  2
*D1
 70
     1
 10
0.0
 20
0.0
 30
0.0
  3
*D1
  1

  0
TEXT
  5
150
330
11C
100
AcDbEntity
  8
MO_001_VIEW_PV
  6
BYBLOCK
100
AcDbText
 10
36.214286
 20
-27.375
 30
0.0
 40
1.5
  1
%%P0.2
100
AcDbText
  0
TEXT
  5
151
330
11C
100
AcDbEntity
  8
MO_001_VIEW_PV
  6
BYBLOCK
100
AcDbText
 10
24.42857099999999
 20
-29.25
 30
0.0
 40
3.0
  1
29.4
100
AcDbText
  0
LINE
  5
152
330
11C
100
AcDbEntity
  8
MO_001_VIEW_PV
  6
BYBLOCK
100
AcDbLine
 10
18.1
 20
-30.0
 30
0.0
 11
47.5
 21
-30.0
 31
0.0
  0
SOLID
  5
153
330
11C
100
AcDbEntity
  8
MO_001_VIEW_PV
  6
BYBLOCK
100
AcDbTrace
 10
21.41826099999999
 20
-29.416488
 30
0.0
 11
18.608
 21
-30.0
 31
0.0
 12
21.41826099999999
 22
-30.583512
 32
0.0
 13
21.41826099999999
 23
-30.583512
 33
0.0
  0
SOLID
  5
154
330
11C
100
AcDbEntity
  8
MO_001_VIEW_PV
  6
BYBLOCK
100
AcDbTrace
 10
44.18174
 20
-30.583512
 30
0.0
 11
46.992
 21
-30.0
 31
0.0
 12
44.18174
 22
-29.416488
 32
0.0
 13
44.18174
 23
-29.416488
 33
0.0
  0
LINE
  5
155
330
11C
100
AcDbEntity
  8
MO_001_VIEW_PV
  6
BYBLOCK
100
AcDbLine
 10
18.1
 20
-24.852789
 30
0.0
 11
18.1
 21
-32.28599899999999
 31
0.0
  0
LINE
  5
156
330
11C
100
AcDbEntity
  8
MO_001_VIEW_PV
  6
BYBLOCK
100
AcDbLine
 10
47.5
 20
-24.066862
 30
0.0
 11
47.5
 21
-32.28599899999999
 31
0.0
  0
ENDBLK
  5
157
330
11C
100
AcDbEntity
  8
0
100
AcDbBlockEnd
  0
BLOCK
  5
158
330
11E
100
AcDbEntity
  8
0
100
AcDbBlockBegin
  2
*D2
 70
     1
 10
0.0
 20
0.0
 30
0.0
  3
*D2
  1

  0
TEXT
  5
159
330
11E
100
AcDbEntity
  8
MO_001_VIEW_PV
  6
BYBLOCK
100
AcDbText
 10
-7.511713
 20
-27.375
 30
0.0
 40
1.5
  1
%%P0.4
100
AcDbText
  0
TEXT
  5
15A
330
11E
100
AcDbEntity
  8
MO_001_VIEW_PV
  6
BYBLOCK
100
AcDbText
 10
-19.297428
 20
-29.25
 30
0.0
 40
3.0
  1
18.1
100
AcDbText
  0
LINE
  5
15B
330
11E
100
AcDbEntity
  8
MO_001_VIEW_PV
  6
BYBLOCK
100
AcDbLine
 10
18.1
 20
-30.0
 30
0.0
 11
0.0
 21
-30.0
 31
0.0
  0
SOLID
  5
15C
330
11E
100
AcDbEntity
  8
MO_001_VIEW_PV
  6
BYBLOCK
100
AcDbTrace
 10
14.78174
 20
-30.583512
 30
0.0
 11
17.59199999999999
 21
-30.0
 31
0.0
 12
14.78174
 22
-29.416488
 32
0.0
 13
14.78174
 23
-29.416488
 33
0.0
  0
SOLID
  5
15D
330
11E
100
AcDbEntity
  8
MO_001_VIEW_PV
  6
BYBLOCK
100
AcDbTrace
 10
3.318259999999999
 20
-29.416488
 30
0.0
 11
0.508
 21
-30.0
 31
0.0
 12
3.318259999999999
 22
-30.583512
 32
0.0
 13
3.318259999999999
 23
-30.583512
 33
0.0
  0
LINE
  5
15E
330
11E
100
AcDbEntity
  8
MO_001_VIEW_PV
  6
BYBLOCK
100
AcDbLine
 10
18.1
 20
-24.852789
 30
0.0
 11
18.1
 21
-32.28599899999999
 31
0.0
  0
LINE
  5
15F
330
11E
100
AcDbEntity
  8
MO_001_VIEW_PV
  6
BYBLOCK
100
AcDbLine
 10
0.0
 20
-18.75
 30
0.0
 11
0.0
 21
-32.28599899999999
 31
0.0
  0
LINE
  5
160
330
11E
100
AcDbEntity
  8
MO_001_VIEW_PV
  6
BYBLOCK
100
AcDbLine
 10
0.0
 20
-30.0
 30
0.0
 11
-20.261713
 21
-30.0
 31
0.0
  0
ENDBLK
  5
161
330
11E
100
AcDbEntity
  8
0
100
AcDbBlockEnd
  0
BLOCK
  5
162
330
120
100
AcDbEntity
  8
0
100
AcDbBlockBegin
  2
*D3
 70
     1
 10
0.0
 20
0.0
 30
0.0
  3
*D3
  1

  0
TEXT
  5
163
330
120
100
AcDbEntity
  8
MO_001_VIEW_PV
  6
BYBLOCK
100
AcDbText
 10
32.464286
 20
32.625
 30
0.0
 40
1.5
  1
%%P0.5
100
AcDbText
  0
TEXT
  5
164
330
120
100
AcDbEntity
  8
MO_001_VIEW_PV
  6
BYBLOCK
100
AcDbText
 10
26.678571
 20
30.75
 30
0.0
 40
3.0
  1
64
100
AcDbText
  0
LINE
  5
165
330
120
100
AcDbEntity
  8
MO_001_VIEW_PV
  6
BYBLOCK
100
AcDbLine
 10
64.5
 20
30.0
 30
0.0
 11
0.0
 21
30.0
 31
0.0
  0
SOLID
  5
166
330
120
100
AcDbEntity
  8
MO_001_VIEW_PV
  6
BYBLOCK
100
AcDbTrace
 10
61.18174
 20
29.416488
 30
0.0
 11
63.992
 21
30.0
 31
0.0
 12
61.18174
 22
30.583512
 32
0.0
 13
61.18174
 23
30.583512
 33
0.0
  0
SOLID
  5
167
330
120
100
AcDbEntity
  8
MO_001_VIEW_PV
  6
BYBLOCK
100
AcDbTrace
 10
3.318259999999999
 20
30.583512
 30
0.0
 11
0.508
 21
30.0
 31
0.0
 12
3.318259999999999
 22
29.416488
 32
0.0
 13
3.318259999999999
 23
29.416488
 33
0.0
  0
LINE
  5
168
330
120
100
AcDbEntity
  8
MO_001_VIEW_PV
  6
BYBLOCK
100
AcDbLine
 10
64.5
 20
17.150002
 30
0.0
 11
64.5
 21
32.28599899999999
 31
0.0
  0
LINE
  5
169
330
120
100
AcDbEntity
  8
MO_001_VIEW_PV
  6
BYBLOCK
100
AcDbLine
 10
0.0
 20
18.75
 30
0.0
 11
0.0
 21
32.28599899999999
 31
0.0
  0
ENDBLK
  5
16A
330
120
100
AcDbEntity
  8
0
100
AcDbBlockEnd
  0
BLOCK
  5
16B
330
122
100
AcDbEntity
  8
0
100
AcDbBlockBegin
  2
*D4
 70
     1
 10
0.0
 20
0.0
 30
0.0
  3
*D4
  1

  0
LINE
  5
16C
330
122
100
AcDbEntity
  8
MO_001_VIEW_PV
  6
BYBLOCK
100
AcDbLine
 10
-4.0
 20
30.0
 30
0.0
 11
-0.535898
 21
36.0
 31
0.0
  0
SOLID
  5
16D
330
122
100
AcDbEntity
  8
MO_001_VIEW_PV
  6
BYBLOCK
100
AcDbTrace
 10
-2.846204999999999
 20
33.165453
 30
0.0
 11
-3.746
 21
30.43994099999999
 31
0.0
 12
-1.835533999999999
 22
32.581942
 32
0.0
 13
-1.835533999999999
 23
32.581942
 33
0.0
  0
LINE
  5
16E
330
122
100
AcDbEntity
  8
MO_001_VIEW_PV
  6
BYBLOCK
100
AcDbLine
 10
-0.5358990000000001
 20
36.0
 30
0.0
 11
11.035714
 21
36.0
 31
0.0
  0
TEXT
  5
16F
330
122
100
AcDbEntity
  8
MO_001_VIEW_PV
  6
BYBLOCK
100
AcDbText
 10
4.714286
 20
38.625
 30
0.0
 40
1.5
  1
%%P0.4
100
AcDbText
  0
TEXT
  5
170
330
122
100
AcDbEntity
  8
MO_001_VIEW_PV
  6
BYBLOCK
100
AcDbText
 10
1.928570999999999
 20
36.75
 30
0.0
 40
3.0
  1
8
100
AcDbText
  0
LINE
  5
171
330
122
100
AcDbEntity
  8
MO_001_VIEW_PV
  6
BYBLOCK
100
AcDbLine
 10
-8.0
 20
30.0
 30
0.0
 11
0.0
 21
30.0
 31
0.0
  0
LINE
  5
172
330
122
100
AcDbEntity
  8
MO_001_VIEW_PV
  6
BYBLOCK
100
AcDbLine
 10
0.0
 20
30.0
 30
0.0
 11
6.349999999999999
 21
30.0
 31
0.0
  0
SOLID
  5
173
330
122
100
AcDbEntity
  8
MO_001_VIEW_PV
  6
BYBLOCK
100
AcDbTrace
 10
-8.0
 20
30.635
 30
0.0
 11
-8.0
 21
29.365
 31
0.0
 12
-8.0
 22
30.635
 32
0.0
 13
-8.0
 23
30.635
 33
0.0
  0
SOLID
  5
174
330
122
100
AcDbEntity
  8
MO_001_VIEW_PV
  6
BYBLOCK
100
AcDbTrace
 10
3.318259999999999
 20
30.583512
 30
0.0
 11
0.508
 21
30.0
 31
0.0
 12
3.318259999999999
 22
29.416488
 32
0.0
 13
3.318259999999999
 23
29.416488
 33
0.0
  0
LINE
  5
175
330
122
100
AcDbEntity
  8
MO_001_VIEW_PV
  6
BYBLOCK
100
AcDbLine
 10
-8.0
 20
11.39431
 30
0.0
 11
-8.0
 21
32.28599899999999
 31
0.0
  0
LINE
  5
176
330
122
100
AcDbEntity
  8
MO_001_VIEW_PV
  6
BYBLOCK
100
AcDbLine
 10
0.0
 20
18.75
 30
0.0
 11
0.0
 21
32.28599899999999
 31
0.0
  0
ENDBLK
  5
177
330
122
100
AcDbEntity
  8
0
100
AcDbBlockEnd
  0
BLOCK
  5
178
330
124
100
AcDbEntity
  8
0
100
AcDbBlockBegin
  2
*D5
 70
     1
 10
0.0
 20
0.0
 30
0.0
  3
*D5
  1

  0
TEXT
  5
179
330
124
100
AcDbEntity
  8
MO_001_VIEW_PV
  6
BYBLOCK
100
AcDbText
 10
-20.901147
 20
32.625
 30
0.0
 40
1.5
  1
%%P0.2
100
AcDbText
  0
TEXT
  5
17A
330
124
100
AcDbEntity
  8
MO_001_VIEW_PV
  6
BYBLOCK
100
AcDbText
 10
-23.68686099999999
 20
30.75
 30
0.0
 40
3.0
  1
5
100
AcDbText
  0
LINE
  5
17B
330
124
100
AcDbEntity
  8
MO_001_VIEW_PV
  6
BYBLOCK
100
AcDbLine
 10
-13.0
 20
30.0
 30
0.0
 11
-8.0
 21
30.0
 31
0.0
  0
LINE
  5
17C
330
124
100
AcDbEntity
  8
MO_001_VIEW_PV
  6
BYBLOCK
100
AcDbLine
 10
-13.0
 20
30.0
 30
0.0
 11
-19.35
 21
30.0
 31
0.0
  0
SOLID
  5
17D
330
124
100
AcDbEntity
  8
MO_001_VIEW_PV
  6
BYBLOCK
100
AcDbTrace
 10
-16.31826
 20
29.416488
 30
0.0
 11
-13.508
 21
30.0
 31
0.0
 12
-16.31826
 22
30.583512
 32
0.0
 13
-16.31826
 23
30.583512
 33
0.0
  0
LINE
  5
17E
330
124
100
AcDbEntity
  8
MO_001_VIEW_PV
  6
BYBLOCK
100
AcDbLine
 10
-13.0
 20
7.875
 30
0.0
 11
-13.0
 21
32.28599899999999
 31
0.0
  0
LINE
  5
17F
330
124
100
AcDbEntity
  8
MO_001_VIEW_PV
  6
BYBLOCK
100
AcDbLine
 10
-8.0
 20
11.39431
 30
0.0
 11
-8.0
 21
32.28599899999999
 31
0.0
  0
LINE
  5
180
330
124
100
AcDbEntity
  8
MO_001_VIEW_PV
  6
BYBLOCK
100
AcDbLine
 10
-24.651148
 20
30.0
 30
0.0
 11
-13.0
 21
30.0
 31
0.0
  0
ENDBLK
  5
181
330
124
100
AcDbEntity
  8
0
100
AcDbBlockEnd
  0
BLOCK
  5
182
330
126
100
AcDbEntity
  8
0
100
AcDbBlockBegin
  2
*D6
 70
     1
 10
0.0
 20
0.0
 30
0.0
  3
*D6
  1

  0
TEXT
  5
183
330
126
100
AcDbEntity
  8
MO_001_VIEW_PV
  6
BYBLOCK
100
AcDbText
 10
-23.625
 20
11.46437499999999
 30
0.0
 40
1.5
  1
%%P0.2
 50
90.0
100
AcDbText
  0
TEXT
  5
184
330
126
100
AcDbEntity
  8
MO_001_VIEW_PV
  6
BYBLOCK
100
AcDbText
 10
-21.75
 20
8.678660999999999
 30
0.0
 40
3.0
  1
4
 50
90.0
100
AcDbText
  0
LINE
  5
185
330
126
100
AcDbEntity
  8
MO_001_VIEW_PV
  6
BYBLOCK
100
AcDbLine
 10
-21.0
 20
-2.0
 30
0.0
 11
-21.0
 21
2.0
 31
0.0
  0
LINE
  5
186
330
126
100
AcDbEntity
  8
MO_001_VIEW_PV
  6
BYBLOCK
100
AcDbLine
 10
-21.0
 20
-2.0
 30
0.0
 11
-21.0
 21
-8.349999999999999
 31
0.0
  0
LINE
  5
187
330
126
100
AcDbEntity
  8
MO_001_VIEW_PV
  6
BYBLOCK
100
AcDbLine
 10
-21.0
 20
2.0
 30
0.0
 11
-21.0
 21
8.349999999999999
 31
0.0
  0
SOLID
  5
188
330
126
100
AcDbEntity
  8
MO_001_VIEW_PV
  6
BYBLOCK
100
AcDbTrace
 10
-20.416488
 20
-5.318259999999999
 30
0.0
 11
-21.0
 21
-2.508
 31
0.0
 12
-21.58351199999999
 22
-5.318259999999999
 32
0.0
 13
-21.58351199999999
 23
-5.318259999999999
 33
0.0
  0
SOLID
  5
189
330
126
100
AcDbEntity
  8
MO_001_VIEW_PV
  6
BYBLOCK
100
AcDbTrace
 10
-21.58351199999999
 20
5.318259999999999
 30
0.0
 11
-21.0
 21
2.508
 31
0.0
 12
-20.416488
 22
5.318259999999999
 32
0.0
 13
-20.416488
 23
5.318259999999999
 33
0.0
  0
LINE
  5
18A
330
126
100
AcDbEntity
  8
MO_001_VIEW_PV
  6
BYBLOCK
100
AcDbLine
 10
-13.0
 20
-2.0
 30
0.0
 11
-23.28599899999999
 21
-2.0
 31
0.0
  0
LINE
  5
18B
330
126
100
AcDbEntity
  8
MO_001_VIEW_PV
  6
BYBLOCK
100
AcDbLine
 10
-13.0
 20
2.0
 30
0.0
 11
-23.28599899999999
 21
2.0
 31
0.0
  0
LINE
  5
18C
330
126
100
AcDbEntity
  8
MO_001_VIEW_PV
  6
BYBLOCK
100
AcDbLine
 10
-21.0
 20
2.0
 30
0.0
 11
-21.0
 21
17.785805
 31
0.0
  0
ENDBLK
  5
18D
330
126
100
AcDbEntity
  8
0
100
AcDbBlockEnd
  0
BLOCK
  5
18E
330
128
100
AcDbEntity
  8
0
100
AcDbBlockBegin
  2
*D7
 70
     1
 10
0.0
 20
0.0
 30
0.0
  3
*D7
  1

  0
TEXT
  5
18F
330
128
100
AcDbEntity
  8
MO_001_VIEW_PV
  6
BYBLOCK
100
AcDbText
 10
-29.625
 20
31.127465
 30
0.0
 40
1.5
  1
%%P0.05
 50
90.0
100
AcDbText
  0
TEXT
  5
190
330
128
100
AcDbEntity
  8
MO_001_VIEW_PV
  6
BYBLOCK
100
AcDbText
 10
-27.75
 20
13.341751
 30
0.0
 40
3.0
  1
%%C15.75
 50
90.0
100
AcDbText
  0
LINE
  5
191
330
128
100
AcDbEntity
  8
MO_001_VIEW_PV
  6
BYBLOCK
100
AcDbLine
 10
-27.0
 20
7.875
 30
0.0
 11
-27.0
 21
-7.875
 31
0.0
  0
LINE
  5
192
330
128
100
AcDbEntity
  8
MO_001_VIEW_PV
  6
BYBLOCK
100
AcDbLine
 10
-27.0
 20
7.875
 30
0.0
 11
-27.0
 21
14.225
 31
0.0
  0
LINE
  5
193
330
128
100
AcDbEntity
  8
MO_001_VIEW_PV
  6
BYBLOCK
100
AcDbLine
 10
-27.0
 20
-7.875
 30
0.0
 11
-27.0
 21
-14.225
 31
0.0
  0
SOLID
  5
194
330
128
100
AcDbEntity
  8
MO_001_VIEW_PV
  6
BYBLOCK
100
AcDbTrace
 10
-27.58351199999999
 20
11.19326
 30
0.0
 11
-27.0
 21
8.382999999999999
 31
0.0
 12
-26.416488
 22
11.19326
 32
0.0
 13
-26.416488
 23
11.19326
 33
0.0
  0
SOLID
  5
195
330
128
100
AcDbEntity
  8
MO_001_VIEW_PV
  6
BYBLOCK
100
AcDbTrace
 10
-26.416488
 20
-11.19326
 30
0.0
 11
-27.0
 21
-8.382999999999999
 31
0.0
 12
-27.58351199999999
 22
-11.19326
 32
0.0
 13
-27.58351199999999
 23
-11.19326
 33
0.0
  0
LINE
  5
196
330
128
100
AcDbEntity
  8
MO_001_VIEW_PV
  6
BYBLOCK
100
AcDbLine
 10
-13.0
 20
7.875
 30
0.0
 11
-29.285999
 21
7.875
 31
0.0
  0
LINE
  5
197
330
128
100
AcDbEntity
  8
MO_001_VIEW_PV
  6
BYBLOCK
100
AcDbLine
 10
-13.0
 20
-7.875
 30
0.0
 11
-29.285999
 21
-7.875
 31
0.0
  0
LINE
  5
198
330
128
100
AcDbEntity
  8
MO_001_VIEW_PV
  6
BYBLOCK
100
AcDbLine
 10
-27.0
 20
38.948895
 30
0.0
 11
-27.0
 21
7.875
 31
0.0
  0
ENDBLK
  5
199
330
128
100
AcDbEntity
  8
0
100
AcDbBlockEnd
  0
BLOCK
  5
19A
330
12A
100
AcDbEntity
  8
0
100
AcDbBlockBegin
  2
*D8
 70
     1
 10
0.0
 20
0.0
 30
0.0
  3
*D8
  1

  0
LINE
  5
19B
330
12A
100
AcDbEntity
  8
MO_001_VIEW_PV
  6
BYBLOCK
100
AcDbLine
 10
-74.650002
 20
-39.0
 30
0.0
 11
-33.349998
 21
-39.0
 31
0.0
  0
SOLID
  5
19C
330
12A
100
AcDbEntity
  8
MO_001_VIEW_PV
  6
BYBLOCK
100
AcDbTrace
 10
-71.33174100000001
 20
-38.416488
 30
0.0
 11
-74.142002
 21
-39.0
 31
0.0
 12
-71.33174100000001
 22
-39.583512
 32
0.0
 13
-71.33174100000001
 23
-39.583512
 33
0.0
  0
SOLID
  5
19D
330
12A
100
AcDbEntity
  8
MO_001_VIEW_PV
  6
BYBLOCK
100
AcDbTrace
 10
-36.668259
 20
-39.583512
 30
0.0
 11
-33.85799799999999
 21
-39.0
 31
0.0
 12
-36.668259
 22
-38.416488
 32
0.0
 13
-36.668259
 23
-38.416488
 33
0.0
  0
LINE
  5
19E
330
12A
100
AcDbEntity
  8
MO_001_VIEW_PV
  6
BYBLOCK
100
AcDbLine
 10
-74.650002
 20
-21.44999899999999
 30
0.0
 11
-74.650002
 21
-41.285999
 31
0.0
  0
LINE
  5
19F
330
12A
100
AcDbEntity
  8
MO_001_VIEW_PV
  6
BYBLOCK
100
AcDbLine
 10
-33.349998
 20
-21.44999899999999
 30
0.0
 11
-33.349998
 21
-41.285999
 31
0.0
  0
TEXT
  5
1A0
330
12A
100
AcDbEntity
  8
MO_001_VIEW_PV
  6
BYBLOCK
100
AcDbText
 10
-53.785714
 20
-36.375
 30
0.0
 40
1.5
  1
%%P1.0
100
AcDbText
  0
TEXT
  5
1A1
330
12A
100
AcDbEntity
  8
MO_001_VIEW_PV
  6
BYBLOCK
100
AcDbText
 10
-59.571429
 20
-38.25
 30
0.0
 40
3.0
  1
42
100
AcDbText
  0
ENDBLK
  5
1A2
330
12A
100
AcDbEntity
  8
0
100
AcDbBlockEnd
  0
BLOCK
  5
1A3
330
12C
100
AcDbEntity
  8
0
100
AcDbBlockBegin
  2
*D9
 70
     1
 10
0.0
 20
0.0
 30
0.0
  3
*D9
  1

  0
LINE
  5
1A4
330
12C
100
AcDbEntity
  8
MO_001_VIEW_PV
  6
BYBLOCK
100
AcDbLine
 10
-70.650002
 20
-33.0
 30
0.0
 11
-37.349998
 21
-33.0
 31
0.0
  0
SOLID
  5
1A5
330
12C
100
AcDbEntity
  8
MO_001_VIEW_PV
  6
BYBLOCK
100
AcDbTrace
 10
-67.33174100000001
 20
-32.416488
 30
0.0
 11
-70.14200200000001
 21
-33.0
 31
0.0
 12
-67.33174100000001
 22
-33.58351199999999
 32
0.0
 13
-67.33174100000001
 23
-33.58351199999999
 33
0.0
  0
SOLID
  5
1A6
330
12C
100
AcDbEntity
  8
MO_001_VIEW_PV
  6
BYBLOCK
100
AcDbTrace
 10
-40.668259
 20
-33.58351199999999
 30
0.0
 11
-37.85799799999999
 21
-33.0
 31
0.0
 12
-40.668259
 22
-32.416488
 32
0.0
 13
-40.668259
 23
-32.416488
 33
0.0
  0
LINE
  5
1A7
330
12C
100
AcDbEntity
  8
MO_001_VIEW_PV
  6
BYBLOCK
100
AcDbLine
 10
-70.650002
 20
-23.75575299999999
 30
0.0
 11
-70.650002
 21
-35.28599899999999
 31
0.0
  0
LINE
  5
1A8
330
12C
100
AcDbEntity
  8
MO_001_VIEW_PV
  6
BYBLOCK
100
AcDbLine
 10
-37.349998
 20
-23.30837199999999
 30
0.0
 11
-37.349998
 21
-35.28599899999999
 31
0.0
  0
TEXT
  5
1A9
330
12C
100
AcDbEntity
  8
MO_001_VIEW_PV
  6
BYBLOCK
100
AcDbText
 10
-50.785714
 20
-30.375
 30
0.0
 40
1.5
  1
%%P0.2
100
AcDbText
  0
TEXT
  5
1AA
330
12C
100
AcDbEntity
  8
MO_001_VIEW_PV
  6
BYBLOCK
100
AcDbText
 10
-62.571429
 20
-32.25
 30
0.0
 40
3.0
  1
33.3
100
AcDbText
  0
ENDBLK
  5
1AB
330
12C
100
AcDbEntity
  8
0
100
AcDbBlockEnd
  0
BLOCK
  5
1AC
330
12E
100
AcDbEntity
  8
0
100
AcDbBlockBegin
  2
*D10
 70
     1
 10
0.0
 20
0.0
 30
0.0
  3
*D10
  1

  0
LINE
  5
1AD
330
12E
100
AcDbEntity
  8
MO_001_VIEW_PV
  6
BYBLOCK
100
AcDbLine
 10
-87.0
 20
-21.44999899999999
 30
0.0
 11
-87.0
 21
0.0
 31
0.0
  0
LINE
  5
1AE
330
12E
100
AcDbEntity
  8
MO_001_VIEW_PV
  6
BYBLOCK
100
AcDbLine
 10
-87.0
 20
-21.44999899999999
 30
0.0
 11
-87.0
 21
-27.79999899999999
 31
0.0
  0
LINE
  5
1AF
330
12E
100
AcDbEntity
  8
MO_001_VIEW_PV
  6
BYBLOCK
100
AcDbLine
 10
-87.0
 20
0.0
 30
0.0
 11
-87.0
 21
6.349999999999999
 31
0.0
  0
SOLID
  5
1B0
330
12E
100
AcDbEntity
  8
MO_001_VIEW_PV
  6
BYBLOCK
100
AcDbTrace
 10
-86.416488
 20
-24.768259
 30
0.0
 11
-87.0
 21
-21.95799899999999
 31
0.0
 12
-87.58351199999999
 22
-24.768259
 32
0.0
 13
-87.58351199999999
 23
-24.768259
 33
0.0
  0
SOLID
  5
1B1
330
12E
100
AcDbEntity
  8
MO_001_VIEW_PV
  6
BYBLOCK
100
AcDbTrace
 10
-87.58351199999999
 20
3.318259999999999
 30
0.0
 11
-87.0
 21
0.508
 31
0.0
 12
-86.416488
 22
3.318259999999999
 32
0.0
 13
-86.416488
 23
3.318259999999999
 33
0.0
  0
LINE
  5
1B2
330
12E
100
AcDbEntity
  8
MO_001_VIEW_PV
  6
BYBLOCK
100
AcDbLine
 10
-74.650002
 20
-21.44999899999999
 30
0.0
 11
-89.28600300000001
 21
-21.44999899999999
 31
0.0
  0
LINE
  5
1B3
330
12E
100
AcDbEntity
  8
MO_001_VIEW_PV
  6
BYBLOCK
100
AcDbLine
 10
-76.10189100000001
 20
0.0
 30
0.0
 11
-89.28600300000001
 21
0.0
 31
0.0
  0
TEXT
  5
1B4
330
12E
100
AcDbEntity
  8
MO_001_VIEW_PV
  6
BYBLOCK
100
AcDbText
 10
-87.75
 20
-19.29642799999999
 30
0.0
 40
3.0
  1
(21.5)
 50
90.0
100
AcDbText
  0
ENDBLK
  5
1B5
330
12E
100
AcDbEntity
  8
0
100
AcDbBlockEnd
  0
BLOCK
  5
1B6
330
130
100
AcDbEntity
  8
0
100
AcDbBlockBegin
  2
*D11
 70
     1
 10
0.0
 20
0.0
 30
0.0
  3
*D11
  1

  0
TEXT
  5
1B7
330
130
100
AcDbEntity
  8
MO_001_VIEW_PV
  6
BYBLOCK
100
AcDbText
 10
-83.625
 20
-29.252795
 30
0.0
 40
1.5
  1
%%P0.1
 50
90.0
100
AcDbText
  0
TEXT
  5
1B8
330
130
100
AcDbEntity
  8
MO_001_VIEW_PV
  6
BYBLOCK
100
AcDbText
 10
-81.75
 20
-38.03850999999999
 30
0.0
 40
3.0
  1
1.6
 50
90.0
100
AcDbText
  0
LINE
  5
1B9
330
130
100
AcDbEntity
  8
MO_001_VIEW_PV
  6
BYBLOCK
100
AcDbLine
 10
-81.0
 20
-21.44999899999999
 30
0.0
 11
-81.0
 21
-19.84999799999999
 31
0.0
  0
LINE
  5
1BA
330
130
100
AcDbEntity
  8
MO_001_VIEW_PV
  6
BYBLOCK
100
AcDbLine
 10
-81.0
 20
-21.44999899999999
 30
0.0
 11
-81.0
 21
-27.79999899999999
 31
0.0
  0
LINE
  5
1BB
330
130
100
AcDbEntity
  8
MO_001_VIEW_PV
  6
BYBLOCK
100
AcDbLine
 10
-81.0
 20
-19.84999799999999
 30
0.0
 11
-81.0
 21
-13.499999
 31
0.0
  0
SOLID
  5
1BC
330
130
100
AcDbEntity
  8
MO_001_VIEW_PV
  6
BYBLOCK
100
AcDbTrace
 10
-80.416488
 20
-24.768259
 30
0.0
 11
-81.0
 21
-21.95799899999999
 31
0.0
 12
-81.583512
 22
-24.768259
 32
0.0
 13
-81.583512
 23
-24.768259
 33
0.0
  0
SOLID
  5
1BD
330
130
100
AcDbEntity
  8
MO_001_VIEW_PV
  6
BYBLOCK
100
AcDbTrace
 10
-81.583512
 20
-16.531738
 30
0.0
 11
-81.0
 21
-19.341998
 31
0.0
 12
-80.416488
 22
-16.531738
 32
0.0
 13
-80.416488
 23
-16.531738
 33
0.0
  0
LINE
  5
1BE
330
130
100
AcDbEntity
  8
MO_001_VIEW_PV
  6
BYBLOCK
100
AcDbLine
 10
-74.650002
 20
-21.44999899999999
 30
0.0
 11
-83.28600300000001
 21
-21.44999899999999
 31
0.0
  0
LINE
  5
1BF
330
130
100
AcDbEntity
  8
MO_001_VIEW_PV
  6
BYBLOCK
100
AcDbLine
 10
-74.650002
 20
-19.84999799999999
 30
0.0
 11
-83.28600300000001
 21
-19.84999799999999
 31
0.0
  0
LINE
  5
1C0
330
130
100
AcDbEntity
  8
MO_001_VIEW_PV
  6
BYBLOCK
100
AcDbLine
 10
-81.0
 20
-39.00279199999999
 30
0.0
 11
-81.0
 21
-21.44999899999999
 31
0.0
  0
ENDBLK
  5
1C1
330
130
100
AcDbEntity
  8
0
100
AcDbBlockEnd
  0
BLOCK
  5
1C2
330
132
100
AcDbEntity
  8
0
100
AcDbBlockBegin
  2
*D12
 70
     1
 10
0.0
 20
0.0
 30
0.0
  3
*D12
  1

  0
TEXT
  5
1C3
330
132
100
AcDbEntity
  8
MO_001_VIEW_PV
  6
BYBLOCK
100
AcDbText
 10
-19.285714
 20
-21.375
 30
0.0
 40
1.5
  1
%%P0.2
100
AcDbText
  0
TEXT
  5
1C4
330
132
100
AcDbEntity
  8
MO_001_VIEW_PV
  6
BYBLOCK
100
AcDbText
 10
-28.071429
 20
-23.25
 30
0.0
 40
3.0
  1
9.5
100
AcDbText
  0
LINE
  5
1C5
330
132
100
AcDbEntity
  8
MO_001_VIEW_PV
  6
BYBLOCK
100
AcDbLine
 10
-3.5
 20
-24.0
 30
0.0
 11
-13.0
 21
-24.0
 31
0.0
  0
SOLID
  5
1C6
330
132
100
AcDbEntity
  8
MO_001_VIEW_PV
  6
BYBLOCK
100
AcDbTrace
 10
-6.81826
 20
-24.583512
 30
0.0
 11
-4.008
 21
-24.0
 31
0.0
 12
-6.81826
 22
-23.416488
 32
0.0
 13
-6.81826
 23
-23.416488
 33
0.0
  0
SOLID
  5
1C7
330
132
100
AcDbEntity
  8
MO_001_VIEW_PV
  6
BYBLOCK
100
AcDbTrace
 10
-9.681739999999999
 20
-23.416488
 30
0.0
 11
-12.492
 21
-24.0
 31
0.0
 12
-9.681739999999999
 22
-24.583512
 32
0.0
 13
-9.681739999999999
 23
-24.583512
 33
0.0
  0
LINE
  5
1C8
330
132
100
AcDbEntity
  8
MO_001_VIEW_PV
  6
BYBLOCK
100
AcDbLine
 10
-3.5
 20
-2.0
 30
0.0
 11
-3.5
 21
-26.285999
 31
0.0
  0
LINE
  5
1C9
330
132
100
AcDbEntity
  8
MO_001_VIEW_PV
  6
BYBLOCK
100
AcDbLine
 10
-13.0
 20
-7.875
 30
0.0
 11
-13.0
 21
-26.285999
 31
0.0
  0
LINE
  5
1CA
330
132
100
AcDbEntity
  8
MO_001_VIEW_PV
  6
BYBLOCK
100
AcDbLine
 10
-13.0
 20
-24.0
 30
0.0
 11
-29.035715
 21
-24.0
 31
0.0
  0
ENDBLK
  5
1CB
330
132
100
AcDbEntity
  8
0
100
AcDbBlockEnd
  0
ENDSEC
  0
SECTION
  2
ENTITIES
  0
TEXT
  5
4B
330
1E
100
AcDbEntity
  8
OVERLAY_MAP
  6
C_SOLID_L
100
AcDbText
 10
0.0
 20
6.349999999999999
 30
0.0
 40
4.1672
  1
Model Overlay Name
100
AcDbText
  0
TEXT
  5
4C
330
1E
100
AcDbEntity
  8
OVERLAY_MAP
  6
C_SOLID_L
100
AcDbText
 10
126.999998
 20
0.0
 30
0.0
 40
4.1672
  1
Number
100
AcDbText
  0
TEXT
  5
4D
330
1E
100
AcDbEntity
  8
OVERLAY_MAP
  6
C_SOLID_L
100
AcDbText
 10
177.7999969999999
 20
0.0
 30
0.0
 40
4.1672
  1
File Text
100
AcDbText
  0
TEXT
  5
4E
330
1E
100
AcDbEntity
  8
OVERLAY_MAP
  6
C_SOLID_L
100
AcDbText
 10
0.0
 20
-6.349999999999999
 30
0.0
 40
4.1672
  1
tb s150pull 
100
AcDbText
  0
TEXT
  5
4F
330
1E
100
AcDbEntity
  8
OVERLAY_MAP
  6
C_SOLID_L
100
AcDbText
 10
126.999998
 20
-6.349999999999999
 30
0.0
 40
4.1672
  1
001
100
AcDbText
  0
TEXT
  5
50
330
1E
100
AcDbEntity
  8
OVERLAY_MAP
  6
C_SOLID_L
100
AcDbText
 10
177.7999969999999
 20
-6.349999999999999
 30
0.0
 40
4.1672
  1
                                                                   00118
100
AcDbText
  0
LINE
  5
51
330
1E
100
AcDbEntity
  8
MO_001_VIEW_PV
  6
C_SOLID_M
100
AcDbLine
 10
0.0
 20
12.19999999999999
 30
0.0
 11
0.0
 21
-12.19999999999999
 31
0.0
  0
LINE
  5
52
330
1E
100
AcDbEntity
  8
MO_001_VIEW_PV
  6
C_CENTER_L
100
AcDbLine
 10
-17.921745
 20
0.0
 30
0.0
 11
69.03316499999999
 21
0.0
 31
0.0
  0
LINE
  5
53
330
1E
100
AcDbEntity
  8
MO_001_VIEW_PV
  6
C_CENTER_L
100
AcDbLine
 10
-76.10189100000001
 20
0.0
 30
0.0
 11
-31.220306
 21
0.0
 31
0.0
  0
LINE
  5
54
330
1E
100
AcDbEntity
  8
MO_001_VIEW_PV
  6
C_CENTER_L
100
AcDbLine
 10
-54.0
 20
20.0
 30
0.0
 11
-54.0
 21
-22.855907
 31
0.0
  0
LINE
  5
55
330
1E
100
AcDbEntity
  8
MO_001_VIEW_PV
  6
C_SOLID_M
100
AcDbLine
 10
0.0
 20
18.75
 30
0.0
 11
0.0
 21
-18.75
 31
0.0
  0
LINE
  5
56
330
1E
100
AcDbEntity
  8
MO_001_VIEW_PV
  6
C_SOLID_M
100
AcDbLine
 10
0.3
 20
19.04999899999999
 30
0.0
 11
64.0
 21
19.04999899999999
 31
0.0
  0
LINE
  5
57
330
1E
100
AcDbEntity
  8
MO_001_VIEW_PV
  6
C_SOLID_M
100
AcDbLine
 10
51.400002
 20
-19.04999899999999
 30
0.0
 11
64.0
 21
-19.04999899999999
 31
0.0
  0
LINE
  5
58
330
1E
100
AcDbEntity
  8
MO_001_VIEW_PV
  6
C_SOLID_M
100
AcDbLine
 10
1.6
 20
19.04999899999999
 30
0.0
 11
1.6
 21
-19.04999899999999
 31
0.0
  0
LINE
  5
59
330
1E
100
AcDbEntity
  8
MO_001_VIEW_PV
  6
C_SOLID_M
100
AcDbLine
 10
0.3
 20
19.04999899999999
 30
0.0
 11
0.3
 21
-19.04999899999999
 31
0.0
  0
LINE
  5
5A
330
1E
100
AcDbEntity
  8
MO_001_VIEW_PV
  6
C_SOLID_M
100
AcDbLine
 10
0.0
 20
18.749998
 30
0.0
 11
0.300001
 21
19.04999899999999
 31
0.0
  0
LINE
  5
5B
330
1E
100
AcDbEntity
  8
MO_001_VIEW_PV
  6
C_SOLID_M
100
AcDbLine
 10
0.0
 20
-18.749998
 30
0.0
 11
0.300001
 21
-19.04999899999999
 31
0.0
  0
LINE
  5
5C
330
1E
100
AcDbEntity
  8
MO_001_VIEW_PV
  6
C_SOLID_M
100
AcDbLine
 10
64.0
 20
19.04999899999999
 30
0.0
 11
64.0
 21
-19.04999899999999
 31
0.0
  0
LINE
  5
5D
330
1E
100
AcDbEntity
  8
MO_001_VIEW_PV
  6
C_SOLID_M
100
AcDbLine
 10
-33.349998
 20
-19.84999799999999
 30
0.0
 11
-33.349998
 21
-21.44999899999999
 31
0.0
  0
LINE
  5
5E
330
1E
100
AcDbEntity
  8
MO_001_VIEW_PV
  6
C_SOLID_M
100
AcDbLine
 10
14.1
 20
-21.44999899999999
 30
0.0
 11
51.400002
 21
-21.44999899999999
 31
0.0
  0
LINE
  5
5F
330
1E
100
AcDbEntity
  8
MO_001_VIEW_PV
  6
C_SOLID_M
100
AcDbLine
 10
14.1
 20
-19.84999799999999
 30
0.0
 11
51.400002
 21
-19.84999799999999
 31
0.0
  0
LINE
  5
60
330
1E
100
AcDbEntity
  8
MO_001_VIEW_PV
  6
C_CENTER_L
100
AcDbLine
 10
18.1
 20
-16.299377
 30
0.0
 11
18.1
 21
-24.852789
 31
0.0
  0
LINE
  5
61
330
1E
100
AcDbEntity
  8
MO_001_VIEW_PV
  6
C_SOLID_M
100
AcDbLine
 10
14.1
 20
-14.699689
 30
0.0
 11
14.1
 21
-21.44999899999999
 31
0.0
  0
LINE
  5
62
330
1E
100
AcDbEntity
  8
MO_001_VIEW_PV
  6
C_SOLID_M
100
AcDbLine
 10
51.400002
 20
-14.699689
 30
0.0
 11
51.400002
 21
-21.44999899999999
 31
0.0
  0
LINE
  5
63
330
1E
100
AcDbEntity
  8
MO_001_VIEW_PV
  6
C_CENTER_L
100
AcDbLine
 10
47.5
 20
-16.448509
 30
0.0
 11
47.5
 21
-24.066862
 31
0.0
  0
LINE
  5
64
330
1E
100
AcDbEntity
  8
MO_001_VIEW_PV
  6
C_SOLID_M
100
AcDbLine
 10
-43.165081
 20
-18.76664599999999
 30
0.0
 11
-42.886017
 21
-19.25
 31
0.0
  0
LINE
  5
65
330
1E
100
AcDbEntity
  8
MO_001_VIEW_PV
  6
C_SOLID_M
100
AcDbLine
 10
-44.550721
 20
-19.56664599999999
 30
0.0
 11
-44.271653
 21
-20.050006
 31
0.0
  0
LINE
  5
66
330
1E
100
AcDbEntity
  8
MO_001_VIEW_PV
  6
C_SOLID_M
100
AcDbLine
 10
14.1
 20
-14.699689
 30
0.0
 11
51.400002
 21
-14.699689
 31
0.0
  0
LINE
  5
67
330
1E
100
AcDbEntity
  8
MO_001_VIEW_PV
  6
C_SOLID_M
100
AcDbLine
 10
0.3
 20
-19.04999899999999
 30
0.0
 11
14.1
 21
-19.04999899999999
 31
0.0
  0
LINE
  5
68
330
1E
100
AcDbEntity
  8
MO_001_VIEW_PV
  6
C_SOLID_M
100
AcDbLine
 10
-41.846771
 20
-21.44999899999999
 30
0.0
 11
-33.349998
 21
-21.44999899999999
 31
0.0
  0
LINE
  5
69
330
1E
100
AcDbEntity
  8
MO_001_VIEW_PV
  6
C_SOLID_M
100
AcDbLine
 10
-41.84677899999999
 20
-19.84999799999999
 30
0.0
 11
-33.349998
 21
-19.84999799999999
 31
0.0
  0
ARC
  5
6A
330
1E
100
AcDbEntity
  8
MO_001_VIEW_PV
  6
C_SOLID_M
100
AcDbCircle
 10
-41.84677899999999
 20
-18.649998
 30
0.0
 40
1.199999999999999
100
AcDbArc
 50
210.000016
 51
269.999998
  0
ARC
  5
6B
330
1E
100
AcDbEntity
  8
MO_001_VIEW_PV
  6
C_SOLID_M
100
AcDbCircle
 10
-41.846771
 20
-18.65
 30
0.0
 40
2.799999999999999
100
AcDbArc
 50
210.0000029999999
 51
269.999998
  0
LINE
  5
6C
330
1E
100
AcDbEntity
  8
MO_001_VIEW_PV
  6
C_SOLID_M
100
AcDbLine
 10
-74.650002
 20
-19.84999799999999
 30
0.0
 11
-74.650002
 21
-21.44999899999999
 31
0.0
  0
LINE
  5
6D
330
1E
100
AcDbEntity
  8
MO_001_VIEW_PV
  6
C_SOLID_M
100
AcDbLine
 10
-64.83493199999999
 20
-18.766635
 30
0.0
 11
-65.11399799999999
 21
-19.249991
 31
0.0
  0
LINE
  5
6E
330
1E
100
AcDbEntity
  8
MO_001_VIEW_PV
  6
C_SOLID_M
100
AcDbLine
 10
-63.449296
 20
-19.566641
 30
0.0
 11
-63.728362
 21
-20.049997
 31
0.0
  0
LINE
  5
6F
330
1E
100
AcDbEntity
  8
MO_001_VIEW_PV
  6
C_SOLID_M
100
AcDbLine
 10
-66.15322900000001
 20
-21.44999899999999
 30
0.0
 11
-74.650002
 21
-21.44999899999999
 31
0.0
  0
LINE
  5
70
330
1E
100
AcDbEntity
  8
MO_001_VIEW_PV
  6
C_SOLID_M
100
AcDbLine
 10
-66.153221
 20
-19.84999799999999
 30
0.0
 11
-74.650002
 21
-19.84999799999999
 31
0.0
  0
ARC
  5
71
330
1E
100
AcDbEntity
  8
MO_001_VIEW_PV
  6
C_SOLID_M
100
AcDbCircle
 10
-66.153221
 20
-18.649998
 30
0.0
 40
1.199999999999999
100
AcDbArc
 50
270.0000039999999
 51
329.999982
  0
ARC
  5
72
330
1E
100
AcDbEntity
  8
MO_001_VIEW_PV
  6
C_SOLID_M
100
AcDbCircle
 10
-66.15322900000001
 20
-18.65
 30
0.0
 40
2.799999999999999
100
AcDbArc
 50
270.0000039999999
 51
329.999996
  0
LINE
  5
73
330
1E
100
AcDbEntity
  8
MO_001_VIEW_PV
  6
C_SOLID_M
100
AcDbLine
 10
64.5
 20
17.150002
 30
0.0
 11
64.5
 21
-17.14999999999999
 31
0.0
  0
LINE
  5
74
330
1E
100
AcDbEntity
  8
MO_001_VIEW_PV
  6
C_SOLID_M
100
AcDbLine
 10
64.0
 20
-17.450001
 30
0.0
 11
64.19999699999999
 21
-17.450001
 31
0.0
  0
LINE
  5
75
330
1E
100
AcDbEntity
  8
MO_001_VIEW_PV
  6
C_SOLID_M
100
AcDbLine
 10
64.0
 20
17.450001
 30
0.0
 11
64.19999699999999
 21
17.450001
 31
0.0
  0
LINE
  5
76
330
1E
100
AcDbEntity
  8
MO_001_VIEW_PV
  6
C_SOLID_M
100
AcDbLine
 10
64.500004
 20
17.15000299999999
 30
0.0
 11
64.200002
 21
17.450004
 31
0.0
  0
LINE
  5
77
330
1E
100
AcDbEntity
  8
MO_001_VIEW_PV
  6
C_SOLID_M
100
AcDbLine
 10
64.20000400000001
 20
-17.44999599999999
 30
0.0
 11
64.50000300000001
 21
-17.14999599999999
 31
0.0
  0
LINE
  5
78
330
1E
100
AcDbEntity
  8
MO_001_VIEW_PV
  6
C_SOLID_M
100
AcDbLine
 10
64.19999699999999
 20
17.450001
 30
0.0
 11
64.19999699999999
 21
-17.44999899999999
 31
0.0
  0
LINE
  5
79
330
1E
100
AcDbEntity
  8
MO_001_VIEW_PV
  6
C_SOLID_M
100
AcDbLine
 10
-1.0
 20
-11.5
 30
0.0
 11
0.0
 21
-11.5
 31
0.0
  0
LINE
  5
7A
330
1E
100
AcDbEntity
  8
MO_001_VIEW_PV
  6
C_SOLID_M
100
AcDbLine
 10
-1.0
 20
11.5
 30
0.0
 11
0.0
 21
11.5
 31
0.0
  0
LINE
  5
7B
330
1E
100
AcDbEntity
  8
MO_001_VIEW_PV
  6
C_SOLID_M
100
AcDbLine
 10
-1.0
 20
11.5
 30
0.0
 11
-1.0
 21
-11.5
 31
0.0
  0
LINE
  5
7C
330
1E
100
AcDbEntity
  8
MO_001_VIEW_PV
  6
C_SOLID_M
100
AcDbLine
 10
-1.0
 20
8.0
 30
0.0
 11
-1.0
 21
-6.300055999999999
 31
0.0
  0
LINE
  5
7D
330
1E
100
AcDbEntity
  8
MO_001_VIEW_PV
  6
C_SOLID_M
100
AcDbLine
 10
-1.0
 20
11.5
 30
0.0
 11
-1.0
 21
-9.009105999999999
 31
0.0
  0
LINE
  5
7E
330
1E
100
AcDbEntity
  8
MO_001_VIEW_PV
  6
C_SOLID_M
100
AcDbLine
 10
-2.0
 20
11.5
 30
0.0
 11
-2.0
 21
-9.009105999999999
 31
0.0
  0
LINE
  5
7F
330
1E
100
AcDbEntity
  8
MO_001_VIEW_PV
  6
C_SOLID_M
100
AcDbLine
 10
-2.0
 20
11.5
 30
0.0
 11
-1.0
 21
11.5
 31
0.0
  0
LINE
  5
80
330
1E
100
AcDbEntity
  8
MO_001_VIEW_PV
  6
C_SOLID_M
100
AcDbLine
 10
-2.0
 20
-9.009105999999999
 30
0.0
 11
-1.0
 21
-9.009105999999999
 31
0.0
  0
LINE
  5
81
330
1E
100
AcDbEntity
  8
MO_001_VIEW_PV
  6
C_CENTER_L
100
AcDbLine
 10
-8.0
 20
11.39431
 30
0.0
 11
-8.0
 21
-11.57132
 31
0.0
  0
LINE
  5
82
330
1E
100
AcDbEntity
  8
MO_001_VIEW_PV
  6
C_SOLID_M
100
AcDbLine
 10
-13.0
 20
7.875
 30
0.0
 11
-13.0
 21
2.0
 31
0.0
  0
LINE
  5
83
330
1E
100
AcDbEntity
  8
MO_001_VIEW_PV
  6
C_SOLID_M
100
AcDbLine
 10
-13.0
 20
-2.0
 30
0.0
 11
-13.0
 21
-7.875
 31
0.0
  0
LINE
  5
84
330
1E
100
AcDbEntity
  8
MO_001_VIEW_PV
  6
C_SOLID_M
100
AcDbLine
 10
-6.5
 20
7.875
 30
0.0
 11
-2.0
 21
7.875
 31
0.0
  0
LINE
  5
85
330
1E
100
AcDbEntity
  8
MO_001_VIEW_PV
  6
C_SOLID_M
100
AcDbLine
 10
-6.5
 20
-7.875
 30
0.0
 11
-2.0
 21
-7.875
 31
0.0
  0
LINE
  5
86
330
1E
100
AcDbEntity
  8
MO_001_VIEW_PV
  6
C_SOLID_M
100
AcDbLine
 10
-3.5
 20
2.0
 30
0.0
 11
-3.5
 21
-2.0
 31
0.0
  0
LINE
  5
87
330
1E
100
AcDbEntity
  8
MO_001_VIEW_PV
  6
C_SOLID_M
100
AcDbLine
 10
-13.0
 20
2.0
 30
0.0
 11
-3.5
 21
2.0
 31
0.0
  0
LINE
  5
88
330
1E
100
AcDbEntity
  8
MO_001_VIEW_PV
  6
C_SOLID_M
100
AcDbLine
 10
-13.0
 20
-2.0
 30
0.0
 11
-3.5
 21
-2.0
 31
0.0
  0
CIRCLE
  5
89
330
1E
100
AcDbEntity
  8
MO_001_VIEW_PV
  6
C_SOLID_M
100
AcDbCircle
 10
-54.0
 20
0.0
 30
0.0
 40
7.875
  0
LINE
  5
8A
330
1E
100
AcDbEntity
  8
MO_001_VIEW_PV
  6
C_SOLID_M
100
AcDbLine
 10
-61.61679799999999
 20
2.0
 30
0.0
 11
-46.383202
 21
2.0
 31
0.0
  0
LINE
  5
8B
330
1E
100
AcDbEntity
  8
MO_001_VIEW_PV
  6
C_SOLID_M
100
AcDbLine
 10
-61.61679799999999
 20
-2.0
 30
0.0
 11
-46.383202
 21
-2.0
 31
0.0
  0
LINE
  5
8C
330
1E
100
AcDbEntity
  8
MO_001_VIEW_PV
  6
C_DASHED_M
100
AcDbLine
 10
-52.5
 20
7.730823
 30
0.0
 11
-52.5
 21
2.0
 31
0.0
  0
LINE
  5
8D
330
1E
100
AcDbEntity
  8
MO_001_VIEW_PV
  6
C_DASHED_M
100
AcDbLine
 10
-55.5
 20
7.730823
 30
0.0
 11
-55.5
 21
2.0
 31
0.0
  0
LINE
  5
8E
330
1E
100
AcDbEntity
  8
MO_001_VIEW_PV
  6
C_DASHED_M
100
AcDbLine
 10
-55.5
 20
-7.730823
 30
0.0
 11
-55.5
 21
-2.0
 31
0.0
  0
LINE
  5
8F
330
1E
100
AcDbEntity
  8
MO_001_VIEW_PV
  6
C_DASHED_M
100
AcDbLine
 10
-52.5
 20
-7.730823
 30
0.0
 11
-52.5
 21
-2.0
 31
0.0
  0
LINE
  5
90
330
1E
100
AcDbEntity
  8
MO_001_VIEW_PV
  6
C_DASHED_M
100
AcDbLine
 10
-6.5
 20
7.875
 30
0.0
 11
-6.5
 21
2.0
 31
0.0
  0
LINE
  5
91
330
1E
100
AcDbEntity
  8
MO_001_VIEW_PV
  6
C_DASHED_M
100
AcDbLine
 10
-9.5
 20
7.875
 30
0.0
 11
-9.5
 21
2.0
 31
0.0
  0
LINE
  5
92
330
1E
100
AcDbEntity
  8
MO_001_VIEW_PV
  6
C_DASHED_M
100
AcDbLine
 10
-6.5
 20
-7.875
 30
0.0
 11
-6.5
 21
-2.0
 31
0.0
  0
LINE
  5
93
330
1E
100
AcDbEntity
  8
MO_001_VIEW_PV
  6
C_DASHED_M
100
AcDbLine
 10
-9.5
 20
-7.875
 30
0.0
 11
-9.5
 21
-2.0
 31
0.0
  0
LINE
  5
94
330
1E
100
AcDbEntity
  8
MO_001_VIEW_PV
  6
C_SOLID_M
100
AcDbLine
 10
-13.0
 20
-7.875
 30
0.0
 11
-9.5
 21
-7.875
 31
0.0
  0
LINE
  5
95
330
1E
100
AcDbEntity
  8
MO_001_VIEW_PV
  6
C_SOLID_M
100
AcDbLine
 10
-13.0
 20
7.875
 30
0.0
 11
-9.5
 21
7.875
 31
0.0
  0
POLYLINE
  5
96
330
1E
100
AcDbEntity
  8
MO_001_VIEW_PV
  6
C_SOLID_M
100
AcDb2dPolyline
 66
     1
 10
0.0
 20
0.0
 30
0.0
  0
VERTEX
  5
1DD
330
96
100
AcDbEntity
  8
MO_001_VIEW_PV
  6
C_SOLID_M
100
AcDbVertex
100
AcDb2dVertex
 10
-9.5
 20
7.875
 30
0.0
  0
VERTEX
  5
1DE
330
96
100
AcDbEntity
  8
MO_001_VIEW_PV
  6
C_SOLID_M
100
AcDbVertex
100
AcDb2dVertex
 10
-9.492777
 20
7.860867999999999
 30
0.0
  0
VERTEX
  5
1DF
330
96
100
AcDbEntity
  8
MO_001_VIEW_PV
  6
C_SOLID_M
100
AcDbVertex
100
AcDb2dVertex
 10
-9.472946
 20
7.847741
 30
0.0
  0
VERTEX
  5
1E0
330
96
100
AcDbEntity
  8
MO_001_VIEW_PV
  6
C_SOLID_M
100
AcDbVertex
100
AcDb2dVertex
 10
-9.443025
 20
7.835641
 30
0.0
  0
VERTEX
  5
1E1
330
96
100
AcDbEntity
  8
MO_001_VIEW_PV
  6
C_SOLID_M
100
AcDbVertex
100
AcDb2dVertex
 10
-9.358219999999999
 20
7.813813
 30
0.0
  0
VERTEX
  5
1E2
330
96
100
AcDbEntity
  8
MO_001_VIEW_PV
  6
C_SOLID_M
100
AcDbVertex
100
AcDb2dVertex
 10
-9.254816999999999
 20
7.796005999999999
 30
0.0
  0
VERTEX
  5
1E3
330
96
100
AcDbEntity
  8
MO_001_VIEW_PV
  6
C_SOLID_M
100
AcDbVertex
100
AcDb2dVertex
 10
-9.143661999999999
 20
7.78171
 30
0.0
  0
VERTEX
  5
1E4
330
96
100
AcDbEntity
  8
MO_001_VIEW_PV
  6
C_SOLID_M
100
AcDbVertex
100
AcDb2dVertex
 10
-9.031959999999999
 20
7.770366
 30
0.0
  0
VERTEX
  5
1E5
330
96
100
AcDbEntity
  8
MO_001_VIEW_PV
  6
C_SOLID_M
100
AcDbVertex
100
AcDb2dVertex
 10
-8.80821
 20
7.753541
 30
0.0
  0
VERTEX
  5
1E6
330
96
100
AcDbEntity
  8
MO_001_VIEW_PV
  6
C_SOLID_M
100
AcDbVertex
100
AcDb2dVertex
 10
-8.620891999999999
 20
7.743755
 30
0.0
  0
VERTEX
  5
1E7
330
96
100
AcDbEntity
  8
MO_001_VIEW_PV
  6
C_SOLID_M
100
AcDbVertex
100
AcDb2dVertex
 10
-8.31765
 20
7.734092999999999
 30
0.0
  0
VERTEX
  5
1E8
330
96
100
AcDbEntity
  8
MO_001_VIEW_PV
  6
C_SOLID_M
100
AcDbVertex
100
AcDb2dVertex
 10
-8.0
 20
7.730824
 30
0.0
  0
VERTEX
  5
1E9
330
96
100
AcDbEntity
  8
MO_001_VIEW_PV
  6
C_SOLID_M
100
AcDbVertex
100
AcDb2dVertex
 10
-7.707364999999999
 20
7.733594
 30
0.0
  0
VERTEX
  5
1EA
330
96
100
AcDbEntity
  8
MO_001_VIEW_PV
  6
C_SOLID_M
100
AcDbVertex
100
AcDb2dVertex
 10
-7.460157999999999
 20
7.740483999999999
 30
0.0
  0
VERTEX
  5
1EB
330
96
100
AcDbEntity
  8
MO_001_VIEW_PV
  6
C_SOLID_M
100
AcDbVertex
100
AcDb2dVertex
 10
-7.256652
 20
7.749772999999999
 30
0.0
  0
VERTEX
  5
1EC
330
96
100
AcDbEntity
  8
MO_001_VIEW_PV
  6
C_SOLID_M
100
AcDbVertex
100
AcDb2dVertex
 10
-7.092191
 20
7.760225999999999
 30
0.0
  0
VERTEX
  5
1ED
330
96
100
AcDbEntity
  8
MO_001_VIEW_PV
  6
C_SOLID_M
100
AcDbVertex
100
AcDb2dVertex
 10
-6.961064
 20
7.771005999999999
 30
0.0
  0
VERTEX
  5
1EE
330
96
100
AcDbEntity
  8
MO_001_VIEW_PV
  6
C_SOLID_M
100
AcDbVertex
100
AcDb2dVertex
 10
-6.857549999999999
 20
7.781571999999999
 30
0.0
  0
VERTEX
  5
1EF
330
96
100
AcDbEntity
  8
MO_001_VIEW_PV
  6
C_SOLID_M
100
AcDbVertex
100
AcDb2dVertex
 10
-6.704822999999999
 20
7.802272999999999
 30
0.0
  0
VERTEX
  5
1F0
330
96
100
AcDbEntity
  8
MO_001_VIEW_PV
  6
C_SOLID_M
100
AcDbVertex
100
AcDb2dVertex
 10
-6.616397999999999
 20
7.819314
 30
0.0
  0
VERTEX
  5
1F1
330
96
100
AcDbEntity
  8
MO_001_VIEW_PV
  6
C_SOLID_M
100
AcDbVertex
100
AcDb2dVertex
 10
-6.565850999999999
 20
7.832749999999999
 30
0.0
  0
VERTEX
  5
1F2
330
96
100
AcDbEntity
  8
MO_001_VIEW_PV
  6
C_SOLID_M
100
AcDbVertex
100
AcDb2dVertex
 10
-6.516554
 20
7.853639
 30
0.0
  0
VERTEX
  5
1F3
330
96
100
AcDbEntity
  8
MO_001_VIEW_PV
  6
C_SOLID_M
100
AcDbVertex
100
AcDb2dVertex
 10
-6.5
 20
7.875
 30
0.0
  0
SEQEND
  5
1F4
330
96
100
AcDbEntity
  8
MO_001_VIEW_PV
  6
C_SOLID_M
  0
POLYLINE
  5
AF
330
1E
100
AcDbEntity
  8
MO_001_VIEW_PV
  6
C_SOLID_M
100
AcDb2dPolyline
 66
     1
 10
0.0
 20
0.0
 30
0.0
  0
VERTEX
  5
1F5
330
AF
100
AcDbEntity
  8
MO_001_VIEW_PV
  6
C_SOLID_M
100
AcDbVertex
100
AcDb2dVertex
 10
-6.5
 20
-7.875
 30
0.0
  0
VERTEX
  5
1F6
330
AF
100
AcDbEntity
  8
MO_001_VIEW_PV
  6
C_SOLID_M
100
AcDbVertex
100
AcDb2dVertex
 10
-6.507223
 20
-7.860867999999999
 30
0.0
  0
VERTEX
  5
1F7
330
AF
100
AcDbEntity
  8
MO_001_VIEW_PV
  6
C_SOLID_M
100
AcDbVertex
100
AcDb2dVertex
 10
-6.527053999999999
 20
-7.847741
 30
0.0
  0
VERTEX
  5
1F8
330
AF
100
AcDbEntity
  8
MO_001_VIEW_PV
  6
C_SOLID_M
100
AcDbVertex
100
AcDb2dVertex
 10
-6.556975
 20
-7.835641
 30
0.0
  0
VERTEX
  5
1F9
330
AF
100
AcDbEntity
  8
MO_001_VIEW_PV
  6
C_SOLID_M
100
AcDbVertex
100
AcDb2dVertex
 10
-6.64178
 20
-7.813813
 30
0.0
  0
VERTEX
  5
1FA
330
AF
100
AcDbEntity
  8
MO_001_VIEW_PV
  6
C_SOLID_M
100
AcDbVertex
100
AcDb2dVertex
 10
-6.745182999999999
 20
-7.796005999999999
 30
0.0
  0
VERTEX
  5
1FB
330
AF
100
AcDbEntity
  8
MO_001_VIEW_PV
  6
C_SOLID_M
100
AcDbVertex
100
AcDb2dVertex
 10
-6.856338
 20
-7.78171
 30
0.0
  0
VERTEX
  5
1FC
330
AF
100
AcDbEntity
  8
MO_001_VIEW_PV
  6
C_SOLID_M
100
AcDbVertex
100
AcDb2dVertex
 10
-6.968039999999999
 20
-7.770366
 30
0.0
  0
VERTEX
  5
1FD
330
AF
100
AcDbEntity
  8
MO_001_VIEW_PV
  6
C_SOLID_M
100
AcDbVertex
100
AcDb2dVertex
 10
-7.191789999999999
 20
-7.753541
 30
0.0
  0
VERTEX
  5
1FE
330
AF
100
AcDbEntity
  8
MO_001_VIEW_PV
  6
C_SOLID_M
100
AcDbVertex
100
AcDb2dVertex
 10
-7.379108
 20
-7.743755
 30
0.0
  0
VERTEX
  5
1FF
330
AF
100
AcDbEntity
  8
MO_001_VIEW_PV
  6
C_SOLID_M
100
AcDbVertex
100
AcDb2dVertex
 10
-7.682349999999999
 20
-7.734092999999999
 30
0.0
  0
VERTEX
  5
200
330
AF
100
AcDbEntity
  8
MO_001_VIEW_PV
  6
C_SOLID_M
100
AcDbVertex
100
AcDb2dVertex
 10
-8.0
 20
-7.730824
 30
0.0
  0
VERTEX
  5
201
330
AF
100
AcDbEntity
  8
MO_001_VIEW_PV
  6
C_SOLID_M
100
AcDbVertex
100
AcDb2dVertex
 10
-8.292635
 20
-7.733594
 30
0.0
  0
VERTEX
  5
202
330
AF
100
AcDbEntity
  8
MO_001_VIEW_PV
  6
C_SOLID_M
100
AcDbVertex
100
AcDb2dVertex
 10
-8.539842999999999
 20
-7.740483999999999
 30
0.0
  0
VERTEX
  5
203
330
AF
100
AcDbEntity
  8
MO_001_VIEW_PV
  6
C_SOLID_M
100
AcDbVertex
100
AcDb2dVertex
 10
-8.743347999999999
 20
-7.749772999999999
 30
0.0
  0
VERTEX
  5
204
330
AF
100
AcDbEntity
  8
MO_001_VIEW_PV
  6
C_SOLID_M
100
AcDbVertex
100
AcDb2dVertex
 10
-8.907809
 20
-7.760225999999999
 30
0.0
  0
VERTEX
  5
205
330
AF
100
AcDbEntity
  8
MO_001_VIEW_PV
  6
C_SOLID_M
100
AcDbVertex
100
AcDb2dVertex
 10
-9.038935999999999
 20
-7.771005999999999
 30
0.0
  0
VERTEX
  5
206
330
AF
100
AcDbEntity
  8
MO_001_VIEW_PV
  6
C_SOLID_M
100
AcDbVertex
100
AcDb2dVertex
 10
-9.14245
 20
-7.781571999999999
 30
0.0
  0
VERTEX
  5
207
330
AF
100
AcDbEntity
  8
MO_001_VIEW_PV
  6
C_SOLID_M
100
AcDbVertex
100
AcDb2dVertex
 10
-9.295177
 20
-7.802272999999999
 30
0.0
  0
VERTEX
  5
208
330
AF
100
AcDbEntity
  8
MO_001_VIEW_PV
  6
C_SOLID_M
100
AcDbVertex
100
AcDb2dVertex
 10
-9.383601999999999
 20
-7.819314
 30
0.0
  0
VERTEX
  5
209
330
AF
100
AcDbEntity
  8
MO_001_VIEW_PV
  6
C_SOLID_M
100
AcDbVertex
100
AcDb2dVertex
 10
-9.434148999999999
 20
-7.832749999999999
 30
0.0
  0
VERTEX
  5
20A
330
AF
100
AcDbEntity
  8
MO_001_VIEW_PV
  6
C_SOLID_M
100
AcDbVertex
100
AcDb2dVertex
 10
-9.483446
 20
-7.853639
 30
0.0
  0
VERTEX
  5
20B
330
AF
100
AcDbEntity
  8
MO_001_VIEW_PV
  6
C_SOLID_M
100
AcDbVertex
100
AcDb2dVertex
 10
-9.5
 20
-7.875
 30
0.0
  0
SEQEND
  5
20C
330
AF
100
AcDbEntity
  8
MO_001_VIEW_PV
  6
C_SOLID_M
  0
ARC
  5
C8
330
1E
100
AcDbEntity
  8
MO_001_VIEW_PV
  6
C_SOLID_M
100
AcDbCircle
 10
-54.0
 20
0.0
 30
0.0
 40
11.5
100
AcDbArc
 50
308.9587579999999
 51
231.0412569999999
  0
LINE
  5
C9
330
1E
100
AcDbEntity
  8
MO_001_VIEW_PV
  6
C_SOLID_M
100
AcDbLine
 10
-46.12499999999999
 20
0.0
 30
0.0
 11
-45.20511599999999
 21
0.0
 31
0.0
  0
LINE
  5
CA
330
1E
100
AcDbEntity
  8
MO_001_VIEW_PV
  6
C_SOLID_M
100
AcDbLine
 10
-62.79488399999999
 20
0.0
 30
0.0
 11
-61.875
 21
0.0
 31
0.0
  0
LINE
  5
CB
330
1E
100
AcDbEntity
  8
MO_001_VIEW_PV
  6
C_SOLID_M
100
AcDbLine
 10
-50.06250099999999
 20
6.819950999999999
 30
0.0
 11
-49.60255899999999
 21
7.616594
 31
0.0
  0
LINE
  5
CC
330
1E
100
AcDbEntity
  8
MO_001_VIEW_PV
  6
C_SOLID_M
100
AcDbLine
 10
-58.39744200000001
 20
7.616591
 30
0.0
 11
-57.937501
 21
6.819949
 31
0.0
  0
ARC
  5
CD
330
1E
100
AcDbEntity
  8
MO_001_VIEW_PV
  6
C_SOLID_M
100
AcDbCircle
 10
-54.0
 20
0.0
 30
0.0
 40
9.099999999999999
100
AcDbArc
 50
1.953643999999999
 51
58.04635600000001
  0
ARC
  5
CE
330
1E
100
AcDbEntity
  8
MO_001_VIEW_PV
  6
C_SOLID_M
100
AcDbCircle
 10
-54.0
 20
0.0
 30
0.0
 40
9.099999999999999
100
AcDbArc
 50
121.953642
 51
178.046352
  0
ARC
  5
CF
330
1E
100
AcDbEntity
  8
MO_001_VIEW_PV
  6
C_SOLID_M
100
AcDbCircle
 10
-49.342751
 20
7.466594
 30
0.0
 40
0.3
100
AcDbArc
 50
58.046342
 51
150.000011
  0
ARC
  5
D0
330
1E
100
AcDbEntity
  8
MO_001_VIEW_PV
  6
C_SOLID_M
100
AcDbCircle
 10
-58.657249
 20
7.466594
 30
0.0
 40
0.3
100
AcDbArc
 50
30.00001799999999
 51
121.953642
  0
ARC
  5
D1
330
1E
100
AcDbEntity
  8
MO_001_VIEW_PV
  6
C_SOLID_M
100
AcDbCircle
 10
-62.79488399999999
 20
0.3
 30
0.0
 40
0.3
100
AcDbArc
 50
178.046352
 51
270.000001
  0
ARC
  5
D2
330
1E
100
AcDbEntity
  8
MO_001_VIEW_PV
  6
C_SOLID_M
100
AcDbCircle
 10
-45.20511599999999
 20
0.3
 30
0.0
 40
0.3
100
AcDbArc
 50
269.999998
 51
1.953641
  0
LINE
  5
D3
330
1E
100
AcDbEntity
  8
MO_001_VIEW_PV
  6
C_SOLID_M
100
AcDbLine
 10
-48.18045
 20
-5.305519
 30
0.0
 11
-47.247657
 21
-8.786751999999999
 31
0.0
  0
LINE
  5
D4
330
1E
100
AcDbEntity
  8
MO_001_VIEW_PV
  6
C_SOLID_M
100
AcDbLine
 10
-60.75233499999999
 20
-8.786746
 30
0.0
 11
-59.819542
 21
-5.305513999999999
 31
0.0
  0
ARC
  5
D5
330
1E
100
AcDbEntity
  8
MO_001_VIEW_PV
  6
C_SOLID_M
100
AcDbCircle
 10
-46.957878
 20
-8.709105
 30
0.0
 40
0.3
100
AcDbArc
 50
194.999924
 51
308.958754
  0
ARC
  5
D6
330
1E
100
AcDbEntity
  8
MO_001_VIEW_PV
  6
C_SOLID_M
100
AcDbCircle
 10
-61.042122
 20
-8.709105
 30
0.0
 40
0.3
100
AcDbArc
 50
231.0412609999999
 51
345.000068
  0
ARC
  5
D7
330
1E
100
AcDbEntity
  8
MO_001_VIEW_PV
  6
C_SOLID_M
100
AcDbCircle
 10
-54.0
 20
0.0
 30
0.0
 40
11.50000099999999
100
AcDbArc
 50
231.0412339999999
 51
308.9587609999999
  0
ARC
  5
D8
330
1E
100
AcDbEntity
  8
MO_001_VIEW_PV
  6
C_SOLID_M
100
AcDbCircle
 10
-54.0
 20
0.0
 30
0.0
 40
8.0
100
AcDbArc
 50
222.926245
 51
317.0737159999999
  0
LINE
  5
D9
330
1E
100
AcDbEntity
  8
MO_001_VIEW_PV
  6
C_CENTER_L
100
AcDbLine
 10
-37.349998
 20
-17.939781
 30
0.0
 11
-37.349998
 21
-23.30837199999999
 31
0.0
  0
LINE
  5
DA
330
1E
100
AcDbEntity
  8
MO_001_VIEW_PV
  6
C_CENTER_L
100
AcDbLine
 10
-70.650002
 20
-18.088905
 30
0.0
 11
-70.650002
 21
-23.75575299999999
 31
0.0
  0
CIRCLE
  5
DB
330
1E
100
AcDbEntity
  8
MO_001_VIEW_PV
  6
C_SOLID_M
100
AcDbCircle
 10
-54.0
 20
0.0
 30
0.0
 40
19.04999899999999
  0
ARC
  5
DC
330
1E
100
AcDbEntity
  8
MO_001_VIEW_PV
  6
C_SOLID_M
100
AcDbCircle
 10
-54.0
 20
0.0
 30
0.0
 40
20.64999999999999
100
AcDbArc
 50
247.362476
 51
292.6374979999999
  0
ARC
  5
DD
330
1E
100
AcDbEntity
  8
MO_001_VIEW_PV
  6
C_SOLID_M
100
AcDbCircle
 10
-62.41006500000001
 20
-20.166639
 30
0.0
 40
1.199999999999999
100
AcDbArc
 50
67.36234499999999
 51
150.0000659999999
  0
ARC
  5
DE
330
1E
100
AcDbEntity
  8
MO_001_VIEW_PV
  6
C_SOLID_M
100
AcDbCircle
 10
-45.589943
 20
-20.16664299999999
 30
0.0
 40
1.199999999999999
100
AcDbArc
 50
30.000114
 51
112.6376669999999
  0
ARC
  5
DF
330
1E
100
AcDbEntity
  8
MO_001_VIEW_PV
  6
C_SOLID_M
100
AcDbCircle
 10
-45.58995099999999
 20
-20.16664299999999
 30
0.0
 40
2.799999999999999
100
AcDbArc
 50
29.99997
 51
112.637538
  0
ARC
  5
E0
330
1E
100
AcDbEntity
  8
MO_001_VIEW_PV
  6
C_SOLID_M
100
AcDbCircle
 10
-62.41005699999999
 20
-20.166639
 30
0.0
 40
2.799999999999999
100
AcDbArc
 50
67.362447
 51
150.000011
  0
LINE
  5
E1
330
1E
100
AcDbEntity
  8
MO_001_VIEW_PV
  6
C_DASHED_M
100
AcDbLine
 10
-68.849998
 20
-19.84999799999999
 30
0.0
 11
-68.849998
 21
-21.44999899999999
 31
0.0
  0
LINE
  5
E2
330
1E
100
AcDbEntity
  8
MO_001_VIEW_PV
  6
C_DASHED_M
100
AcDbLine
 10
-72.450005
 20
-19.84999799999999
 30
0.0
 11
-72.450005
 21
-21.44999899999999
 31
0.0
  0
LINE
  5
E3
330
1E
100
AcDbEntity
  8
MO_001_VIEW_PV
  6
C_DASHED_M
100
AcDbLine
 10
-39.150002
 20
-19.84999799999999
 30
0.0
 11
-39.150002
 21
-21.44999899999999
 31
0.0
  0
LINE
  5
E4
330
1E
100
AcDbEntity
  8
MO_001_VIEW_PV
  6
C_DASHED_M
100
AcDbLine
 10
-35.549995
 20
-19.84999799999999
 30
0.0
 11
-35.549995
 21
-21.44999899999999
 31
0.0
  0
LINE
  5
E5
330
1E
100
AcDbEntity
  8
MO_001_VIEW_PV
  6
C_DASHED_M
100
AcDbLine
 10
16.299997
 20
-19.84999799999999
 30
0.0
 11
16.299997
 21
-21.44999899999999
 31
0.0
  0
LINE
  5
E6
330
1E
100
AcDbEntity
  8
MO_001_VIEW_PV
  6
C_DASHED_M
100
AcDbLine
 10
19.90000299999999
 20
-19.84999799999999
 30
0.0
 11
19.90000299999999
 21
-21.44999899999999
 31
0.0
  0
LINE
  5
E7
330
1E
100
AcDbEntity
  8
MO_001_VIEW_PV
  6
C_DASHED_M
100
AcDbLine
 10
45.69999699999999
 20
-19.84999799999999
 30
0.0
 11
45.69999699999999
 21
-21.44999899999999
 31
0.0
  0
LINE
  5
E8
330
1E
100
AcDbEntity
  8
MO_001_VIEW_PV
  6
C_DASHED_M
100
AcDbLine
 10
49.300003
 20
-19.84999799999999
 30
0.0
 11
49.300003
 21
-21.44999899999999
 31
0.0
  0
LINE
  5
E9
330
1E
100
AcDbEntity
  8
MO_001_VIEW_PV
  6
C_SOLID_L
100
AcDbLine
 10
35.359428
 20
-39.0
 30
0.0
 11
78.72489200000001
 21
-39.0
 31
0.0
  0
LINE
  5
EA
330
1E
100
AcDbEntity
  8
MO_001_VIEW_PV
  6
C_SOLID_L
100
AcDbLine
 10
-26.640152
 20
-40.0
 30
0.0
 11
-0.431541
 21
-40.0
 31
0.0
  0
LINE
  5
EB
330
1E
100
AcDbEntity
  8
MO_001_VIEW_PV
  6
C_SOLID_M
100
AcDbLine
 10
66.0
 20
-11.9
 30
0.0
 11
66.0
 21
-16.85
 31
0.0
  0
LINE
  5
EC
330
1E
100
AcDbEntity
  8
MO_001_VIEW_PV
  6
C_SOLID_M
100
AcDbLine
 10
64.5
 20
-16.85
 30
0.0
 11
66.0
 21
-16.85
 31
0.0
  0
LINE
  5
ED
330
1E
100
AcDbEntity
  8
MO_001_VIEW_PV
  6
C_SOLID_M
100
AcDbLine
 10
64.5
 20
-11.9
 30
0.0
 11
66.0
 21
-11.9
 31
0.0
  0
LINE
  5
EE
330
1E
100
AcDbEntity
  8
MO_001_VIEW_PV
  6
C_SOLID_M
100
AcDbLine
 10
91.65066899999999
 20
-33.70466799999999
 30
0.0
 11
90.886992
 21
-34.468345
 31
0.0
  0
LINE
  5
EF
330
1E
100
AcDbEntity
  8
MO_001_VIEW_PV
  6
C_SOLID_M
100
AcDbLine
 10
88.37323299999999
 20
-29.911037
 30
0.0
 11
87.09337099999999
 21
-31.19089799999999
 31
0.0
  0
LINE
  5
F0
330
1E
100
AcDbEntity
  8
MO_001_VIEW_PV
  6
C_SOLID_M
100
AcDbLine
 10
95.418286
 20
-29.499178
 30
0.0
 11
94.79882299999999
 21
-30.383862
 31
0.0
  0
LINE
  5
F1
330
1E
100
AcDbEntity
  8
MO_001_VIEW_PV
  6
C_SOLID_M
100
AcDbLine
 10
91.53188
 20
-26.332307
 30
0.0
 11
90.493707
 21
-27.814971
 31
0.0
  0
LINE
  5
F2
330
1E
100
AcDbEntity
  8
MO_001_VIEW_PV
  6
C_SOLID_M
100
AcDbLine
 10
66.0
 20
-13.395
 30
0.0
 11
70.5
 21
-13.395
 31
0.0
  0
ARC
  5
F3
330
1E
100
AcDbEntity
  8
MO_001_VIEW_PV
  6
C_SOLID_M
100
AcDbCircle
 10
68.5
 20
-21.49999999999999
 30
0.0
 40
8.105
100
AcDbArc
 50
45.000005
 51
90.000002
  0
ARC
  5
F4
330
1E
100
AcDbEntity
  8
MO_001_VIEW_PV
  6
C_SOLID_M
100
AcDbCircle
 10
70.5
 20
-21.49999999999999
 30
0.0
 40
8.105
100
AcDbArc
 50
55.000006
 51
90.000002
  0
LINE
  5
F5
330
1E
100
AcDbEntity
  8
MO_001_VIEW_PV
  6
C_SOLID_M
100
AcDbLine
 10
75.14883199999999
 20
-14.860773
 30
0.0
 11
79.24459300000001
 21
-17.72865499999999
 31
0.0
  0
LINE
  5
F6
330
1E
100
AcDbEntity
  8
MO_001_VIEW_PV
  6
C_SOLID_M
100
AcDbLine
 10
80.06374499999999
 20
-18.302232
 30
0.0
 11
91.53188
 21
-26.332307
 31
0.0
  0
LINE
  5
F7
330
1E
100
AcDbEntity
  8
MO_001_VIEW_PV
  6
C_SOLID_M
100
AcDbLine
 10
66.0
 20
-15.205
 30
0.0
 11
68.5
 21
-15.205
 31
0.0
  0
ARC
  5
F8
330
1E
100
AcDbEntity
  8
MO_001_VIEW_PV
  6
C_SOLID_M
100
AcDbCircle
 10
68.5
 20
-21.49999999999999
 30
0.0
 40
6.294999999999999
100
AcDbArc
 50
45.000005
 51
90.000002
  0
LINE
  5
F9
330
1E
100
AcDbEntity
  8
MO_001_VIEW_PV
  6
C_SOLID_M
100
AcDbLine
 10
72.951233
 20
-17.04876
 30
0.0
 11
76.48676400000001
 21
-20.584291
 31
0.0
  0
LINE
  5
FA
330
1E
100
AcDbEntity
  8
MO_001_VIEW_PV
  6
C_SOLID_M
100
AcDbLine
 10
77.193871
 20
-21.291398
 30
0.0
 11
87.09337099999999
 21
-31.19089799999999
 31
0.0
  0
LINE
  5
FB
330
1E
100
AcDbEntity
  8
MO_001_VIEW_PV
  6
C_SOLID_M
100
AcDbLine
 10
78.47373199999999
 20
-20.01153599999999
 30
0.0
 11
88.37323299999999
 21
-29.911037
 31
0.0
  0
LINE
  5
FC
330
1E
100
AcDbEntity
  8
MO_001_VIEW_PV
  6
C_SOLID_M
100
AcDbLine
 10
79.025571
 20
-19.784898
 30
0.0
 11
90.49370600000001
 21
-27.81497299999999
 31
0.0
  0
LINE
  5
FD
330
1E
100
AcDbEntity
  8
MO_001_VIEW_PV
  6
C_SOLID_M
100
AcDbLine
 10
76.428866
 20
-17.966666
 30
0.0
 11
78.206419
 21
-19.21132199999999
 31
0.0
  0
LINE
  5
FE
330
1E
100
AcDbEntity
  8
MO_001_VIEW_PV
  6
C_SOLID_M
100
AcDbLine
 10
74.23109499999999
 20
-15.768899
 30
0.0
 11
77.766626
 21
-19.30443
 31
0.0
  0
LINE
  5
FF
330
1E
100
AcDbEntity
  8
MO_001_VIEW_PV
  6
C_SOLID_M
100
AcDbLine
 10
91.32252599999999
 20
-26.631295
 30
0.0
 11
95.418286
 21
-29.499178
 31
0.0
  0
LINE
  5
100
330
1E
100
AcDbEntity
  8
MO_001_VIEW_PV
  6
C_SOLID_M
100
AcDbLine
 10
90.703062
 20
-27.515981
 30
0.0
 11
94.798822
 21
-30.383863
 31
0.0
  0
LINE
  5
101
330
1E
100
AcDbEntity
  8
MO_001_VIEW_PV
  6
C_SOLID_M
100
AcDbLine
 10
88.115135
 20
-30.169134
 30
0.0
 11
91.65066899999999
 21
-33.70466799999999
 31
0.0
  0
LINE
  5
102
330
1E
100
AcDbEntity
  8
MO_001_VIEW_PV
  6
C_SOLID_M
100
AcDbLine
 10
87.35145799999999
 20
-30.932811
 30
0.0
 11
90.886992
 21
-34.468345
 31
0.0
  0
ARC
  5
103
330
1E
100
AcDbEntity
  8
MO_001_VIEW_PV
  6
C_SOLID_M
100
AcDbCircle
 10
77.737923
 20
-19.915651
 30
0.0
 40
0.6118920000000001
100
AcDbArc
 50
87.310814
 51
182.689269
  0
ARC
  5
104
330
1E
100
AcDbEntity
  8
MO_001_VIEW_PV
  6
C_SOLID_M
100
AcDbCircle
 10
77.155426
 20
-19.33315499999999
 30
0.0
 40
0.611881
100
AcDbArc
 50
267.3095859999999
 51
2.690334
  0
ARC
  5
105
330
1E
100
AcDbEntity
  8
MO_001_VIEW_PV
  6
C_SOLID_M
100
AcDbCircle
 10
76.515472
 20
-19.973064
 30
0.0
 40
0.611903
100
AcDbArc
 50
267.311362
 51
2.688663999999999
  0
ARC
  5
106
330
1E
100
AcDbEntity
  8
MO_001_VIEW_PV
  6
C_SOLID_M
100
AcDbCircle
 10
77.22258
 20
-20.680176
 30
0.0
 40
0.611903
100
AcDbArc
 50
267.311362
 51
2.688663999999999
  0
ARC
  5
107
330
1E
100
AcDbEntity
  8
MO_001_VIEW_PV
  6
C_SOLID_M
100
AcDbCircle
 10
78.44501499999999
 20
-20.622747
 30
0.0
 40
0.611881
100
AcDbArc
 50
87.309666
 51
182.6904159999999
  0
ARC
  5
108
330
1E
100
AcDbEntity
  8
MO_001_VIEW_PV
  6
C_SOLID_M
100
AcDbCircle
 10
77.805092
 20
-21.262693
 30
0.0
 40
0.6118920000000001
100
AcDbArc
 50
87.310732
 51
182.689187
  0
ARC
  5
109
330
1E
100
AcDbEntity
  8
MO_001_VIEW_PV
  6
C_SOLID_M
100
AcDbCircle
 10
80.141632
 20
-18.90915899999999
 30
0.0
 40
0.611903
100
AcDbArc
 50
97.311358
 51
192.6886659999999
  0
ARC
  5
10A
330
1E
100
AcDbEntity
  8
MO_001_VIEW_PV
  6
C_SOLID_M
100
AcDbCircle
 10
79.622528
 20
-19.650473
 30
0.0
 40
0.611881
100
AcDbArc
 50
97.30958199999999
 51
192.690333
  0
ARC
  5
10B
330
1E
100
AcDbEntity
  8
MO_001_VIEW_PV
  6
C_SOLID_M
100
AcDbCircle
 10
78.947731
 20
-19.17797699999999
 30
0.0
 40
0.6118920000000001
100
AcDbArc
 50
277.310813
 51
12.689272
  0
ARC
  5
10C
330
1E
100
AcDbEntity
  8
MO_001_VIEW_PV
  6
C_SOLID_M
100
AcDbCircle
 10
78.12856299999999
 20
-18.60439299999999
 30
0.0
 40
0.611903
100
AcDbArc
 50
277.31136
 51
12.688664
  0
ARC
  5
10D
330
1E
100
AcDbEntity
  8
MO_001_VIEW_PV
  6
C_SOLID_M
100
AcDbCircle
 10
78.647667
 20
-17.86307899999999
 30
0.0
 40
0.611881
100
AcDbArc
 50
277.3095839999999
 51
12.690334
  0
ARC
  5
10E
330
1E
100
AcDbEntity
  8
MO_001_VIEW_PV
  6
C_SOLID_M
100
AcDbCircle
 10
79.322464
 20
-18.33557499999999
 30
0.0
 40
0.6118920000000001
100
AcDbArc
 50
97.310812
 51
192.6892669999999
  0
LINE
  5
10F
330
1E
100
AcDbEntity
  8
MO_001_VIEW_PV
  6
C_SOLID_L
100
AcDbLine
 10
-25.484013
 20
21.0
 30
0.0
 11
-14.187519
 21
21.0
 31
0.0
  0
TEXT
  5
110
330
1E
100
AcDbEntity
  8
MO_001_VIEW_PV
  6
C_SOLID_L
100
AcDbText
 10
-73.488281
 20
-53.083594
 30
0.0
 40
4.167187
  1
S-150
100
AcDbText
  0
TEXT
  5
111
330
1E
100
AcDbEntity
  8
MO_001_VIEW_PV
  6
C_SOLID_L
100
AcDbText
 10
34.511719
 20
-53.083594
 30
0.0
 40
4.167187
  1
単位：mm
100
AcDbText
  0
TEXT
  5
112
330
1E
100
AcDbEntity
  8
MO_001_VIEW_PV
  6
C_SOLID_L
100
AcDbText
 10
35.99362
 20
-37.769596
 30
0.0
 40
3.0
  1
長さ150以上
100
AcDbText
  0
TEXT
  5
113
330
1E
100
AcDbEntity
  8
MO_001_VIEW_PV
  6
C_SOLID_L
100
AcDbText
 10
35.5063
 20
-43.13012299999999
 30
0.0
 40
3.0
  1
(UL1430 AWG20)
100
AcDbText
  0
TEXT
  5
114
330
1E
100
AcDbEntity
  8
MO_001_VIEW_PV
  6
C_SOLID_L
100
AcDbText
 10
-8.243047
 20
-37.408031
 30
0.0
 40
1.5
  1
+0.1
100
AcDbText
  0
TEXT
  5
115
330
1E
100
AcDbEntity
  8
MO_001_VIEW_PV
  6
C_SOLID_L
100
AcDbText
 10
-8.243047
 20
-39.658031
 30
0.0
 40
1.5
  1
 0
100
AcDbText
  0
TEXT
  5
116
330
1E
100
AcDbEntity
  8
MO_001_VIEW_PV
  6
C_SOLID_L
100
AcDbText
 10
-26.028761
 20
-39.283031
 30
0.0
 40
3.0
  1
4-%%C3.6
100
AcDbText
  0
TEXT
  5
117
330
1E
100
AcDbEntity
  8
MO_001_VIEW_PV
  6
C_SOLID_L
100
AcDbText
 10
-19.46334999999999
 20
23.516495
 30
0.0
 40
1.5
  1
%%P0.1
100
AcDbText
  0
TEXT
  5
118
330
1E
100
AcDbEntity
  8
MO_001_VIEW_PV
  6
C_SOLID_L
100
AcDbText
 10
-25.249064
 20
21.641495
 30
0.0
 40
3.0
  1
%%C3
100
AcDbText
  0
TEXT
  5
119
330
1E
100
AcDbEntity
  8
MO_001_VIEW_PV
  6
C_SOLID_L
100
AcDbText
 10
34.511719
 20
-59.083594
 30
0.0
 40
4.167187
  1
図は励磁時を示す
100
AcDbText
  0
DIMENSION
  5
11B
330
1E
100
AcDbEntity
  8
MO_001_VIEW_PV
  6
C_SOLID_M
100
AcDbDimension
  2
*D0
 10
-54.0
 20
27.0
 30
0.0
 11
-54.0
 21
27.0
 31
0.0
  3
STANDARD
100
AcDbAlignedDimension
 13
-34.950001
 23
0.0
 33
0.0
 14
-73.050003
 24
0.0
 34
0.0
100
AcDbRotatedDimension
  0
DIMENSION
  5
11D
330
1E
100
AcDbEntity
  8
MO_001_VIEW_PV
  6
C_SOLID_M
100
AcDbDimension
  2
*D1
 10
33.0
 20
-30.0
 30
0.0
 11
33.0
 21
-30.0
 31
0.0
  3
STANDARD
100
AcDbAlignedDimension
 13
18.1
 23
-24.852789
 33
0.0
 14
47.5
 24
-24.066862
 34
0.0
100
AcDbRotatedDimension
  0
DIMENSION
  5
11F
330
1E
100
AcDbEntity
  8
MO_001_VIEW_PV
  6
C_SOLID_M
100
AcDbDimension
  2
*D2
 10
-10.72599899999999
 20
-30.0
 30
0.0
 11
-10.72599899999999
 21
-30.0
 31
0.0
  3
STANDARD
100
AcDbAlignedDimension
 13
18.1
 23
-24.852789
 33
0.0
 14
0.0
 24
-18.75
 34
0.0
 50
179.97571
100
AcDbRotatedDimension
  0
DIMENSION
  5
121
330
1E
100
AcDbEntity
  8
MO_001_VIEW_PV
  6
C_SOLID_M
100
AcDbDimension
  2
*D3
 10
32.25
 20
30.0
 30
0.0
 11
32.25
 21
30.0
 31
0.0
  3
STANDARD
100
AcDbAlignedDimension
 13
0.0
 23
18.75
 33
0.0
 14
64.5
 24
17.150002
 34
0.0
100
AcDbRotatedDimension
  0
DIMENSION
  5
123
330
1E
100
AcDbEntity
  8
MO_001_VIEW_PV
  6
C_SOLID_M
100
AcDbDimension
  2
*D4
 10
6.0
 20
36.0
 30
0.0
 11
6.0
 21
36.0
 31
0.0
  3
STANDARD
100
AcDbAlignedDimension
 13
-8.0
 23
11.39431
 33
0.0
 14
0.0
 24
18.75
 34
0.0
100
AcDbRotatedDimension
  0
DIMENSION
  5
125
330
1E
100
AcDbEntity
  8
MO_001_VIEW_PV
  6
C_SOLID_M
100
AcDbDimension
  2
*D5
 10
-19.61543299999999
 20
30.0
 30
0.0
 11
-19.61543299999999
 21
30.0
 31
0.0
  3
STANDARD
100
AcDbAlignedDimension
 13
-13.0
 23
7.875
 33
0.0
 14
-8.0
 24
11.39431
 34
0.0
100
AcDbRotatedDimension
  0
DIMENSION
  5
127
330
1E
100
AcDbEntity
  8
MO_001_VIEW_PV
  6
C_SOLID_M
100
AcDbDimension
  2
*D6
 10
-21.0
 20
12.75009
 30
0.0
 11
-21.0
 21
12.75009
 31
0.0
  3
STANDARD
100
AcDbAlignedDimension
 13
-13.0
 23
-2.0
 33
0.0
 14
-13.0
 24
2.0
 34
0.0
 50
89.98785500000002
100
AcDbRotatedDimension
  0
DIMENSION
  5
129
330
1E
100
AcDbEntity
  8
MO_001_VIEW_PV
  6
C_SOLID_M
100
AcDbDimension
  2
*D7
 10
-27.0
 20
25.663179
 30
0.0
 11
-27.0
 21
25.663179
 31
0.0
  3
STANDARD
100
AcDbAlignedDimension
 13
-13.0
 23
7.875
 33
0.0
 14
-13.0
 24
-7.875
 34
0.0
 50
270.012145
100
AcDbRotatedDimension
  0
DIMENSION
  5
12B
330
1E
100
AcDbEntity
  8
MO_001_VIEW_PV
  6
C_SOLID_M
100
AcDbDimension
  2
*D8
 10
-54.0
 20
-39.0
 30
0.0
 11
-54.0
 21
-39.0
 31
0.0
  3
STANDARD
100
AcDbAlignedDimension
 13
-33.349998
 23
-21.44999899999999
 33
0.0
 14
-74.650002
 24
-21.44999899999999
 34
0.0
100
AcDbRotatedDimension
  0
DIMENSION
  5
12D
330
1E
100
AcDbEntity
  8
MO_001_VIEW_PV
  6
C_SOLID_M
100
AcDbDimension
  2
*D9
 10
-54.0
 20
-33.0
 30
0.0
 11
-54.0
 21
-33.0
 31
0.0
  3
STANDARD
100
AcDbAlignedDimension
 13
-37.349998
 23
-23.30837199999999
 33
0.0
 14
-70.650002
 24
-23.75575299999999
 34
0.0
100
AcDbRotatedDimension
  0
DIMENSION
  5
12F
330
1E
100
AcDbEntity
  8
MO_001_VIEW_PV
  6
C_SOLID_M
100
AcDbDimension
  2
*D10
 10
-87.0
 20
-10.724999
 30
0.0
 11
-87.0
 21
-10.724999
 31
0.0
  1
(21.5)
  3
STANDARD
100
AcDbAlignedDimension
 13
-76.10189100000001
 23
0.0
 33
0.0
 14
-74.650002
 24
-21.44999899999999
 34
0.0
 50
89.999523
100
AcDbRotatedDimension
  0
DIMENSION
  5
131
330
1E
100
AcDbEntity
  8
MO_001_VIEW_PV
  6
C_SOLID_M
100
AcDbDimension
  2
*D11
 10
-81.0
 20
-30.967081
 30
0.0
 11
-81.0
 21
-30.967081
 31
0.0
  3
STANDARD
100
AcDbAlignedDimension
 13
-74.650002
 23
-19.84999799999999
 33
0.0
 14
-74.650002
 24
-21.44999899999999
 34
0.0
 50
89.999523
100
AcDbRotatedDimension
  0
DIMENSION
  5
133
330
1E
100
AcDbEntity
  8
MO_001_VIEW_PV
  6
C_SOLID_M
100
AcDbDimension
  2
*D12
 10
-21.0
 20
-24.0
 30
0.0
 11
-21.0
 21
-24.0
 31
0.0
  3
STANDARD
100
AcDbAlignedDimension
 13
-3.5
 23
-2.0
 33
0.0
 14
-13.0
 24
-7.875
 34
0.0
 50
179.97571
100
AcDbRotatedDimension
  0
LINE
  5
134
330
1E
100
AcDbEntity
  8
MO_001_VIEW_PV
  6
C_SOLID_L
100
AcDbLine
 10
-37.350001
 20
-21.44999899999999
 30
0.0
 11
-26.640154
 21
-40.000002
 31
0.0
  0
POLYLINE
  5
135
330
1E
100
AcDbEntity
  8
MO_001_VIEW_PV
  6
C_SOLID_L
100
AcDb2dPolyline
 66
     1
 10
0.0
 20
0.0
 30
0.0
 70
     1
  0
VERTEX
  5
20D
330
135
100
AcDbEntity
  8
MO_001_VIEW_PV
  6
C_SOLID_L
100
AcDbVertex
100
AcDb2dVertex
 10
-35.18553499999999
 20
-24.031941
 30
0.0
  0
VERTEX
  5
20E
330
135
100
AcDbEntity
  8
MO_001_VIEW_PV
  6
C_SOLID_L
100
AcDbVertex
100
AcDb2dVertex
 10
-37.096001
 20
-21.88994
 30
0.0
  0
VERTEX
  5
20F
330
135
100
AcDbEntity
  8
MO_001_VIEW_PV
  6
C_SOLID_L
100
AcDbVertex
100
AcDb2dVertex
 10
-36.196207
 20
-24.61545199999999
 30
0.0
  0
SEQEND
  5
210
330
135
100
AcDbEntity
  8
MO_001_VIEW_PV
  6
C_SOLID_L
  0
LINE
  5
13A
330
1E
100
AcDbEntity
  8
MO_001_VIEW_PV
  6
C_SOLID_L
100
AcDbLine
 10
82.14361999999999
 20
-26.241145
 30
0.0
 11
78.72489399999999
 21
-39.00000099999999
 31
0.0
  0
POLYLINE
  5
13B
330
1E
100
AcDbEntity
  8
MO_001_VIEW_PV
  6
C_SOLID_L
100
AcDb2dPolyline
 66
     1
 10
0.0
 20
0.0
 30
0.0
 70
     1
  0
VERTEX
  5
211
330
13B
100
AcDbEntity
  8
MO_001_VIEW_PV
  6
C_SOLID_L
100
AcDbVertex
100
AcDb2dVertex
 10
81.84841999999999
 20
-29.597362
 30
0.0
  0
VERTEX
  5
212
330
13B
100
AcDbEntity
  8
MO_001_VIEW_PV
  6
C_SOLID_L
100
AcDbVertex
100
AcDb2dVertex
 10
82.01214
 20
-26.73183499999999
 30
0.0
  0
VERTEX
  5
213
330
13B
100
AcDbEntity
  8
MO_001_VIEW_PV
  6
C_SOLID_L
100
AcDbVertex
100
AcDb2dVertex
 10
80.72116199999999
 20
-29.295314
 30
0.0
  0
SEQEND
  5
214
330
13B
100
AcDbEntity
  8
MO_001_VIEW_PV
  6
C_SOLID_L
  0
LINE
  5
140
330
1E
100
AcDbEntity
  8
MO_001_VIEW_PV
  6
C_SOLID_L
100
AcDbLine
 10
-8.000000999999999
 20
7.730825
 30
0.0
 11
-14.187519
 21
20.99999899999999
 31
0.0
  0
POLYLINE
  5
141
330
1E
100
AcDbEntity
  8
MO_001_VIEW_PV
  6
C_SOLID_L
100
AcDb2dPolyline
 66
     1
 10
0.0
 20
0.0
 30
0.0
 70
     1
  0
VERTEX
  5
215
330
141
100
AcDbEntity
  8
MO_001_VIEW_PV
  6
C_SOLID_L
100
AcDbVertex
100
AcDb2dVertex
 10
-9.931199000000001
 20
10.491588
 30
0.0
  0
VERTEX
  5
216
330
141
100
AcDbEntity
  8
MO_001_VIEW_PV
  6
C_SOLID_L
100
AcDbVertex
100
AcDb2dVertex
 10
-8.214691
 20
8.19123
 30
0.0
  0
VERTEX
  5
217
330
141
100
AcDbEntity
  8
MO_001_VIEW_PV
  6
C_SOLID_L
100
AcDbVertex
100
AcDb2dVertex
 10
-8.873516999999999
 20
10.98479299999999
 30
0.0
  0
SEQEND
  5
218
330
141
100
AcDbEntity
  8
MO_001_VIEW_PV
  6
C_SOLID_L
  0
ENDSEC
  0
SECTION
  2
OBJECTS
  0
DICTIONARY
  5
1A
330
0
100
AcDbDictionary
  3
ACAD_GROUP
350
1B
  3
ACAD_MLINESTYLE
350
1C
  3
ACAD_LAYOUT
350
1D3
  3
ACAD_PLOTSETTINGS
350
1D4
1001
ACAD
1000
TREAT_AS_HARD
1070
     0
  0
DICTIONARY
  5
1D9
330
1E
100
AcDbDictionary
  3
ACAD_LAYOUTSELFREF
350
1DA
  0
DICTIONARY
  5
1DB
330
1F
100
AcDbDictionary
  3
ACAD_LAYOUTSELFREF
350
1DC
  0
DICTIONARY
  5
1B
102
{ACAD_REACTORS
330
1A
102
}
330
1A
100
AcDbDictionary
1001
ACAD
1000
TREAT_AS_HARD
1070
     0
  0
DICTIONARY
  5
1C
102
{ACAD_REACTORS
330
1A
102
}
330
1A
100
AcDbDictionary
  3
STANDARD
350
1D
1001
ACAD
1000
TREAT_AS_HARD
1070
     0
  0
DICTIONARY
  5
1D3
102
{ACAD_REACTORS
330
1A
102
}
330
1A
100
AcDbDictionary
1001
ACAD
1000
TREAT_AS_HARD
1070
     0
  0
DICTIONARY
  5
1D4
102
{ACAD_REACTORS
330
1A
102
}
330
1A
100
AcDbDictionary
1001
ACAD
1000
TREAT_AS_HARD
1070
     0
  0
XRECORD
  5
1DA
102
{ACAD_REACTORS
330
1D9
102
}
330
1D9
100
AcDbXrecord
340
1E
  0
XRECORD
  5
1DC
102
{ACAD_REACTORS
330
1DB
102
}
330
1DB
100
AcDbXrecord
340
1F
  0
MLINESTYLE
  5
1D
102
{ACAD_REACTORS
330
1C
102
}
330
1C
100
AcDbMlineStyle
  2
STANDARD
 70
     0
  3

 62
     0
 51
90.0
 52
90.0
 71
     2
 49
0.5
 62
   256
  6
BYLAYER
 49
-0.5
 62
   256
  6
BYLAYER
  0
ENDSEC
  0
EOF
