  0
SECTION
  2
HEADER
  9
$ACADVER
  1
AC1012
  9
$DWGCODEPAGE
  3
dos932
  9
$INSBASE
 10
0.0
 20
0.0
 30
0.0
  9
$EXTMIN
 10
-93.75193608639404
 20
-77.08923837747758
 30
-0.0015258207003583
  9
$EXTMAX
 10
86.34354593812544
 20
40.12964489063892
 30
0.0000000349246037
  9
$LIMMIN
 10
-96.0
 20
-80.208984
  9
$LIMMAX
 10
86.33798099999999
 20
42.0
  9
$ORTHOMODE
 70
     0
  9
$REGENMODE
 70
     1
  9
$FILLMODE
 70
     1
  9
$QTEXTMODE
 70
     0
  9
$MIRRTEXT
 70
     1
  9
$DRAGMODE
 70
     2
  9
$LTSCALE
 40
1.0
  9
$OSMODE
 70
    37
  9
$ATTMODE
 70
     1
  9
$TEXTSIZE
 40
4.1672
  9
$TRACEWID
 40
0.05
  9
$TEXTSTYLE
  7
STANDARD
  9
$CLAYER
  8
0
  9
$CELTYPE
  6
CONTINUOUS
  9
$CECOLOR
 62
   256
  9
$CELTSCALE
 40
1.0
  9
$DELOBJ
 70
     1
  9
$DISPSILH
 70
     0
  9
$DIMSCALE
 40
1.0
  9
$DIMASZ
 40
0.18
  9
$DIMEXO
 40
0.0625
  9
$DIMDLI
 40
0.38
  9
$DIMRND
 40
0.0
  9
$DIMDLE
 40
0.0
  9
$DIMEXE
 40
0.18
  9
$DIMTP
 40
0.0
  9
$DIMTM
 40
0.0
  9
$DIMTXT
 40
0.18
  9
$DIMCEN
 40
0.09
  9
$DIMTSZ
 40
0.0
  9
$DIMTOL
 70
     0
  9
$DIMLIM
 70
     0
  9
$DIMTIH
 70
     1
  9
$DIMTOH
 70
     1
  9
$DIMSE1
 70
     0
  9
$DIMSE2
 70
     0
  9
$DIMTAD
 70
     0
  9
$DIMZIN
 70
     0
  9
$DIMBLK
  1

  9
$DIMASO
 70
     1
  9
$DIMSHO
 70
     1
  9
$DIMPOST
  1

  9
$DIMAPOST
  1

  9
$DIMALT
 70
     0
  9
$DIMALTD
 70
     2
  9
$DIMALTF
 40
25.4
  9
$DIMLFAC
 40
1.0
  9
$DIMTOFL
 70
     0
  9
$DIMTVP
 40
0.0
  9
$DIMTIX
 70
     0
  9
$DIMSOXD
 70
     0
  9
$DIMSAH
 70
     0
  9
$DIMBLK1
  1

  9
$DIMBLK2
  1

  9
$DIMSTYLE
  2
STANDARD
  9
$DIMCLRD
 70
     0
  9
$DIMCLRE
 70
     0
  9
$DIMCLRT
 70
     0
  9
$DIMTFAC
 40
1.0
  9
$DIMGAP
 40
0.09
  9
$DIMJUST
 70
     0
  9
$DIMSD1
 70
     0
  9
$DIMSD2
 70
     0
  9
$DIMTOLJ
 70
     1
  9
$DIMTZIN
 70
     0
  9
$DIMALTZ
 70
     0
  9
$DIMALTTZ
 70
     0
  9
$DIMFIT
 70
     3
  9
$DIMUPT
 70
     0
  9
$DIMUNIT
 70
     2
  9
$DIMDEC
 70
     4
  9
$DIMTDEC
 70
     4
  9
$DIMALTU
 70
     2
  9
$DIMALTTD
 70
     2
  9
$DIMTXSTY
  7
STANDARD
  9
$DIMAUNIT
 70
     0
  9
$LUNITS
 70
     2
  9
$LUPREC
 70
     6
  9
$SKETCHINC
 40
0.1
  9
$FILLETRAD
 40
0.0
  9
$AUNITS
 70
     0
  9
$AUPREC
 70
     4
  9
$MENU
  1
acad
  9
$ELEVATION
 40
0.0
  9
$PELEVATION
 40
0.0
  9
$THICKNESS
 40
0.0
  9
$LIMCHECK
 70
     0
  9
$BLIPMODE
 70
     0
  9
$CHAMFERA
 40
0.0
  9
$CHAMFERB
 40
0.0
  9
$CHAMFERC
 40
0.0
  9
$CHAMFERD
 40
0.0
  9
$SKPOLY
 70
     0
  9
$TDCREATE
 40
2376126.114255868
  9
$TDUPDATE
 40
2451667.435863657
  9
$TDINDWG
 40
0.0009535880
  9
$TDUSRTIMER
 40
0.0009535880
  9
$USRTIMER
 70
     1
  9
$ANGBASE
 50
0.0
  9
$ANGDIR
 70
     0
  9
$PDMODE
 70
     0
  9
$PDSIZE
 40
0.0
  9
$PLINEWID
 40
0.0
  9
$COORDS
 70
     1
  9
$SPLFRAME
 70
     0
  9
$SPLINETYPE
 70
     6
  9
$SPLINESEGS
 70
     8
  9
$ATTDIA
 70
     0
  9
$ATTREQ
 70
     1
  9
$HANDLING
 70
 10241
  9
$HANDSEED
  5
21B
  9
$SURFTAB1
 70
     6
  9
$SURFTAB2
 70
     6
  9
$SURFTYPE
 70
     6
  9
$SURFU
 70
     6
  9
$SURFV
 70
     6
  9
$UCSNAME
  2
MO_001_VIEW_PV_P
  9
$UCSORG
 10
0.0
 20
0.0
 30
0.0
  9
$UCSXDIR
 10
1.0
 20
0.0
 30
0.0
  9
$UCSYDIR
 10
-0.0000000002051034
 20
1.0
 30
0.0
  9
$PUCSNAME
  2

  9
$PUCSORG
 10
0.0
 20
0.0
 30
0.0
  9
$PUCSXDIR
 10
1.0
 20
0.0
 30
0.0
  9
$PUCSYDIR
 10
0.0
 20
1.0
 30
0.0
  9
$USERI1
 70
     0
  9
$USERI2
 70
     0
  9
$USERI3
 70
     0
  9
$USERI4
 70
     0
  9
$USERI5
 70
     0
  9
$USERR1
 40
0.0
  9
$USERR2
 40
0.0
  9
$USERR3
 40
0.0
  9
$USERR4
 40
0.0
  9
$USERR5
 40
0.0
  9
$WORLDVIEW
 70
     1
  9
$SHADEDGE
 70
     3
  9
$SHADEDIF
 70
    70
  9
$TILEMODE
 70
     1
  9
$MAXACTVP
 70
    16
  9
$PINSBASE
 10
0.0
 20
0.0
 30
0.0
  9
$PLIMCHECK
 70
     0
  9
$PEXTMIN
 10
-96.0
 20
-80.208984
 30
1.000000000000000E+20
  9
$PEXTMAX
 10
86.33798099999999
 20
42.0
 30
-1.000000000000000E+20
  9
$PLIMMIN
 10
0.0
 20
0.0
  9
$PLIMMAX
 10
12.0
 20
9.0
  9
$UNITMODE
 70
     0
  9
$VISRETAIN
 70
     0
  9
$PLINEGEN
 70
     0
  9
$PSLTSCALE
 70
     1
  9
$TREEDEPTH
 70
  3020
  9
$PICKSTYLE
 70
     1
  9
$CMLSTYLE
  2
STANDARD
  9
$CMLJUST
 70
     0
  9
$CMLSCALE
 40
1.0
  9
$SAVEIMAGES
 70
     1
  0
ENDSEC
  0
SECTION
  2
CLASSES
  0
CLASS
  1
ACDBDICTIONARYWDFLT
  2
AcDbDictionaryWithDefault
  3
AutoCAD 2000
 90
    32768
280
     0
281
     0
  0
CLASS
  1
ACDBPLACEHOLDER
  2
AcDbPlaceHolder
  3
AutoCAD 2000
 90
    32768
280
     0
281
     0
  0
CLASS
  1
LAYOUT
  2
AcDbLayout
  3
AutoCAD 2000
 90
    32768
280
     0
281
     0
  0
CLASS
  1
LONG_TRANSACTION
  2
AcDbLongTransaction
  3
AutoCAD 2000
 90
    32768
280
     0
281
     0
  0
CLASS
  1
LWPOLYLINE
  2
AcDbPolyline
  3
AutoCAD 2000
 90
    32768
280
     0
281
     1
  0
CLASS
  1
HATCH
  2
AcDbHatch
  3
AutoCAD 2000
 90
    32768
280
     0
281
     1
  0
CLASS
  1
XRECORD
  2
AcDbXrecord
  3
AutoCAD 2000
 90
    32768
280
     0
281
     0
  0
ENDSEC
  0
SECTION
  2
TABLES
  0
TABLE
  2
VPORT
  5
7
330
0
100
AcDbSymbolTable
 70
     2
  0
VPORT
  5
1D8
330
7
100
AcDbSymbolTableRecord
100
AcDbViewportTableRecord
  2
*ACTIVE
 70
     0
 10
0.0
 20
0.0
 11
1.0
 21
1.0
 12
1.110355569847911
 22
-24.36930545085543
 13
0.0
 23
0.0
 14
6.349999999999999
 24
6.349999999999999
 15
6.349999999999999
 25
6.349999999999999
 16
0.0
 26
0.0
 36
1.0
 17
0.0
 27
0.0
 37
0.0
 40
175.4937737527258
 41
1.691964285714285
 42
50.0
 43
0.0
 44
0.0
 50
0.0
 51
0.0
 71
     0
 72
   100
 73
     1
 74
     1
 75
     0
 76
     0
 77
     0
 78
     0
  0
ENDTAB
  0
TABLE
  2
LTYPE
  5
4
330
0
100
AcDbSymbolTable
 70
    37
  0
LTYPE
  5
12
330
4
100
AcDbSymbolTableRecord
100
AcDbLinetypeTableRecord
  2
BYBLOCK
 70
     0
  3

 72
    65
 73
     0
 40
0.0
  0
LTYPE
  5
13
330
4
100
AcDbSymbolTableRecord
100
AcDbLinetypeTableRecord
  2
BYLAYER
 70
     0
  3

 72
    65
 73
     0
 40
0.0
  0
LTYPE
  5
14
330
4
100
AcDbSymbolTableRecord
100
AcDbLinetypeTableRecord
  2
CONTINUOUS
 70
     0
  3
DXF Default line type
 72
    65
 73
     0
 40
0.0
  0
LTYPE
  5
20
330
4
100
AcDbSymbolTableRecord
100
AcDbLinetypeTableRecord
  2
DASHED
 70
     0
  3
DXF Dashed
 72
    65
 73
     2
 40
0.75
 49
0.5
 74
     0
 49
-0.25
 74
     0
  0
LTYPE
  5
21
330
4
100
AcDbSymbolTableRecord
100
AcDbLinetypeTableRecord
  2
HIDDEN
 70
     0
  3
DXF Hidden
 72
    65
 73
     2
 40
0.375
 49
0.25
 74
     0
 49
-0.125
 74
     0
  0
LTYPE
  5
22
330
4
100
AcDbSymbolTableRecord
100
AcDbLinetypeTableRecord
  2
CENTER
 70
     0
  3
DXF Center
 72
    65
 73
     4
 40
2.0
 49
1.25
 74
     0
 49
-0.25
 74
     0
 49
0.25
 74
     0
 49
-0.25
 74
     0
  0
LTYPE
  5
23
330
4
100
AcDbSymbolTableRecord
100
AcDbLinetypeTableRecord
  2
PHANTOM
 70
     0
  3
DXF Phantom
 72
    65
 73
     6
 40
2.5
 49
1.25
 74
     0
 49
-0.25
 74
     0
 49
0.25
 74
     0
 49
-0.25
 74
     0
 49
0.25
 74
     0
 49
-0.25
 74
     0
  0
LTYPE
  5
24
330
4
100
AcDbSymbolTableRecord
100
AcDbLinetypeTableRecord
  2
DOT
 70
     0
  3
DXF DOT
 72
    65
 73
     2
 40
0.25
 49
0.0
 74
     0
 49
-0.25
 74
     0
  0
LTYPE
  5
25
330
4
100
AcDbSymbolTableRecord
100
AcDbLinetypeTableRecord
  2
DASHDOT
 70
     0
  3
DXF Dash Dot
 72
    65
 73
     4
 40
1.0
 49
0.5
 74
     0
 49
-0.25
 74
     0
 49
0.0
 74
     0
 49
-0.25
 74
     0
  0
LTYPE
  5
26
330
4
100
AcDbSymbolTableRecord
100
AcDbLinetypeTableRecord
  2
BORDER
 70
     0
  3
DXF Border
 72
    65
 73
     6
 40
1.75
 49
0.5
 74
     0
 49
-0.25
 74
     0
 49
0.5
 74
     0
 49
-0.25
 74
     0
 49
0.0
 74
     0
 49
-0.25
 74
     0
  0
LTYPE
  5
27
330
4
100
AcDbSymbolTableRecord
100
AcDbLinetypeTableRecord
  2
DIVIDE
 70
     0
  3
DXF Divide
 72
    65
 73
     6
 40
1.25
 49
0.5
 74
     0
 49
-0.25
 74
     0
 49
0.0
 74
     0
 49
-0.25
 74
     0
 49
0.0
 74
     0
 49
-0.25
 74
     0
  0
LTYPE
  5
28
330
4
100
AcDbSymbolTableRecord
100
AcDbLinetypeTableRecord
  2
C_SOLID_L
 70
     0
  3
CADAM Solid Light
 72
    65
 73
     0
 40
0.0
  0
LTYPE
  5
29
330
4
100
AcDbSymbolTableRecord
100
AcDbLinetypeTableRecord
  2
C_SOLID_M
 70
     0
  3
CADAM Solid Medium
 72
    65
 73
     0
 40
0.0
  0
LTYPE
  5
2A
330
4
100
AcDbSymbolTableRecord
100
AcDbLinetypeTableRecord
  2
C_SOLID_H
 70
     0
  3
CADAM Solid Heavy
 72
    65
 73
     0
 40
0.0
  0
LTYPE
  5
2B
330
4
100
AcDbSymbolTableRecord
100
AcDbLinetypeTableRecord
  2
C_DASHED_L
 70
     0
  3
CADAM Dashed Light
 72
    65
 73
     2
 40
0.375
 49
0.25
 74
     0
 49
-0.125
 74
     0
  0
LTYPE
  5
2C
330
4
100
AcDbSymbolTableRecord
100
AcDbLinetypeTableRecord
  2
C_DASHED_M
 70
     0
  3
CADAM Dashed Medium
 72
    65
 73
     2
 40
0.5
 49
0.375
 74
     0
 49
-0.125
 74
     0
  0
LTYPE
  5
2D
330
4
100
AcDbSymbolTableRecord
100
AcDbLinetypeTableRecord
  2
C_CENTER_L
 70
     0
  3
CADAM Center Light
 72
    65
 73
     4
 40
2.0
 49
1.25
 74
     0
 49
-0.25
 74
     0
 49
0.25
 74
     0
 49
-0.25
 74
     0
  0
LTYPE
  5
2E
330
4
100
AcDbSymbolTableRecord
100
AcDbLinetypeTableRecord
  2
C_PHANTOM_L
 70
     0
  3
CADAM Phantom Light
 72
    65
 73
     6
 40
2.5
 49
1.25
 74
     0
 49
-0.25
 74
     0
 49
0.25
 74
     0
 49
-0.25
 74
     0
 49
0.25
 74
     0
 49
-0.25
 74
     0
  0
LTYPE
  5
2F
330
4
100
AcDbSymbolTableRecord
100
AcDbLinetypeTableRecord
  2
C_BREAK_M
 70
     0
  3
CADAM Break Medium
 72
    65
 73
     4
 40
1.0
 49
0.5
 74
     0
 49
-0.25
 74
     0
 49
0.0
 74
     0
 49
-0.25
 74
     0
  0
LTYPE
  5
30
330
4
100
AcDbSymbolTableRecord
100
AcDbLinetypeTableRecord
  2
C_NC
 70
     0
  3
CADAM NC
 72
    65
 73
     0
 40
0.0
  0
LTYPE
  5
31
330
4
100
AcDbSymbolTableRecord
100
AcDbLinetypeTableRecord
  2
DSH1
 70
     0
  3
CADAM Style2 Type 1 Dashed Line
 72
    65
 73
     2
 40
0.075
 49
0.04
 74
     0
 49
-0.035
 74
     0
  0
LTYPE
  5
32
330
4
100
AcDbSymbolTableRecord
100
AcDbLinetypeTableRecord
  2
DSH2
 70
     0
  3
CADAM Style2 Type 2 Dashed Line
 72
    65
 73
     2
 40
0.15
 49
0.11
 74
     0
 49
-0.04
 74
     0
  0
LTYPE
  5
33
330
4
100
AcDbSymbolTableRecord
100
AcDbLinetypeTableRecord
  2
DSH3
 70
     0
  3
CADAM Style2 Type 3 Dashed Line
 72
    65
 73
     2
 40
0.2
 49
0.15
 74
     0
 49
-0.05
 74
     0
  0
LTYPE
  5
34
330
4
100
AcDbSymbolTableRecord
100
AcDbLinetypeTableRecord
  2
DSH4
 70
     0
  3
CADAM Style2 Type 4 Dashed Line
 72
    65
 73
     2
 40
0.36
 49
0.28
 74
     0
 49
-0.08
 74
     0
  0
LTYPE
  5
35
330
4
100
AcDbSymbolTableRecord
100
AcDbLinetypeTableRecord
  2
DSH5
 70
     0
  3
CADAM Style2 Type 5 Dashed Line
 72
    65
 73
     2
 40
0.47
 49
0.39
 74
     0
 49
-0.08
 74
     0
  0
LTYPE
  5
36
330
4
100
AcDbSymbolTableRecord
100
AcDbLinetypeTableRecord
  2
DSH6
 70
     0
  3
CADAM Style2 Type 6 Dashed Line
 72
    65
 73
     2
 40
0.9
 49
0.8100000000000001
 74
     0
 49
-0.09
 74
     0
  0
LTYPE
  5
37
330
4
100
AcDbSymbolTableRecord
100
AcDbLinetypeTableRecord
  2
PL1
 70
     0
  3
Style 2 Type 1 Phantom Line
 72
    65
 73
     6
 40
1.0
 49
0.6
 74
     0
 49
-0.08
 74
     0
 49
0.08
 74
     0
 49
-0.08
 74
     0
 49
0.08
 74
     0
 49
-0.08
 74
     0
  0
LTYPE
  5
38
330
4
100
AcDbSymbolTableRecord
100
AcDbLinetypeTableRecord
  2
PL2
 70
     0
  3
Style 2 Type 2 Phantom Line
 72
    65
 73
     6
 40
1.08
 49
0.6
 74
     0
 49
-0.08
 74
     0
 49
0.12
 74
     0
 49
-0.08
 74
     0
 49
0.12
 74
     0
 49
-0.08
 74
     0
  0
LTYPE
  5
39
330
4
100
AcDbSymbolTableRecord
100
AcDbLinetypeTableRecord
  2
PL3
 70
     0
  3
Style 2 Type 3 Phantom Line
 72
    65
 73
     6
 40
2.0
 49
1.439999999999999
 74
     0
 49
-0.08
 74
     0
 49
0.16
 74
     0
 49
-0.08
 74
     0
 49
0.16
 74
     0
 49
-0.08
 74
     0
  0
LTYPE
  5
3A
330
4
100
AcDbSymbolTableRecord
100
AcDbLinetypeTableRecord
  2
CL1
 70
     0
  3
CADAM Style 2 Type 1 Center Line
 72
    65
 73
     4
 40
0.7
 49
0.45
 74
     0
 49
-0.06
 74
     0
 49
0.13
 74
     0
 49
-0.06
 74
     0
  0
LTYPE
  5
3B
330
4
100
AcDbSymbolTableRecord
100
AcDbLinetypeTableRecord
  2
CL2
 70
     0
  3
CADAM Style 2 Type 2 Center Line
 72
    65
 73
     4
 40
1.199999999999999
 49
1.01
 74
     0
 49
-0.06
 74
     0
 49
0.11
 74
     0
 49
-0.06
 74
     0
  0
LTYPE
  5
3C
330
4
100
AcDbSymbolTableRecord
100
AcDbLinetypeTableRecord
  2
CL3
 70
     0
  3
CADAM Style 2 Type 3 Center Line
 72
    65
 73
     4
 40
1.199999999999999
 49
0.98
 74
     0
 49
-0.06
 74
     0
 49
0.1
 74
     0
 49
-0.06
 74
     0
  0
LTYPE
  5
3D
330
4
100
AcDbSymbolTableRecord
100
AcDbLinetypeTableRecord
  2
CL4
 70
     0
  3
CADAM Style 2 Type 4 Center Line
 72
    65
 73
     4
 40
2.2
 49
1.929999999999999
 74
     0
 49
-0.07
 74
     0
 49
0.13
 74
     0
 49
-0.07
 74
     0
  0
LTYPE
  5
3E
330
4
100
AcDbSymbolTableRecord
100
AcDbLinetypeTableRecord
  2
CL5
 70
     0
  3
CADAM Style 2 Type 5 Center Line
 72
    65
 73
     4
 40
2.2
 49
1.879999999999999
 74
     0
 49
-0.07
 74
     0
 49
0.18
 74
     0
 49
-0.07
 74
     0
  0
LTYPE
  5
3F
330
4
100
AcDbSymbolTableRecord
100
AcDbLinetypeTableRecord
  2
SBK1
 70
     0
  3
CADAM Style 2 Type 1 SetBack Line
 72
    65
 73
     8
 40
2.7
 49
0.1
 74
     0
 49
-0.08
 74
     0
 49
0.1
 74
     0
 49
-0.8
 74
     0
 49
0.0
 74
     0
 49
0.0
 74
     0
 49
0.0
 74
     0
 49
0.0
 74
     0
  0
LTYPE
  5
40
330
4
100
AcDbSymbolTableRecord
100
AcDbLinetypeTableRecord
  2
SBK2
 70
     0
  3
CADAM Style 2 Type 2 SetBack Line
 72
    65
 73
     8
 40
3.709999999999999
 49
0.13
 74
     0
 49
-0.08
 74
     0
 49
0.13
 74
     0
 49
-0.8
 74
     0
 49
0.0
 74
     0
 49
0.0
 74
     0
 49
0.0
 74
     0
 49
0.0
 74
     0
  0
LTYPE
  5
41
330
4
100
AcDbSymbolTableRecord
100
AcDbLinetypeTableRecord
  2
STCH
 70
     0
  3
CADAM Style2 Stitch Line
 72
    65
 73
     2
 40
0.25
 49
0.0
 74
     0
 49
-0.25
 74
     0
  0
LTYPE
  5
42
330
4
100
AcDbSymbolTableRecord
100
AcDbLinetypeTableRecord
  2
MTCH
 70
     0
  3
CADAM Style2 Match Line
 72
    65
 73
     6
 40
2.0
 49
1.439999999999999
 74
     0
 49
-0.8
 74
     0
 49
0.16
 74
     0
 49
-0.08
 74
     0
 49
0.16
 74
     0
 49
-0.08
 74
     0
  0
LTYPE
  5
43
330
4
100
AcDbSymbolTableRecord
100
AcDbLinetypeTableRecord
  2
SLD
 70
     0
  3
CADAM Solid_EXT2
 72
    65
 73
     0
 40
0.0
  0
ENDTAB
  0
TABLE
  2
LAYER
  5
2
330
0
100
AcDbSymbolTable
 70
     7
  0
LAYER
  5
15
330
2
100
AcDbSymbolTableRecord
100
AcDbLayerTableRecord
  2
0
 70
     0
 62
     7
  6
CONTINUOUS
  0
LAYER
  5
44
330
2
100
AcDbSymbolTableRecord
100
AcDbLayerTableRecord
  2
MO_001_NOSHOW
 70
     1
 62
     7
  6
CONTINUOUS
  0
LAYER
  5
45
330
2
100
AcDbSymbolTableRecord
100
AcDbLayerTableRecord
  2
MO_001_VIEW_PV
 70
     0
 62
     7
  6
CONTINUOUS
  0
LAYER
  5
46
330
2
100
AcDbSymbolTableRecord
100
AcDbLayerTableRecord
  2
OVERLAY_MAP
 70
     1
 62
     7
  6
CONTINUOUS
  0
LAYER
  5
47
330
2
100
AcDbSymbolTableRecord
100
AcDbLayerTableRecord
  2
DITTOS
 70
     0
 62
     7
  6
CONTINUOUS
  0
LAYER
  5
48
330
2
100
AcDbSymbolTableRecord
100
AcDbLayerTableRecord
  2
SYMBOLS
 70
     0
 62
     7
  6
CONTINUOUS
  0
LAYER
  5
49
330
2
100
AcDbSymbolTableRecord
100
AcDbLayerTableRecord
  2
SETS
 70
     0
 62
     7
  6
CONTINUOUS
  0
ENDTAB
  0
TABLE
  2
STYLE
  5
3
330
0
100
AcDbSymbolTable
 70
     1
  0
STYLE
  5
18
330
3
100
AcDbSymbolTableRecord
100
AcDbTextStyleTableRecord
  2
STANDARD
 70
     0
 40
4.1672
 41
1.0
 50
0.0
 71
     0
 42
4.1672
  3
monotxt
  4
BIGFONT
  0
ENDTAB
  0
TABLE
  2
VIEW
  5
5
330
0
100
AcDbSymbolTable
 70
     0
  0
ENDTAB
  0
TABLE
  2
UCS
  5
6
330
0
100
AcDbSymbolTable
 70
     1
  0
UCS
  5
4A
330
6
100
AcDbSymbolTableRecord
100
AcDbUCSTableRecord
  2
MO_001_VIEW_PV_P
 70
     0
 10
0.0
 20
0.0
 30
0.0
 11
1.0
 21
0.0
 31
0.0
 12
-0.0000000002051034
 22
1.0
 32
0.0
  0
ENDTAB
  0
TABLE
  2
APPID
  5
8
330
0
100
AcDbSymbolTable
 70
     1
  0
APPID
  5
17
330
8
100
AcDbSymbolTableRecord
100
AcDbRegAppTableRecord
  2
ACAD
 70
     0
  0
ENDTAB
  0
TABLE
  2
DIMSTYLE
  5
9
330
0
100
AcDbSymbolTable
 70
     1
  0
DIMSTYLE
105
19
102
{ACAD_REACTORS
330
119
330
11B
330
11D
330
11F
330
121
330
123
330
125
330
127
330
129
330
12B
330
12D
330
13B
330
143
102
}
330
9
100
AcDbSymbolTableRecord
100
AcDbDimStyleTableRecord
  2
STANDARD
 70
     0
  3

  4

  5

  6

  7

 40
1.0
 41
0.18
 42
0.0625
 43
0.38
 44
0.18
 45
0.0
 46
0.0
 47
0.0
 48
0.0
140
0.18
141
0.09
142
0.0
143
25.4
144
1.0
145
0.0
146
1.0
147
0.09
 71
     0
 72
     0
 73
     1
 74
     1
 75
     0
 76
     0
 77
     0
 78
     0
170
     0
171
     2
172
     0
173
     0
174
     0
175
     0
176
     0
177
     0
178
     0
270
     2
271
     4
272
     4
273
     2
274
     2
340
18
275
     0
280
     0
281
     0
282
     0
283
     1
284
     0
285
     0
286
     0
287
     3
288
     0
  0
ENDTAB
  0
TABLE
  2
BLOCK_RECORD
  5
C
330
0
100
AcDbSymbolTable
 70
    13
  0
BLOCK_RECORD
  5
1E
102
{ACAD_XDICTIONARY
360
1D9
102
}
330
C
100
AcDbSymbolTableRecord
100
AcDbBlockTableRecord
  2
*MODEL_SPACE
  0
BLOCK_RECORD
  5
1F
102
{ACAD_XDICTIONARY
360
1DB
102
}
330
C
100
AcDbSymbolTableRecord
100
AcDbBlockTableRecord
  2
*PAPER_SPACE
  0
BLOCK_RECORD
  5
118
330
C
100
AcDbSymbolTableRecord
100
AcDbBlockTableRecord
  2
*D0
  0
BLOCK_RECORD
  5
11A
330
C
100
AcDbSymbolTableRecord
100
AcDbBlockTableRecord
  2
*D1
  0
BLOCK_RECORD
  5
11C
330
C
100
AcDbSymbolTableRecord
100
AcDbBlockTableRecord
  2
*D2
  0
BLOCK_RECORD
  5
11E
330
C
100
AcDbSymbolTableRecord
100
AcDbBlockTableRecord
  2
*D3
  0
BLOCK_RECORD
  5
120
330
C
100
AcDbSymbolTableRecord
100
AcDbBlockTableRecord
  2
*D4
  0
BLOCK_RECORD
  5
122
330
C
100
AcDbSymbolTableRecord
100
AcDbBlockTableRecord
  2
*D5
  0
BLOCK_RECORD
  5
124
330
C
100
AcDbSymbolTableRecord
100
AcDbBlockTableRecord
  2
*D6
  0
BLOCK_RECORD
  5
126
330
C
100
AcDbSymbolTableRecord
100
AcDbBlockTableRecord
  2
*D7
  0
BLOCK_RECORD
  5
128
330
C
100
AcDbSymbolTableRecord
100
AcDbBlockTableRecord
  2
*D8
  0
BLOCK_RECORD
  5
12A
330
C
100
AcDbSymbolTableRecord
100
AcDbBlockTableRecord
  2
*D9
  0
BLOCK_RECORD
  5
12C
330
C
100
AcDbSymbolTableRecord
100
AcDbBlockTableRecord
  2
*D10
  0
BLOCK_RECORD
  5
13A
330
C
100
AcDbSymbolTableRecord
100
AcDbBlockTableRecord
  2
*D11
  0
BLOCK_RECORD
  5
142
330
C
100
AcDbSymbolTableRecord
100
AcDbBlockTableRecord
  2
*D12
  0
ENDTAB
  0
ENDSEC
  0
SECTION
  2
BLOCKS
  0
BLOCK
  5
E
330
1E
100
AcDbEntity
  8
0
100
AcDbBlockBegin
  2
*MODEL_SPACE
 70
     0
 10
0.0
 20
0.0
 30
0.0
  3
*MODEL_SPACE
  1

  0
ENDBLK
  5
F
330
1E
100
AcDbEntity
  8
0
100
AcDbBlockEnd
  0
BLOCK
  5
10
330
1F
100
AcDbEntity
 67
     1
  8
0
100
AcDbBlockBegin
  2
*PAPER_SPACE
 70
     0
 10
0.0
 20
0.0
 30
0.0
  3
*PAPER_SPACE
  1

  0
ENDBLK
  5
11
330
1F
100
AcDbEntity
 67
     1
  8
0
100
AcDbBlockEnd
  0
BLOCK
  5
144
330
118
100
AcDbEntity
  8
0
100
AcDbBlockBegin
  2
*D0
 70
     1
 10
0.0
 20
0.0
 30
0.0
  3
*D0
  1

  0
TEXT
  5
145
330
118
100
AcDbEntity
  8
MO_001_VIEW_PV
  6
BYBLOCK
100
AcDbText
 10
31.96428599999999
 20
32.625
 30
0.0
 40
1.5
  1
%%P0.5
100
AcDbText
  0
TEXT
  5
146
330
118
100
AcDbEntity
  8
MO_001_VIEW_PV
  6
BYBLOCK
100
AcDbText
 10
20.178571
 20
30.75
 30
0.0
 40
3.0
  1
57.5
100
AcDbText
  0
LINE
  5
147
330
118
100
AcDbEntity
  8
MO_001_VIEW_PV
  6
BYBLOCK
100
AcDbLine
 10
57.5
 20
30.0
 30
0.0
 11
0.0
 21
30.0
 31
0.0
  0
SOLID
  5
148
330
118
100
AcDbEntity
  8
MO_001_VIEW_PV
  6
BYBLOCK
100
AcDbTrace
 10
54.18174
 20
29.416488
 30
0.0
 11
56.992
 21
30.0
 31
0.0
 12
54.18174
 22
30.583512
 32
0.0
 13
54.18174
 23
30.583512
 33
0.0
  0
SOLID
  5
149
330
118
100
AcDbEntity
  8
MO_001_VIEW_PV
  6
BYBLOCK
100
AcDbTrace
 10
3.318259999999999
 20
30.583512
 30
0.0
 11
0.508
 21
30.0
 31
0.0
 12
3.318259999999999
 22
29.416488
 32
0.0
 13
3.318259999999999
 23
29.416488
 33
0.0
  0
LINE
  5
14A
330
118
100
AcDbEntity
  8
MO_001_VIEW_PV
  6
BYBLOCK
100
AcDbLine
 10
57.5
 20
15.9
 30
0.0
 11
57.5
 21
32.28599899999999
 31
0.0
  0
LINE
  5
14B
330
118
100
AcDbEntity
  8
MO_001_VIEW_PV
  6
BYBLOCK
100
AcDbLine
 10
0.0
 20
15.599999
 30
0.0
 11
0.0
 21
32.28599899999999
 31
0.0
  0
ENDBLK
  5
14C
330
118
100
AcDbEntity
  8
0
100
AcDbBlockEnd
  0
BLOCK
  5
14D
330
11A
100
AcDbEntity
  8
0
100
AcDbBlockBegin
  2
*D1
 70
     1
 10
0.0
 20
0.0
 30
0.0
  3
*D1
  1

  0
TEXT
  5
14E
330
11A
100
AcDbEntity
  8
MO_001_VIEW_PV
  6
BYBLOCK
100
AcDbText
 10
32.714286
 20
-33.375
 30
0.0
 40
1.5
  1
%%P0.2
100
AcDbText
  0
TEXT
  5
14F
330
11A
100
AcDbEntity
  8
MO_001_VIEW_PV
  6
BYBLOCK
100
AcDbText
 10
20.92857099999999
 20
-35.25
 30
0.0
 40
3.0
  1
29.4
100
AcDbText
  0
LINE
  5
150
330
11A
100
AcDbEntity
  8
MO_001_VIEW_PV
  6
BYBLOCK
100
AcDbLine
 10
14.8
 20
-36.0
 30
0.0
 11
44.200001
 21
-36.0
 31
0.0
  0
SOLID
  5
151
330
11A
100
AcDbEntity
  8
MO_001_VIEW_PV
  6
BYBLOCK
100
AcDbTrace
 10
18.11825999999999
 20
-35.416488
 30
0.0
 11
15.308
 21
-36.0
 31
0.0
 12
18.11825999999999
 22
-36.583512
 32
0.0
 13
18.11825999999999
 23
-36.583512
 33
0.0
  0
SOLID
  5
152
330
11A
100
AcDbEntity
  8
MO_001_VIEW_PV
  6
BYBLOCK
100
AcDbTrace
 10
40.88174099999999
 20
-36.583512
 30
0.0
 11
43.69200099999999
 21
-36.0
 31
0.0
 12
40.88174099999999
 22
-35.416488
 32
0.0
 13
40.88174099999999
 23
-35.416488
 33
0.0
  0
LINE
  5
153
330
11A
100
AcDbEntity
  8
MO_001_VIEW_PV
  6
BYBLOCK
100
AcDbLine
 10
14.8
 20
-21.297028
 30
0.0
 11
14.8
 21
-38.285999
 31
0.0
  0
LINE
  5
154
330
11A
100
AcDbEntity
  8
MO_001_VIEW_PV
  6
BYBLOCK
100
AcDbLine
 10
44.200001
 20
-21.297028
 30
0.0
 11
44.200001
 21
-38.285999
 31
0.0
  0
ENDBLK
  5
155
330
11A
100
AcDbEntity
  8
0
100
AcDbBlockEnd
  0
BLOCK
  5
156
330
11C
100
AcDbEntity
  8
0
100
AcDbBlockBegin
  2
*D2
 70
     1
 10
0.0
 20
0.0
 30
0.0
  3
*D2
  1

  0
TEXT
  5
157
330
11C
100
AcDbEntity
  8
MO_001_VIEW_PV
  6
BYBLOCK
100
AcDbText
 10
-7.159455
 20
-33.375
 30
0.0
 40
1.5
  1
%%P0.4
100
AcDbText
  0
TEXT
  5
158
330
11C
100
AcDbEntity
  8
MO_001_VIEW_PV
  6
BYBLOCK
100
AcDbText
 10
-18.94517
 20
-35.25
 30
0.0
 40
3.0
  1
14.8
100
AcDbText
  0
LINE
  5
159
330
11C
100
AcDbEntity
  8
MO_001_VIEW_PV
  6
BYBLOCK
100
AcDbLine
 10
14.8
 20
-36.0
 30
0.0
 11
0.0
 21
-36.0
 31
0.0
  0
SOLID
  5
15A
330
11C
100
AcDbEntity
  8
MO_001_VIEW_PV
  6
BYBLOCK
100
AcDbTrace
 10
11.48174
 20
-36.583512
 30
0.0
 11
14.29199999999999
 21
-36.0
 31
0.0
 12
11.48174
 22
-35.416488
 32
0.0
 13
11.48174
 23
-35.416488
 33
0.0
  0
SOLID
  5
15B
330
11C
100
AcDbEntity
  8
MO_001_VIEW_PV
  6
BYBLOCK
100
AcDbTrace
 10
3.318259999999999
 20
-35.416488
 30
0.0
 11
0.508
 21
-36.0
 31
0.0
 12
3.318259999999999
 22
-36.583512
 32
0.0
 13
3.318259999999999
 23
-36.583512
 33
0.0
  0
LINE
  5
15C
330
11C
100
AcDbEntity
  8
MO_001_VIEW_PV
  6
BYBLOCK
100
AcDbLine
 10
14.8
 20
-21.297028
 30
0.0
 11
14.8
 21
-38.285999
 31
0.0
  0
LINE
  5
15D
330
11C
100
AcDbEntity
  8
MO_001_VIEW_PV
  6
BYBLOCK
100
AcDbLine
 10
0.0
 20
-15.599999
 30
0.0
 11
0.0
 21
-38.285999
 31
0.0
  0
LINE
  5
15E
330
11C
100
AcDbEntity
  8
MO_001_VIEW_PV
  6
BYBLOCK
100
AcDbLine
 10
0.0
 20
-36.0
 30
0.0
 11
-19.90945599999999
 21
-36.0
 31
0.0
  0
ENDBLK
  5
15F
330
11C
100
AcDbEntity
  8
0
100
AcDbBlockEnd
  0
BLOCK
  5
160
330
11E
100
AcDbEntity
  8
0
100
AcDbBlockBegin
  2
*D3
 70
     1
 10
0.0
 20
0.0
 30
0.0
  3
*D3
  1

  0
LINE
  5
161
330
11E
100
AcDbEntity
  8
MO_001_VIEW_PV
  6
BYBLOCK
100
AcDbLine
 10
-90.0
 20
-18.29999899999999
 30
0.0
 11
-90.0
 21
0.0
 31
0.0
  0
SOLID
  5
162
330
11E
100
AcDbEntity
  8
MO_001_VIEW_PV
  6
BYBLOCK
100
AcDbTrace
 10
-90.583512
 20
-14.981739
 30
0.0
 11
-90.0
 21
-17.791999
 31
0.0
 12
-89.41648800000001
 22
-14.981739
 32
0.0
 13
-89.41648800000001
 23
-14.981739
 33
0.0
  0
SOLID
  5
163
330
11E
100
AcDbEntity
  8
MO_001_VIEW_PV
  6
BYBLOCK
100
AcDbTrace
 10
-89.41648800000001
 20
-3.318259999999999
 30
0.0
 11
-90.0
 21
-0.508
 31
0.0
 12
-90.583512
 22
-3.318259999999999
 32
0.0
 13
-90.583512
 23
-3.318259999999999
 33
0.0
  0
LINE
  5
164
330
11E
100
AcDbEntity
  8
MO_001_VIEW_PV
  6
BYBLOCK
100
AcDbLine
 10
-80.64999399999999
 20
-18.29999899999999
 30
0.0
 11
-92.28600300000001
 21
-18.29999899999999
 31
0.0
  0
LINE
  5
165
330
11E
100
AcDbEntity
  8
MO_001_VIEW_PV
  6
BYBLOCK
100
AcDbLine
 10
-80.55264300000001
 20
0.0
 30
0.0
 11
-92.28600300000001
 21
0.0
 31
0.0
  0
TEXT
  5
166
330
11E
100
AcDbEntity
  8
MO_001_VIEW_PV
  6
BYBLOCK
100
AcDbText
 10
-90.75000000000001
 20
0.428571
 30
0.0
 40
3.0
  1
(18.3)
 50
90.0
100
AcDbText
  0
LINE
  5
167
330
11E
100
AcDbEntity
  8
MO_001_VIEW_PV
  6
BYBLOCK
100
AcDbLine
 10
-90.0
 20
0.0
 30
0.0
 11
-90.0
 21
18.535713
 31
0.0
  0
ENDBLK
  5
168
330
11E
100
AcDbEntity
  8
0
100
AcDbBlockEnd
  0
BLOCK
  5
169
330
120
100
AcDbEntity
  8
0
100
AcDbBlockBegin
  2
*D4
 70
     1
 10
0.0
 20
0.0
 30
0.0
  3
*D4
  1

  0
LINE
  5
16A
330
120
100
AcDbEntity
  8
MO_001_VIEW_PV
  6
BYBLOCK
100
AcDbLine
 10
-84.0
 20
-18.29999899999999
 30
0.0
 11
-84.0
 21
-16.69999899999999
 31
0.0
  0
LINE
  5
16B
330
120
100
AcDbEntity
  8
MO_001_VIEW_PV
  6
BYBLOCK
100
AcDbLine
 10
-84.0
 20
-18.29999899999999
 30
0.0
 11
-84.0
 21
-24.649999
 31
0.0
  0
LINE
  5
16C
330
120
100
AcDbEntity
  8
MO_001_VIEW_PV
  6
BYBLOCK
100
AcDbLine
 10
-84.0
 20
-16.69999899999999
 30
0.0
 11
-84.0
 21
-10.349999
 31
0.0
  0
SOLID
  5
16D
330
120
100
AcDbEntity
  8
MO_001_VIEW_PV
  6
BYBLOCK
100
AcDbTrace
 10
-83.41648799999999
 20
-21.61825899999999
 30
0.0
 11
-84.0
 21
-18.80799899999999
 31
0.0
 12
-84.583512
 22
-21.61825899999999
 32
0.0
 13
-84.583512
 23
-21.61825899999999
 33
0.0
  0
SOLID
  5
16E
330
120
100
AcDbEntity
  8
MO_001_VIEW_PV
  6
BYBLOCK
100
AcDbTrace
 10
-84.583512
 20
-13.381739
 30
0.0
 11
-84.0
 21
-16.19199899999999
 31
0.0
 12
-83.41648799999999
 22
-13.381739
 32
0.0
 13
-83.41648799999999
 23
-13.381739
 33
0.0
  0
LINE
  5
16F
330
120
100
AcDbEntity
  8
MO_001_VIEW_PV
  6
BYBLOCK
100
AcDbLine
 10
-80.64999399999999
 20
-18.29999899999999
 30
0.0
 11
-86.286003
 21
-18.29999899999999
 31
0.0
  0
LINE
  5
170
330
120
100
AcDbEntity
  8
MO_001_VIEW_PV
  6
BYBLOCK
100
AcDbLine
 10
-80.64999399999999
 20
-16.69999899999999
 30
0.0
 11
-86.286003
 21
-16.69999899999999
 31
0.0
  0
TEXT
  5
171
330
120
100
AcDbEntity
  8
MO_001_VIEW_PV
  6
BYBLOCK
100
AcDbText
 10
-86.62499999999999
 20
-28.285714
 30
0.0
 40
1.5
  1
%%P0.1
 50
90.0
100
AcDbText
  0
TEXT
  5
172
330
120
100
AcDbEntity
  8
MO_001_VIEW_PV
  6
BYBLOCK
100
AcDbText
 10
-84.74999999999999
 20
-37.07142899999999
 30
0.0
 40
3.0
  1
1.6
 50
90.0
100
AcDbText
  0
LINE
  5
173
330
120
100
AcDbEntity
  8
MO_001_VIEW_PV
  6
BYBLOCK
100
AcDbLine
 10
-84.0
 20
-38.035713
 30
0.0
 11
-84.0
 21
-18.29999899999999
 31
0.0
  0
ENDBLK
  5
174
330
120
100
AcDbEntity
  8
0
100
AcDbBlockEnd
  0
BLOCK
  5
175
330
122
100
AcDbEntity
  8
0
100
AcDbBlockBegin
  2
*D5
 70
     1
 10
0.0
 20
0.0
 30
0.0
  3
*D5
  1

  0
LINE
  5
176
330
122
100
AcDbEntity
  8
MO_001_VIEW_PV
  6
BYBLOCK
100
AcDbLine
 10
-76.64999399999999
 20
-27.0
 30
0.0
 11
-43.349998
 21
-27.0
 31
0.0
  0
SOLID
  5
177
330
122
100
AcDbEntity
  8
MO_001_VIEW_PV
  6
BYBLOCK
100
AcDbTrace
 10
-73.33173399999999
 20
-26.416488
 30
0.0
 11
-76.141994
 21
-27.0
 31
0.0
 12
-73.33173399999999
 22
-27.58351199999999
 32
0.0
 13
-73.33173399999999
 23
-27.58351199999999
 33
0.0
  0
SOLID
  5
178
330
122
100
AcDbEntity
  8
MO_001_VIEW_PV
  6
BYBLOCK
100
AcDbTrace
 10
-46.668259
 20
-27.58351199999999
 30
0.0
 11
-43.857998
 21
-27.0
 31
0.0
 12
-46.668259
 22
-26.416488
 32
0.0
 13
-46.668259
 23
-26.416488
 33
0.0
  0
LINE
  5
179
330
122
100
AcDbEntity
  8
MO_001_VIEW_PV
  6
BYBLOCK
100
AcDbLine
 10
-76.64999399999999
 20
-21.297028
 30
0.0
 11
-76.64999399999999
 21
-29.285999
 31
0.0
  0
LINE
  5
17A
330
122
100
AcDbEntity
  8
MO_001_VIEW_PV
  6
BYBLOCK
100
AcDbLine
 10
-43.349998
 20
-21.297028
 30
0.0
 11
-43.349998
 21
-29.285999
 31
0.0
  0
TEXT
  5
17B
330
122
100
AcDbEntity
  8
MO_001_VIEW_PV
  6
BYBLOCK
100
AcDbText
 10
-56.785714
 20
-24.375
 30
0.0
 40
1.5
  1
%%P0.2
100
AcDbText
  0
TEXT
  5
17C
330
122
100
AcDbEntity
  8
MO_001_VIEW_PV
  6
BYBLOCK
100
AcDbText
 10
-68.57142900000001
 20
-26.25
 30
0.0
 40
3.0
  1
33.3
100
AcDbText
  0
ENDBLK
  5
17D
330
122
100
AcDbEntity
  8
0
100
AcDbBlockEnd
  0
BLOCK
  5
17E
330
124
100
AcDbEntity
  8
0
100
AcDbBlockBegin
  2
*D6
 70
     1
 10
0.0
 20
0.0
 30
0.0
  3
*D6
  1

  0
LINE
  5
17F
330
124
100
AcDbEntity
  8
MO_001_VIEW_PV
  6
BYBLOCK
100
AcDbLine
 10
-80.64999399999999
 20
-33.0
 30
0.0
 11
-39.34999799999999
 21
-33.0
 31
0.0
  0
SOLID
  5
180
330
124
100
AcDbEntity
  8
MO_001_VIEW_PV
  6
BYBLOCK
100
AcDbTrace
 10
-77.331734
 20
-32.416488
 30
0.0
 11
-80.141994
 21
-33.0
 31
0.0
 12
-77.331734
 22
-33.58351199999999
 32
0.0
 13
-77.331734
 23
-33.58351199999999
 33
0.0
  0
SOLID
  5
181
330
124
100
AcDbEntity
  8
MO_001_VIEW_PV
  6
BYBLOCK
100
AcDbTrace
 10
-42.66825899999999
 20
-33.58351199999999
 30
0.0
 11
-39.85799799999999
 21
-33.0
 31
0.0
 12
-42.66825899999999
 22
-32.416488
 32
0.0
 13
-42.66825899999999
 23
-32.416488
 33
0.0
  0
LINE
  5
182
330
124
100
AcDbEntity
  8
MO_001_VIEW_PV
  6
BYBLOCK
100
AcDbLine
 10
-80.64999399999999
 20
-18.29999899999999
 30
0.0
 11
-80.64999399999999
 21
-35.28599899999999
 31
0.0
  0
LINE
  5
183
330
124
100
AcDbEntity
  8
MO_001_VIEW_PV
  6
BYBLOCK
100
AcDbLine
 10
-39.34999799999999
 20
-18.29999899999999
 30
0.0
 11
-39.34999799999999
 21
-35.28599899999999
 31
0.0
  0
TEXT
  5
184
330
124
100
AcDbEntity
  8
MO_001_VIEW_PV
  6
BYBLOCK
100
AcDbText
 10
-59.78571399999999
 20
-30.375
 30
0.0
 40
1.5
  1
%%P1.0
100
AcDbText
  0
TEXT
  5
185
330
124
100
AcDbEntity
  8
MO_001_VIEW_PV
  6
BYBLOCK
100
AcDbText
 10
-65.57142900000001
 20
-32.25
 30
0.0
 40
3.0
  1
42
100
AcDbText
  0
ENDBLK
  5
186
330
124
100
AcDbEntity
  8
0
100
AcDbBlockEnd
  0
BLOCK
  5
187
330
126
100
AcDbEntity
  8
0
100
AcDbBlockBegin
  2
*D7
 70
     1
 10
0.0
 20
0.0
 30
0.0
  3
*D7
  1

  0
TEXT
  5
188
330
126
100
AcDbEntity
  8
MO_001_VIEW_PV
  6
BYBLOCK
100
AcDbText
 10
-30.0
 20
5.456655999999999
 30
0.0
 40
1.5
  1
%%P0.05
 50
90.0
100
AcDbText
  0
TEXT
  5
189
330
126
100
AcDbEntity
  8
MO_001_VIEW_PV
  6
BYBLOCK
100
AcDbText
 10
-27.0
 20
-9.329057999999999
 30
0.0
 40
3.0
  1
%%C12.7
 50
90.0
100
AcDbText
  0
LINE
  5
18A
330
126
100
AcDbEntity
  8
MO_001_VIEW_PV
  6
BYBLOCK
100
AcDbLine
 10
-24.0
 20
-6.349998
 30
0.0
 11
-24.0
 21
6.349998
 31
0.0
  0
LINE
  5
18B
330
126
100
AcDbEntity
  8
MO_001_VIEW_PV
  6
BYBLOCK
100
AcDbLine
 10
-24.0
 20
-6.349998
 30
0.0
 11
-24.0
 21
-12.69999799999999
 31
0.0
  0
LINE
  5
18C
330
126
100
AcDbEntity
  8
MO_001_VIEW_PV
  6
BYBLOCK
100
AcDbLine
 10
-24.0
 20
6.349998
 30
0.0
 11
-24.0
 21
12.69999799999999
 31
0.0
  0
SOLID
  5
18D
330
126
100
AcDbEntity
  8
MO_001_VIEW_PV
  6
BYBLOCK
100
AcDbTrace
 10
-23.416488
 20
-9.668258999999999
 30
0.0
 11
-24.0
 21
-6.857997999999999
 31
0.0
 12
-24.583512
 22
-9.668258999999999
 32
0.0
 13
-24.583512
 23
-9.668258999999999
 33
0.0
  0
SOLID
  5
18E
330
126
100
AcDbEntity
  8
MO_001_VIEW_PV
  6
BYBLOCK
100
AcDbTrace
 10
-24.583512
 20
9.668258999999999
 30
0.0
 11
-24.0
 21
6.857997999999999
 31
0.0
 12
-23.416488
 22
9.668258999999999
 32
0.0
 13
-23.416488
 23
9.668258999999999
 33
0.0
  0
LINE
  5
18F
330
126
100
AcDbEntity
  8
MO_001_VIEW_PV
  6
BYBLOCK
100
AcDbLine
 10
-12.7
 20
-6.349998
 30
0.0
 11
-26.285999
 21
-6.349998
 31
0.0
  0
LINE
  5
190
330
126
100
AcDbEntity
  8
MO_001_VIEW_PV
  6
BYBLOCK
100
AcDbLine
 10
-12.7
 20
6.349998
 30
0.0
 11
-26.285999
 21
6.349998
 31
0.0
  0
LINE
  5
191
330
126
100
AcDbEntity
  8
MO_001_VIEW_PV
  6
BYBLOCK
100
AcDbLine
 10
-24.0
 20
-10.293343
 30
0.0
 11
-24.0
 21
-6.349998
 31
0.0
  0
LINE
  5
192
330
126
100
AcDbEntity
  8
MO_001_VIEW_PV
  6
BYBLOCK
100
AcDbLine
 10
-24.0
 20
6.349998
 30
0.0
 11
-24.0
 21
13.278085
 31
0.0
  0
ENDBLK
  5
193
330
126
100
AcDbEntity
  8
0
100
AcDbBlockEnd
  0
BLOCK
  5
194
330
128
100
AcDbEntity
  8
0
100
AcDbBlockBegin
  2
*D8
 70
     1
 10
0.0
 20
0.0
 30
0.0
  3
*D8
  1

  0
TEXT
  5
195
330
128
100
AcDbEntity
  8
MO_001_VIEW_PV
  6
BYBLOCK
100
AcDbText
 10
-21.04784899999999
 20
-18.375
 30
0.0
 40
1.5
  1
%%P0.2
100
AcDbText
  0
TEXT
  5
196
330
128
100
AcDbEntity
  8
MO_001_VIEW_PV
  6
BYBLOCK
100
AcDbText
 10
-29.833563
 20
-20.24999999999999
 30
0.0
 40
3.0
  1
9.5
100
AcDbText
  0
LINE
  5
197
330
128
100
AcDbEntity
  8
MO_001_VIEW_PV
  6
BYBLOCK
100
AcDbLine
 10
-3.2
 20
-21.0
 30
0.0
 11
-12.7
 21
-21.0
 31
0.0
  0
LINE
  5
198
330
128
100
AcDbEntity
  8
MO_001_VIEW_PV
  6
BYBLOCK
100
AcDbLine
 10
-3.2
 20
-21.0
 30
0.0
 11
3.149999999999999
 21
-21.0
 31
0.0
  0
LINE
  5
199
330
128
100
AcDbEntity
  8
MO_001_VIEW_PV
  6
BYBLOCK
100
AcDbLine
 10
-12.7
 20
-21.0
 30
0.0
 11
-19.05
 21
-21.0
 31
0.0
  0
SOLID
  5
19A
330
128
100
AcDbEntity
  8
MO_001_VIEW_PV
  6
BYBLOCK
100
AcDbTrace
 10
0.11826
 20
-20.416488
 30
0.0
 11
-2.691999999999999
 21
-21.0
 31
0.0
 12
0.11826
 22
-21.58351199999999
 32
0.0
 13
0.11826
 23
-21.58351199999999
 33
0.0
  0
SOLID
  5
19B
330
128
100
AcDbEntity
  8
MO_001_VIEW_PV
  6
BYBLOCK
100
AcDbTrace
 10
-16.01826
 20
-21.58351199999999
 30
0.0
 11
-13.208
 21
-21.0
 31
0.0
 12
-16.01826
 22
-20.416488
 32
0.0
 13
-16.01826
 23
-20.416488
 33
0.0
  0
LINE
  5
19C
330
128
100
AcDbEntity
  8
MO_001_VIEW_PV
  6
BYBLOCK
100
AcDbLine
 10
-3.2
 20
-2.0
 30
0.0
 11
-3.2
 21
-23.28599899999999
 31
0.0
  0
LINE
  5
19D
330
128
100
AcDbEntity
  8
MO_001_VIEW_PV
  6
BYBLOCK
100
AcDbLine
 10
-12.7
 20
-6.349998
 30
0.0
 11
-12.7
 21
-23.28599899999999
 31
0.0
  0
LINE
  5
19E
330
128
100
AcDbEntity
  8
MO_001_VIEW_PV
  6
BYBLOCK
100
AcDbLine
 10
-12.7
 20
-21.0
 30
0.0
 11
-30.79785
 21
-21.0
 31
0.0
  0
ENDBLK
  5
19F
330
128
100
AcDbEntity
  8
0
100
AcDbBlockEnd
  0
BLOCK
  5
1A0
330
12A
100
AcDbEntity
  8
0
100
AcDbBlockBegin
  2
*D9
 70
     1
 10
0.0
 20
0.0
 30
0.0
  3
*D9
  1

  0
TEXT
  5
1A1
330
12A
100
AcDbEntity
  8
MO_001_VIEW_PV
  6
BYBLOCK
100
AcDbText
 10
-20.625
 20
13.71428599999999
 30
0.0
 40
1.5
  1
%%P0.2
 50
90.0
100
AcDbText
  0
TEXT
  5
1A2
330
12A
100
AcDbEntity
  8
MO_001_VIEW_PV
  6
BYBLOCK
100
AcDbText
 10
-18.75
 20
10.928571
 30
0.0
 40
3.0
  1
4
 50
90.0
100
AcDbText
  0
LINE
  5
1A3
330
12A
100
AcDbEntity
  8
MO_001_VIEW_PV
  6
BYBLOCK
100
AcDbLine
 10
-18.0
 20
2.0
 30
0.0
 11
-18.0
 21
-2.0
 31
0.0
  0
LINE
  5
1A4
330
12A
100
AcDbEntity
  8
MO_001_VIEW_PV
  6
BYBLOCK
100
AcDbLine
 10
-18.0
 20
2.0
 30
0.0
 11
-18.0
 21
8.349999999999999
 31
0.0
  0
LINE
  5
1A5
330
12A
100
AcDbEntity
  8
MO_001_VIEW_PV
  6
BYBLOCK
100
AcDbLine
 10
-18.0
 20
-2.0
 30
0.0
 11
-18.0
 21
-8.349999999999999
 31
0.0
  0
SOLID
  5
1A6
330
12A
100
AcDbEntity
  8
MO_001_VIEW_PV
  6
BYBLOCK
100
AcDbTrace
 10
-18.58351199999999
 20
5.318259999999999
 30
0.0
 11
-18.0
 21
2.508
 31
0.0
 12
-17.416488
 22
5.318259999999999
 32
0.0
 13
-17.416488
 23
5.318259999999999
 33
0.0
  0
SOLID
  5
1A7
330
12A
100
AcDbEntity
  8
MO_001_VIEW_PV
  6
BYBLOCK
100
AcDbTrace
 10
-17.416488
 20
-5.318259999999999
 30
0.0
 11
-18.0
 21
-2.508
 31
0.0
 12
-18.58351199999999
 22
-5.318259999999999
 32
0.0
 13
-18.58351199999999
 23
-5.318259999999999
 33
0.0
  0
LINE
  5
1A8
330
12A
100
AcDbEntity
  8
MO_001_VIEW_PV
  6
BYBLOCK
100
AcDbLine
 10
-12.7
 20
2.0
 30
0.0
 11
-20.285999
 21
2.0
 31
0.0
  0
LINE
  5
1A9
330
12A
100
AcDbEntity
  8
MO_001_VIEW_PV
  6
BYBLOCK
100
AcDbLine
 10
-12.7
 20
-2.0
 30
0.0
 11
-20.285999
 21
-2.0
 31
0.0
  0
LINE
  5
1AA
330
12A
100
AcDbEntity
  8
MO_001_VIEW_PV
  6
BYBLOCK
100
AcDbLine
 10
-18.0
 20
20.035715
 30
0.0
 11
-18.0
 21
2.0
 31
0.0
  0
ENDBLK
  5
1AB
330
12A
100
AcDbEntity
  8
0
100
AcDbBlockEnd
  0
BLOCK
  5
1AC
330
12C
100
AcDbEntity
  8
0
100
AcDbBlockBegin
  2
*D10
 70
     1
 10
0.0
 20
0.0
 30
0.0
  3
*D10
  1

  0
TEXT
  5
1AD
330
12C
100
AcDbEntity
  8
MO_001_VIEW_PV
  6
BYBLOCK
100
AcDbText
 10
-20.953092
 20
32.625
 30
0.0
 40
1.5
  1
%%P0.2
100
AcDbText
  0
TEXT
  5
1AE
330
12C
100
AcDbEntity
  8
MO_001_VIEW_PV
  6
BYBLOCK
100
AcDbText
 10
-29.738806
 20
30.75
 30
0.0
 40
3.0
  1
4.8
100
AcDbText
  0
LINE
  5
1AF
330
12C
100
AcDbEntity
  8
MO_001_VIEW_PV
  6
BYBLOCK
100
AcDbLine
 10
-7.9
 20
30.0
 30
0.0
 11
-12.7
 21
30.0
 31
0.0
  0
LINE
  5
1B0
330
12C
100
AcDbEntity
  8
MO_001_VIEW_PV
  6
BYBLOCK
100
AcDbLine
 10
-12.7
 20
30.0
 30
0.0
 11
-19.05
 21
30.0
 31
0.0
  0
SOLID
  5
1B1
330
12C
100
AcDbEntity
  8
MO_001_VIEW_PV
  6
BYBLOCK
100
AcDbTrace
 10
-16.01826
 20
29.416488
 30
0.0
 11
-13.208
 21
30.0
 31
0.0
 12
-16.01826
 22
30.583512
 32
0.0
 13
-16.01826
 23
30.583512
 33
0.0
  0
LINE
  5
1B2
330
12C
100
AcDbEntity
  8
MO_001_VIEW_PV
  6
BYBLOCK
100
AcDbLine
 10
-7.9
 20
8.179328999999999
 30
0.0
 11
-7.9
 21
32.28599899999999
 31
0.0
  0
LINE
  5
1B3
330
12C
100
AcDbEntity
  8
MO_001_VIEW_PV
  6
BYBLOCK
100
AcDbLine
 10
-12.7
 20
6.349998
 30
0.0
 11
-12.7
 21
32.28599899999999
 31
0.0
  0
LINE
  5
1B4
330
12C
100
AcDbEntity
  8
MO_001_VIEW_PV
  6
BYBLOCK
100
AcDbLine
 10
-12.7
 20
30.0
 30
0.0
 11
-30.70309299999999
 21
30.0
 31
0.0
  0
ENDBLK
  5
1B5
330
12C
100
AcDbEntity
  8
0
100
AcDbBlockEnd
  0
BLOCK
  5
1B6
330
13A
100
AcDbEntity
  8
0
100
AcDbBlockBegin
  2
*D11
 70
     1
 10
0.0
 20
0.0
 30
0.0
  3
*D11
  1

  0
LINE
  5
1B7
330
13A
100
AcDbEntity
  8
MO_001_VIEW_PV
  6
BYBLOCK
100
AcDbLine
 10
-3.949998999999999
 20
29.999999
 30
0.0
 11
-0.4858970000000001
 21
35.999999
 31
0.0
  0
SOLID
  5
1B8
330
13A
100
AcDbEntity
  8
MO_001_VIEW_PV
  6
BYBLOCK
100
AcDbTrace
 10
-2.796205
 20
33.165452
 30
0.0
 11
-3.695998999999999
 21
30.43994
 31
0.0
 12
-1.785533
 22
32.581941
 32
0.0
 13
-1.785533
 23
32.581941
 33
0.0
  0
LINE
  5
1B9
330
13A
100
AcDbEntity
  8
MO_001_VIEW_PV
  6
BYBLOCK
100
AcDbLine
 10
-0.4858970000000001
 20
36.0
 30
0.0
 11
16.08302499999999
 21
36.0
 31
0.0
  0
TEXT
  5
1BA
330
13A
100
AcDbEntity
  8
MO_001_VIEW_PV
  6
BYBLOCK
100
AcDbText
 10
9.761596
 20
38.625
 30
0.0
 40
1.5
  1
%%P0.4
100
AcDbText
  0
TEXT
  5
1BB
330
13A
100
AcDbEntity
  8
MO_001_VIEW_PV
  6
BYBLOCK
100
AcDbText
 10
0.975881
 20
36.75
 30
0.0
 40
3.0
  1
7.9
100
AcDbText
  0
LINE
  5
1BC
330
13A
100
AcDbEntity
  8
MO_001_VIEW_PV
  6
BYBLOCK
100
AcDbLine
 10
-7.9
 20
30.0
 30
0.0
 11
0.0
 21
30.0
 31
0.0
  0
LINE
  5
1BD
330
13A
100
AcDbEntity
  8
MO_001_VIEW_PV
  6
BYBLOCK
100
AcDbLine
 10
0.0
 20
30.0
 30
0.0
 11
6.349999999999999
 21
30.0
 31
0.0
  0
SOLID
  5
1BE
330
13A
100
AcDbEntity
  8
MO_001_VIEW_PV
  6
BYBLOCK
100
AcDbTrace
 10
-7.9
 20
30.635
 30
0.0
 11
-7.9
 21
29.365
 31
0.0
 12
-7.9
 22
30.635
 32
0.0
 13
-7.9
 23
30.635
 33
0.0
  0
SOLID
  5
1BF
330
13A
100
AcDbEntity
  8
MO_001_VIEW_PV
  6
BYBLOCK
100
AcDbTrace
 10
3.318259999999999
 20
30.583512
 30
0.0
 11
0.508
 21
30.0
 31
0.0
 12
3.318259999999999
 22
29.416488
 32
0.0
 13
3.318259999999999
 23
29.416488
 33
0.0
  0
LINE
  5
1C0
330
13A
100
AcDbEntity
  8
MO_001_VIEW_PV
  6
BYBLOCK
100
AcDbLine
 10
-7.9
 20
8.179328999999999
 30
0.0
 11
-7.9
 21
32.28599899999999
 31
0.0
  0
LINE
  5
1C1
330
13A
100
AcDbEntity
  8
MO_001_VIEW_PV
  6
BYBLOCK
100
AcDbLine
 10
0.0
 20
15.599999
 30
0.0
 11
0.0
 21
32.28599899999999
 31
0.0
  0
ENDBLK
  5
1C2
330
13A
100
AcDbEntity
  8
0
100
AcDbBlockEnd
  0
BLOCK
  5
1C3
330
142
100
AcDbEntity
  8
0
100
AcDbBlockBegin
  2
*D12
 70
     1
 10
0.0
 20
0.0
 30
0.0
  3
*D12
  1

  0
LINE
  5
1C4
330
142
100
AcDbEntity
  8
MO_001_VIEW_PV
  6
BYBLOCK
100
AcDbLine
 10
-75.89999399999999
 20
24.0
 30
0.0
 11
-44.099998
 21
24.0
 31
0.0
  0
SOLID
  5
1C5
330
142
100
AcDbEntity
  8
MO_001_VIEW_PV
  6
BYBLOCK
100
AcDbTrace
 10
-72.581734
 20
24.583512
 30
0.0
 11
-75.391994
 21
24.0
 31
0.0
 12
-72.581734
 22
23.416488
 32
0.0
 13
-72.581734
 23
23.416488
 33
0.0
  0
SOLID
  5
1C6
330
142
100
AcDbEntity
  8
MO_001_VIEW_PV
  6
BYBLOCK
100
AcDbTrace
 10
-47.418259
 20
23.416488
 30
0.0
 11
-44.60799799999999
 21
24.0
 31
0.0
 12
-47.418259
 22
24.583512
 32
0.0
 13
-47.418259
 23
24.583512
 33
0.0
  0
LINE
  5
1C7
330
142
100
AcDbEntity
  8
MO_001_VIEW_PV
  6
BYBLOCK
100
AcDbLine
 10
-75.89999399999999
 20
0.0
 30
0.0
 11
-75.89999399999999
 21
26.285999
 31
0.0
  0
LINE
  5
1C8
330
142
100
AcDbEntity
  8
MO_001_VIEW_PV
  6
BYBLOCK
100
AcDbLine
 10
-44.099998
 20
0.0
 30
0.0
 11
-44.099998
 21
26.285999
 31
0.0
  0
TEXT
  5
1C9
330
142
100
AcDbEntity
  8
MO_001_VIEW_PV
  6
BYBLOCK
100
AcDbText
 10
-55.285714
 20
26.625
 30
0.0
 40
1.5
  1
%%P0.4
100
AcDbText
  0
TEXT
  5
1CA
330
142
100
AcDbEntity
  8
MO_001_VIEW_PV
  6
BYBLOCK
100
AcDbText
 10
-70.07142900000001
 20
24.75
 30
0.0
 40
3.0
  1
%%C31.8
100
AcDbText
  0
ENDBLK
  5
1CB
330
142
100
AcDbEntity
  8
0
100
AcDbBlockEnd
  0
ENDSEC
  0
SECTION
  2
ENTITIES
  0
TEXT
  5
4B
330
1E
100
AcDbEntity
  8
OVERLAY_MAP
  6
C_SOLID_L
100
AcDbText
 10
0.0
 20
6.349999999999999
 30
0.0
 40
4.1672
  1
Model Overlay Name
100
AcDbText
  0
TEXT
  5
4C
330
1E
100
AcDbEntity
  8
OVERLAY_MAP
  6
C_SOLID_L
100
AcDbText
 10
126.999998
 20
0.0
 30
0.0
 40
4.1672
  1
Number
100
AcDbText
  0
TEXT
  5
4D
330
1E
100
AcDbEntity
  8
OVERLAY_MAP
  6
C_SOLID_L
100
AcDbText
 10
177.7999969999999
 20
0.0
 30
0.0
 40
4.1672
  1
File Text
100
AcDbText
  0
TEXT
  5
4E
330
1E
100
AcDbEntity
  8
OVERLAY_MAP
  6
C_SOLID_L
100
AcDbText
 10
0.0
 20
-6.349999999999999
 30
0.0
 40
4.1672
  1
tb s125pull 
100
AcDbText
  0
TEXT
  5
4F
330
1E
100
AcDbEntity
  8
OVERLAY_MAP
  6
C_SOLID_L
100
AcDbText
 10
126.999998
 20
-6.349999999999999
 30
0.0
 40
4.1672
  1
001
100
AcDbText
  0
TEXT
  5
50
330
1E
100
AcDbEntity
  8
OVERLAY_MAP
  6
C_SOLID_L
100
AcDbText
 10
177.7999969999999
 20
-6.349999999999999
 30
0.0
 40
4.1672
  1
                                                                   00118
100
AcDbText
  0
LINE
  5
51
330
1E
100
AcDbEntity
  8
MO_001_VIEW_PV
  6
C_CENTER_L
100
AcDbLine
 10
-14.980469
 20
0.0
 30
0.0
 11
62.766998
 21
0.0
 31
0.0
  0
LINE
  5
52
330
1E
100
AcDbEntity
  8
MO_001_VIEW_PV
  6
C_SOLID_M
100
AcDbLine
 10
0.0
 20
15.599999
 30
0.0
 11
0.0
 21
-15.599999
 31
0.0
  0
LINE
  5
53
330
1E
100
AcDbEntity
  8
MO_001_VIEW_PV
  6
C_SOLID_M
100
AcDbLine
 10
1.5
 20
15.9
 30
0.0
 11
1.5
 21
-15.9
 31
0.0
  0
LINE
  5
54
330
1E
100
AcDbEntity
  8
MO_001_VIEW_PV
  6
C_SOLID_M
100
AcDbLine
 10
0.3
 20
15.9
 30
0.0
 11
1.199999999999999
 21
15.9
 31
0.0
  0
LINE
  5
55
330
1E
100
AcDbEntity
  8
MO_001_VIEW_PV
  6
C_SOLID_M
100
AcDbLine
 10
0.3
 20
-15.9
 30
0.0
 11
1.200001
 21
-15.9
 31
0.0
  0
LINE
  5
56
330
1E
100
AcDbEntity
  8
MO_001_VIEW_PV
  6
C_SOLID_M
100
AcDbLine
 10
0.0
 20
15.599999
 30
0.0
 11
0.299999
 21
15.899999
 31
0.0
  0
LINE
  5
57
330
1E
100
AcDbEntity
  8
MO_001_VIEW_PV
  6
C_SOLID_M
100
AcDbLine
 10
0.0
 20
-15.599999
 30
0.0
 11
0.299999
 21
-15.899999
 31
0.0
  0
LINE
  5
58
330
1E
100
AcDbEntity
  8
MO_001_VIEW_PV
  6
C_SOLID_M
100
AcDbLine
 10
1.5
 20
-15.6
 30
0.0
 11
1.200001
 21
-15.9
 31
0.0
  0
LINE
  5
59
330
1E
100
AcDbEntity
  8
MO_001_VIEW_PV
  6
C_SOLID_M
100
AcDbLine
 10
1.200001
 20
15.9
 30
0.0
 11
1.5
 21
15.600001
 31
0.0
  0
LINE
  5
5A
330
1E
100
AcDbEntity
  8
MO_001_VIEW_PV
  6
C_SOLID_M
100
AcDbLine
 10
0.3
 20
15.9
 30
0.0
 11
0.3
 21
-15.9
 31
0.0
  0
LINE
  5
5B
330
1E
100
AcDbEntity
  8
MO_001_VIEW_PV
  6
C_SOLID_M
100
AcDbLine
 10
1.199999999999999
 20
15.9
 30
0.0
 11
1.199999999999999
 21
-15.9
 31
0.0
  0
LINE
  5
5C
330
1E
100
AcDbEntity
  8
MO_001_VIEW_PV
  6
C_SOLID_M
100
AcDbLine
 10
57.5
 20
15.9
 30
0.0
 11
57.5
 21
-15.9
 31
0.0
  0
LINE
  5
5D
330
1E
100
AcDbEntity
  8
MO_001_VIEW_PV
  6
C_SOLID_M
100
AcDbLine
 10
1.5
 20
15.9
 30
0.0
 11
57.5
 21
15.9
 31
0.0
  0
LINE
  5
5E
330
1E
100
AcDbEntity
  8
MO_001_VIEW_PV
  6
C_SOLID_M
100
AcDbLine
 10
1.5
 20
-15.9
 30
0.0
 11
10.8
 21
-15.9
 31
0.0
  0
CIRCLE
  5
5F
330
1E
100
AcDbEntity
  8
MO_001_VIEW_PV
  6
C_SOLID_M
100
AcDbCircle
 10
-60.0
 20
0.0
 30
0.0
 40
15.9
  0
ARC
  5
60
330
1E
100
AcDbEntity
  8
MO_001_VIEW_PV
  6
C_SOLID_M
100
AcDbCircle
 10
-60.0
 20
0.0
 30
0.0
 40
17.5
100
AcDbArc
 50
248.611438
 51
291.388571
  0
LINE
  5
61
330
1E
100
AcDbEntity
  8
MO_001_VIEW_PV
  6
C_CENTER_L
100
AcDbLine
 10
-60.0
 20
21.867668
 30
0.0
 11
-60.0
 21
-21.582493
 31
0.0
  0
LINE
  5
62
330
1E
100
AcDbEntity
  8
MO_001_VIEW_PV
  6
C_CENTER_L
100
AcDbLine
 10
-80.55264300000001
 20
0.0
 30
0.0
 11
-39.094955
 21
0.0
 31
0.0
  0
LINE
  5
63
330
1E
100
AcDbEntity
  8
MO_001_VIEW_PV
  6
C_SOLID_M
100
AcDbLine
 10
-39.34999799999999
 20
-16.69999899999999
 30
0.0
 11
-39.34999799999999
 21
-18.29999899999999
 31
0.0
  0
LINE
  5
64
330
1E
100
AcDbEntity
  8
MO_001_VIEW_PV
  6
C_SOLID_M
100
AcDbLine
 10
-49.665428
 20
-18.29999899999999
 30
0.0
 11
-39.34999799999999
 21
-18.29999899999999
 31
0.0
  0
LINE
  5
65
330
1E
100
AcDbEntity
  8
MO_001_VIEW_PV
  6
C_SOLID_M
100
AcDbLine
 10
-49.665428
 20
-16.69999899999999
 30
0.0
 11
-39.34999799999999
 21
-16.69999899999999
 31
0.0
  0
LINE
  5
66
330
1E
100
AcDbEntity
  8
MO_001_VIEW_PV
  6
C_SOLID_M
100
AcDbLine
 10
-50.755397
 20
-16.0121
 30
0.0
 11
-50.70465
 21
-16.099996
 31
0.0
  0
ARC
  5
67
330
1E
100
AcDbEntity
  8
MO_001_VIEW_PV
  6
C_SOLID_M
100
AcDbCircle
 10
-49.665428
 20
-15.49999899999999
 30
0.0
 40
1.199999999999999
100
AcDbArc
 50
209.999962
 51
269.999998
  0
LINE
  5
68
330
1E
100
AcDbEntity
  8
MO_001_VIEW_PV
  6
C_SOLID_M
100
AcDbLine
 10
-52.141034
 20
-16.81210199999999
 30
0.0
 11
-52.09028899999999
 21
-16.899995
 31
0.0
  0
ARC
  5
69
330
1E
100
AcDbEntity
  8
MO_001_VIEW_PV
  6
C_SOLID_M
100
AcDbCircle
 10
-49.665428
 20
-15.49999899999999
 30
0.0
 40
2.799999999999999
100
AcDbArc
 50
209.999962
 51
269.999998
  0
ARC
  5
6A
330
1E
100
AcDbEntity
  8
MO_001_VIEW_PV
  6
C_SOLID_M
100
AcDbCircle
 10
-53.18028299999999
 20
-17.412106
 30
0.0
 40
1.199999999999999
100
AcDbArc
 50
29.999922
 51
111.388562
  0
ARC
  5
6B
330
1E
100
AcDbEntity
  8
MO_001_VIEW_PV
  6
C_SOLID_M
100
AcDbCircle
 10
-53.18028299999999
 20
-17.41210399999999
 30
0.0
 40
2.799999999999999
100
AcDbArc
 50
30.00001099999999
 51
111.3885419999999
  0
LINE
  5
6C
330
1E
100
AcDbEntity
  8
MO_001_VIEW_PV
  6
C_CENTER_L
100
AcDbLine
 10
-43.349998
 20
-13.935564
 30
0.0
 11
-43.349998
 21
-21.297028
 31
0.0
  0
LINE
  5
6D
330
1E
100
AcDbEntity
  8
MO_001_VIEW_PV
  6
C_DASHED_M
100
AcDbLine
 10
-41.550003
 20
-16.69999899999999
 30
0.0
 11
-41.550003
 21
-18.29999899999999
 31
0.0
  0
LINE
  5
6E
330
1E
100
AcDbEntity
  8
MO_001_VIEW_PV
  6
C_DASHED_M
100
AcDbLine
 10
-45.14999399999999
 20
-16.69999899999999
 30
0.0
 11
-45.14999399999999
 21
-18.29999899999999
 31
0.0
  0
LINE
  5
6F
330
1E
100
AcDbEntity
  8
MO_001_VIEW_PV
  6
C_SOLID_M
100
AcDbLine
 10
-80.64999399999999
 20
-16.69999899999999
 30
0.0
 11
-80.64999399999999
 21
-18.29999899999999
 31
0.0
  0
LINE
  5
70
330
1E
100
AcDbEntity
  8
MO_001_VIEW_PV
  6
C_SOLID_M
100
AcDbLine
 10
-70.334564
 20
-18.29999899999999
 30
0.0
 11
-80.64999399999999
 21
-18.29999899999999
 31
0.0
  0
LINE
  5
71
330
1E
100
AcDbEntity
  8
MO_001_VIEW_PV
  6
C_SOLID_M
100
AcDbLine
 10
-70.334564
 20
-16.69999899999999
 30
0.0
 11
-80.64999399999999
 21
-16.69999899999999
 31
0.0
  0
LINE
  5
72
330
1E
100
AcDbEntity
  8
MO_001_VIEW_PV
  6
C_SOLID_M
100
AcDbLine
 10
-69.24458100000001
 20
-16.01210499999999
 30
0.0
 11
-69.295328
 21
-16.10000199999999
 31
0.0
  0
ARC
  5
73
330
1E
100
AcDbEntity
  8
MO_001_VIEW_PV
  6
C_SOLID_M
100
AcDbCircle
 10
-70.334564
 20
-15.49999899999999
 30
0.0
 40
1.199999999999999
100
AcDbArc
 50
270.0000039999999
 51
330.000037
  0
LINE
  5
74
330
1E
100
AcDbEntity
  8
MO_001_VIEW_PV
  6
C_SOLID_M
100
AcDbLine
 10
-67.85894499999999
 20
-16.81211099999999
 30
0.0
 11
-67.909688
 21
-16.90000099999999
 31
0.0
  0
ARC
  5
75
330
1E
100
AcDbEntity
  8
MO_001_VIEW_PV
  6
C_SOLID_M
100
AcDbCircle
 10
-70.334564
 20
-15.49999899999999
 30
0.0
 40
2.799999999999999
100
AcDbArc
 50
270.0000039999999
 51
330.000037
  0
ARC
  5
76
330
1E
100
AcDbEntity
  8
MO_001_VIEW_PV
  6
C_SOLID_M
100
AcDbCircle
 10
-66.819717
 20
-17.412106
 30
0.0
 40
1.199999999999999
100
AcDbArc
 50
68.611436
 51
150.000079
  0
ARC
  5
77
330
1E
100
AcDbEntity
  8
MO_001_VIEW_PV
  6
C_SOLID_M
100
AcDbCircle
 10
-66.819717
 20
-17.41210399999999
 30
0.0
 40
2.799999999999999
100
AcDbArc
 50
68.611456
 51
149.999984
  0
LINE
  5
78
330
1E
100
AcDbEntity
  8
MO_001_VIEW_PV
  6
C_CENTER_L
100
AcDbLine
 10
-76.64999399999999
 20
-13.935564
 30
0.0
 11
-76.64999399999999
 21
-21.297028
 31
0.0
  0
LINE
  5
79
330
1E
100
AcDbEntity
  8
MO_001_VIEW_PV
  6
C_DASHED_M
100
AcDbLine
 10
-78.44999699999999
 20
-16.69999899999999
 30
0.0
 11
-78.44999699999999
 21
-18.29999899999999
 31
0.0
  0
LINE
  5
7A
330
1E
100
AcDbEntity
  8
MO_001_VIEW_PV
  6
C_DASHED_M
100
AcDbLine
 10
-74.85000600000001
 20
-16.69999899999999
 30
0.0
 11
-74.85000600000001
 21
-18.29999899999999
 31
0.0
  0
LINE
  5
7B
330
1E
100
AcDbEntity
  8
MO_001_VIEW_PV
  6
C_SOLID_M
100
AcDbLine
 10
10.8
 20
-18.29999899999999
 30
0.0
 11
48.09999799999999
 21
-18.29999899999999
 31
0.0
  0
LINE
  5
7C
330
1E
100
AcDbEntity
  8
MO_001_VIEW_PV
  6
C_SOLID_M
100
AcDbLine
 10
10.8
 20
-16.69999899999999
 30
0.0
 11
48.09999799999999
 21
-16.69999899999999
 31
0.0
  0
LINE
  5
7D
330
1E
100
AcDbEntity
  8
MO_001_VIEW_PV
  6
C_SOLID_M
100
AcDbLine
 10
10.8
 20
-14.612103
 30
0.0
 11
10.8
 21
-18.29999899999999
 31
0.0
  0
LINE
  5
7E
330
1E
100
AcDbEntity
  8
MO_001_VIEW_PV
  6
C_SOLID_M
100
AcDbLine
 10
48.09999799999999
 20
-14.612103
 30
0.0
 11
48.09999799999999
 21
-18.29999899999999
 31
0.0
  0
LINE
  5
7F
330
1E
100
AcDbEntity
  8
MO_001_VIEW_PV
  6
C_SOLID_M
100
AcDbLine
 10
10.8
 20
-14.612103
 30
0.0
 11
48.09999799999999
 21
-14.612103
 31
0.0
  0
LINE
  5
80
330
1E
100
AcDbEntity
  8
MO_001_VIEW_PV
  6
C_SOLID_M
100
AcDbLine
 10
48.09999799999999
 20
-15.9
 30
0.0
 11
57.5
 21
-15.9
 31
0.0
  0
LINE
  5
81
330
1E
100
AcDbEntity
  8
MO_001_VIEW_PV
  6
C_CENTER_L
100
AcDbLine
 10
14.8
 20
-13.935564
 30
0.0
 11
14.8
 21
-21.297028
 31
0.0
  0
LINE
  5
82
330
1E
100
AcDbEntity
  8
MO_001_VIEW_PV
  6
C_DASHED_M
100
AcDbLine
 10
16.599998
 20
-16.69999899999999
 30
0.0
 11
16.599998
 21
-18.29999899999999
 31
0.0
  0
LINE
  5
83
330
1E
100
AcDbEntity
  8
MO_001_VIEW_PV
  6
C_DASHED_M
100
AcDbLine
 10
13.000001
 20
-16.69999899999999
 30
0.0
 11
13.000001
 21
-18.29999899999999
 31
0.0
  0
LINE
  5
84
330
1E
100
AcDbEntity
  8
MO_001_VIEW_PV
  6
C_DASHED_M
100
AcDbLine
 10
46.0
 20
-16.69999899999999
 30
0.0
 11
46.0
 21
-18.29999899999999
 31
0.0
  0
LINE
  5
85
330
1E
100
AcDbEntity
  8
MO_001_VIEW_PV
  6
C_CENTER_L
100
AcDbLine
 10
44.200001
 20
-13.935564
 30
0.0
 11
44.200001
 21
-21.297028
 31
0.0
  0
LINE
  5
86
330
1E
100
AcDbEntity
  8
MO_001_VIEW_PV
  6
C_DASHED_M
100
AcDbLine
 10
42.40000199999999
 20
-16.69999899999999
 30
0.0
 11
42.40000199999999
 21
-18.29999899999999
 31
0.0
  0
CIRCLE
  5
87
330
1E
100
AcDbEntity
  8
MO_001_VIEW_PV
  6
C_SOLID_M
100
AcDbCircle
 10
-60.0
 20
0.0
 30
0.0
 40
15.599999
  0
LINE
  5
88
330
1E
100
AcDbEntity
  8
MO_001_VIEW_PV
  6
C_SOLID_M
100
AcDbLine
 10
-12.7
 20
-2.0
 30
0.0
 11
-12.7
 21
-6.349998
 31
0.0
  0
LINE
  5
89
330
1E
100
AcDbEntity
  8
MO_001_VIEW_PV
  6
C_SOLID_M
100
AcDbLine
 10
-6.299999999999999
 20
6.349998
 30
0.0
 11
-1.8
 21
6.349998
 31
0.0
  0
LINE
  5
8A
330
1E
100
AcDbEntity
  8
MO_001_VIEW_PV
  6
C_SOLID_M
100
AcDbLine
 10
-6.299999999999999
 20
-6.349998
 30
0.0
 11
-1.8
 21
-6.349998
 31
0.0
  0
LINE
  5
8B
330
1E
100
AcDbEntity
  8
MO_001_VIEW_PV
  6
C_SOLID_M
100
AcDbLine
 10
-12.7
 20
2.0
 30
0.0
 11
-3.2
 21
2.0
 31
0.0
  0
LINE
  5
8C
330
1E
100
AcDbEntity
  8
MO_001_VIEW_PV
  6
C_SOLID_M
100
AcDbLine
 10
-12.7
 20
-2.0
 30
0.0
 11
-3.2
 21
-2.0
 31
0.0
  0
LINE
  5
8D
330
1E
100
AcDbEntity
  8
MO_001_VIEW_PV
  6
C_SOLID_M
100
AcDbLine
 10
-3.2
 20
2.0
 30
0.0
 11
-3.2
 21
-2.0
 31
0.0
  0
LINE
  5
8E
330
1E
100
AcDbEntity
  8
MO_001_VIEW_PV
  6
C_SOLID_M
100
AcDbLine
 10
-12.7
 20
6.349998
 30
0.0
 11
-12.7
 21
2.0
 31
0.0
  0
CIRCLE
  5
8F
330
1E
100
AcDbEntity
  8
MO_001_VIEW_PV
  6
C_SOLID_M
100
AcDbCircle
 10
-60.0
 20
0.0
 30
0.0
 40
6.349998
  0
LINE
  5
90
330
1E
100
AcDbEntity
  8
MO_001_VIEW_PV
  6
C_SOLID_M
100
AcDbLine
 10
-66.02681
 20
2.0
 30
0.0
 11
-53.97319
 21
2.0
 31
0.0
  0
LINE
  5
91
330
1E
100
AcDbEntity
  8
MO_001_VIEW_PV
  6
C_SOLID_M
100
AcDbLine
 10
-66.02681
 20
-2.0
 30
0.0
 11
-53.97319
 21
-2.0
 31
0.0
  0
LINE
  5
92
330
1E
100
AcDbEntity
  8
MO_001_VIEW_PV
  6
C_CENTER_L
100
AcDbLine
 10
-7.9
 20
8.179328999999999
 30
0.0
 11
-7.9
 21
-9.453697
 31
0.0
  0
LINE
  5
93
330
1E
100
AcDbEntity
  8
MO_001_VIEW_PV
  6
C_DASHED_M
100
AcDbLine
 10
-6.299999999999999
 20
6.349998
 30
0.0
 11
-6.299999999999999
 21
2.0
 31
0.0
  0
LINE
  5
94
330
1E
100
AcDbEntity
  8
MO_001_VIEW_PV
  6
C_DASHED_M
100
AcDbLine
 10
-9.5
 20
6.349998
 30
0.0
 11
-9.5
 21
2.0
 31
0.0
  0
LINE
  5
95
330
1E
100
AcDbEntity
  8
MO_001_VIEW_PV
  6
C_DASHED_M
100
AcDbLine
 10
-6.299999999999999
 20
-6.349998
 30
0.0
 11
-6.299999999999999
 21
-2.0
 31
0.0
  0
LINE
  5
96
330
1E
100
AcDbEntity
  8
MO_001_VIEW_PV
  6
C_DASHED_M
100
AcDbLine
 10
-9.5
 20
-6.349998
 30
0.0
 11
-9.5
 21
-2.0
 31
0.0
  0
LINE
  5
97
330
1E
100
AcDbEntity
  8
MO_001_VIEW_PV
  6
C_DASHED_M
100
AcDbLine
 10
-58.400002
 20
-6.145119
 30
0.0
 11
-58.400002
 21
-2.0
 31
0.0
  0
LINE
  5
98
330
1E
100
AcDbEntity
  8
MO_001_VIEW_PV
  6
C_DASHED_M
100
AcDbLine
 10
-61.599998
 20
-6.145119
 30
0.0
 11
-61.599998
 21
-2.0
 31
0.0
  0
LINE
  5
99
330
1E
100
AcDbEntity
  8
MO_001_VIEW_PV
  6
C_DASHED_M
100
AcDbLine
 10
-61.599998
 20
6.145119
 30
0.0
 11
-61.599998
 21
2.0
 31
0.0
  0
LINE
  5
9A
330
1E
100
AcDbEntity
  8
MO_001_VIEW_PV
  6
C_DASHED_M
100
AcDbLine
 10
-58.400002
 20
6.145119
 30
0.0
 11
-58.400002
 21
2.0
 31
0.0
  0
POLYLINE
  5
9B
330
1E
100
AcDbEntity
  8
MO_001_VIEW_PV
  6
C_SOLID_M
100
AcDb2dPolyline
 66
     1
 10
0.0
 20
0.0
 30
0.0
  0
VERTEX
  5
1DD
330
9B
100
AcDbEntity
  8
MO_001_VIEW_PV
  6
C_SOLID_M
100
AcDbVertex
100
AcDb2dVertex
 10
-9.5
 20
6.349998
 30
0.0
  0
VERTEX
  5
1DE
330
9B
100
AcDbEntity
  8
MO_001_VIEW_PV
  6
C_SOLID_M
100
AcDbVertex
100
AcDb2dVertex
 10
-9.492295
 20
6.329917
 30
0.0
  0
VERTEX
  5
1DF
330
9B
100
AcDbEntity
  8
MO_001_VIEW_PV
  6
C_SOLID_M
100
AcDbVertex
100
AcDb2dVertex
 10
-9.471142
 20
6.311262
 30
0.0
  0
VERTEX
  5
1E0
330
9B
100
AcDbEntity
  8
MO_001_VIEW_PV
  6
C_SOLID_M
100
AcDbVertex
100
AcDb2dVertex
 10
-9.439225999999999
 20
6.294068
 30
0.0
  0
VERTEX
  5
1E1
330
9B
100
AcDbEntity
  8
MO_001_VIEW_PV
  6
C_SOLID_M
100
AcDbVertex
100
AcDb2dVertex
 10
-9.348767
 20
6.263049999999999
 30
0.0
  0
VERTEX
  5
1E2
330
9B
100
AcDbEntity
  8
MO_001_VIEW_PV
  6
C_SOLID_M
100
AcDbVertex
100
AcDb2dVertex
 10
-9.238471
 20
6.237744999999999
 30
0.0
  0
VERTEX
  5
1E3
330
9B
100
AcDbEntity
  8
MO_001_VIEW_PV
  6
C_SOLID_M
100
AcDbVertex
100
AcDb2dVertex
 10
-9.119905000000001
 20
6.217429
 30
0.0
  0
VERTEX
  5
1E4
330
9B
100
AcDbEntity
  8
MO_001_VIEW_PV
  6
C_SOLID_M
100
AcDbVertex
100
AcDb2dVertex
 10
-9.000757
 20
6.201309999999999
 30
0.0
  0
VERTEX
  5
1E5
330
9B
100
AcDbEntity
  8
MO_001_VIEW_PV
  6
C_SOLID_M
100
AcDbVertex
100
AcDb2dVertex
 10
-8.762089999999998
 20
6.177401999999999
 30
0.0
  0
VERTEX
  5
1E6
330
9B
100
AcDbEntity
  8
MO_001_VIEW_PV
  6
C_SOLID_M
100
AcDbVertex
100
AcDb2dVertex
 10
-8.562284
 20
6.163494
 30
0.0
  0
VERTEX
  5
1E7
330
9B
100
AcDbEntity
  8
MO_001_VIEW_PV
  6
C_SOLID_M
100
AcDbVertex
100
AcDb2dVertex
 10
-8.238825999999999
 20
6.149765
 30
0.0
  0
VERTEX
  5
1E8
330
9B
100
AcDbEntity
  8
MO_001_VIEW_PV
  6
C_SOLID_M
100
AcDbVertex
100
AcDb2dVertex
 10
-7.9
 20
6.145119
 30
0.0
  0
VERTEX
  5
1E9
330
9B
100
AcDbEntity
  8
MO_001_VIEW_PV
  6
C_SOLID_M
100
AcDbVertex
100
AcDb2dVertex
 10
-7.587855
 20
6.149055
 30
0.0
  0
VERTEX
  5
1EA
330
9B
100
AcDbEntity
  8
MO_001_VIEW_PV
  6
C_SOLID_M
100
AcDbVertex
100
AcDb2dVertex
 10
-7.324167999999999
 20
6.158846999999999
 30
0.0
  0
VERTEX
  5
1EB
330
9B
100
AcDbEntity
  8
MO_001_VIEW_PV
  6
C_SOLID_M
100
AcDbVertex
100
AcDb2dVertex
 10
-7.107094999999999
 20
6.172045999999999
 30
0.0
  0
VERTEX
  5
1EC
330
9B
100
AcDbEntity
  8
MO_001_VIEW_PV
  6
C_SOLID_M
100
AcDbVertex
100
AcDb2dVertex
 10
-6.931669999999999
 20
6.186899999999999
 30
0.0
  0
VERTEX
  5
1ED
330
9B
100
AcDbEntity
  8
MO_001_VIEW_PV
  6
C_SOLID_M
100
AcDbVertex
100
AcDb2dVertex
 10
-6.791800999999999
 20
6.202219
 30
0.0
  0
VERTEX
  5
1EE
330
9B
100
AcDbEntity
  8
MO_001_VIEW_PV
  6
C_SOLID_M
100
AcDbVertex
100
AcDb2dVertex
 10
-6.681385999999999
 20
6.217234999999999
 30
0.0
  0
VERTEX
  5
1EF
330
9B
100
AcDbEntity
  8
MO_001_VIEW_PV
  6
C_SOLID_M
100
AcDbVertex
100
AcDb2dVertex
 10
-6.594867999999999
 20
6.231482999999999
 30
0.0
  0
VERTEX
  5
1F0
330
9B
100
AcDbEntity
  8
MO_001_VIEW_PV
  6
C_SOLID_M
100
AcDbVertex
100
AcDb2dVertex
 10
-6.468192
 20
6.258558999999999
 30
0.0
  0
VERTEX
  5
1F1
330
9B
100
AcDbEntity
  8
MO_001_VIEW_PV
  6
C_SOLID_M
100
AcDbVertex
100
AcDb2dVertex
 10
-6.395350999999999
 20
6.280327999999999
 30
0.0
  0
VERTEX
  5
1F2
330
9B
100
AcDbEntity
  8
MO_001_VIEW_PV
  6
C_SOLID_M
100
AcDbVertex
100
AcDb2dVertex
 10
-6.353870999999999
 20
6.297282
 30
0.0
  0
VERTEX
  5
1F3
330
9B
100
AcDbEntity
  8
MO_001_VIEW_PV
  6
C_SOLID_M
100
AcDbVertex
100
AcDb2dVertex
 10
-6.313525
 20
6.323415999999999
 30
0.0
  0
VERTEX
  5
1F4
330
9B
100
AcDbEntity
  8
MO_001_VIEW_PV
  6
C_SOLID_M
100
AcDbVertex
100
AcDb2dVertex
 10
-6.299999999999999
 20
6.349998
 30
0.0
  0
SEQEND
  5
1F5
330
9B
100
AcDbEntity
  8
MO_001_VIEW_PV
  6
C_SOLID_M
  0
LINE
  5
B5
330
1E
100
AcDbEntity
  8
MO_001_VIEW_PV
  6
C_SOLID_M
100
AcDbLine
 10
-12.7
 20
6.349998
 30
0.0
 11
-9.5
 21
6.349998
 31
0.0
  0
POLYLINE
  5
B6
330
1E
100
AcDbEntity
  8
MO_001_VIEW_PV
  6
C_SOLID_M
100
AcDb2dPolyline
 66
     1
 10
0.0
 20
0.0
 30
0.0
  0
VERTEX
  5
1F6
330
B6
100
AcDbEntity
  8
MO_001_VIEW_PV
  6
C_SOLID_M
100
AcDbVertex
100
AcDb2dVertex
 10
-6.299999999999999
 20
-6.349998
 30
0.0
  0
VERTEX
  5
1F7
330
B6
100
AcDbEntity
  8
MO_001_VIEW_PV
  6
C_SOLID_M
100
AcDbVertex
100
AcDb2dVertex
 10
-6.307704
 20
-6.329917
 30
0.0
  0
VERTEX
  5
1F8
330
B6
100
AcDbEntity
  8
MO_001_VIEW_PV
  6
C_SOLID_M
100
AcDbVertex
100
AcDb2dVertex
 10
-6.328858
 20
-6.311262
 30
0.0
  0
VERTEX
  5
1F9
330
B6
100
AcDbEntity
  8
MO_001_VIEW_PV
  6
C_SOLID_M
100
AcDbVertex
100
AcDb2dVertex
 10
-6.360773
 20
-6.294068
 30
0.0
  0
VERTEX
  5
1FA
330
B6
100
AcDbEntity
  8
MO_001_VIEW_PV
  6
C_SOLID_M
100
AcDbVertex
100
AcDb2dVertex
 10
-6.451232
 20
-6.263049999999999
 30
0.0
  0
VERTEX
  5
1FB
330
B6
100
AcDbEntity
  8
MO_001_VIEW_PV
  6
C_SOLID_M
100
AcDbVertex
100
AcDb2dVertex
 10
-6.561528999999999
 20
-6.237744999999999
 30
0.0
  0
VERTEX
  5
1FC
330
B6
100
AcDbEntity
  8
MO_001_VIEW_PV
  6
C_SOLID_M
100
AcDbVertex
100
AcDb2dVertex
 10
-6.680094
 20
-6.217429
 30
0.0
  0
VERTEX
  5
1FD
330
B6
100
AcDbEntity
  8
MO_001_VIEW_PV
  6
C_SOLID_M
100
AcDbVertex
100
AcDb2dVertex
 10
-6.799241999999999
 20
-6.201309999999999
 30
0.0
  0
VERTEX
  5
1FE
330
B6
100
AcDbEntity
  8
MO_001_VIEW_PV
  6
C_SOLID_M
100
AcDbVertex
100
AcDb2dVertex
 10
-7.03791
 20
-6.177401999999999
 30
0.0
  0
VERTEX
  5
1FF
330
B6
100
AcDbEntity
  8
MO_001_VIEW_PV
  6
C_SOLID_M
100
AcDbVertex
100
AcDb2dVertex
 10
-7.237714999999999
 20
-6.163494
 30
0.0
  0
VERTEX
  5
200
330
B6
100
AcDbEntity
  8
MO_001_VIEW_PV
  6
C_SOLID_M
100
AcDbVertex
100
AcDb2dVertex
 10
-7.561172999999999
 20
-6.149765
 30
0.0
  0
VERTEX
  5
201
330
B6
100
AcDbEntity
  8
MO_001_VIEW_PV
  6
C_SOLID_M
100
AcDbVertex
100
AcDb2dVertex
 10
-7.9
 20
-6.145119
 30
0.0
  0
VERTEX
  5
202
330
B6
100
AcDbEntity
  8
MO_001_VIEW_PV
  6
C_SOLID_M
100
AcDbVertex
100
AcDb2dVertex
 10
-8.212144
 20
-6.149055
 30
0.0
  0
VERTEX
  5
203
330
B6
100
AcDbEntity
  8
MO_001_VIEW_PV
  6
C_SOLID_M
100
AcDbVertex
100
AcDb2dVertex
 10
-8.475832
 20
-6.158846999999999
 30
0.0
  0
VERTEX
  5
204
330
B6
100
AcDbEntity
  8
MO_001_VIEW_PV
  6
C_SOLID_M
100
AcDbVertex
100
AcDb2dVertex
 10
-8.692903999999998
 20
-6.172045999999999
 30
0.0
  0
VERTEX
  5
205
330
B6
100
AcDbEntity
  8
MO_001_VIEW_PV
  6
C_SOLID_M
100
AcDbVertex
100
AcDb2dVertex
 10
-8.868328999999999
 20
-6.186899999999999
 30
0.0
  0
VERTEX
  5
206
330
B6
100
AcDbEntity
  8
MO_001_VIEW_PV
  6
C_SOLID_M
100
AcDbVertex
100
AcDb2dVertex
 10
-9.008198
 20
-6.202219
 30
0.0
  0
VERTEX
  5
207
330
B6
100
AcDbEntity
  8
MO_001_VIEW_PV
  6
C_SOLID_M
100
AcDbVertex
100
AcDb2dVertex
 10
-9.118612999999999
 20
-6.217234999999999
 30
0.0
  0
VERTEX
  5
208
330
B6
100
AcDbEntity
  8
MO_001_VIEW_PV
  6
C_SOLID_M
100
AcDbVertex
100
AcDb2dVertex
 10
-9.205130999999999
 20
-6.231482999999999
 30
0.0
  0
VERTEX
  5
209
330
B6
100
AcDbEntity
  8
MO_001_VIEW_PV
  6
C_SOLID_M
100
AcDbVertex
100
AcDb2dVertex
 10
-9.331808
 20
-6.258558999999999
 30
0.0
  0
VERTEX
  5
20A
330
B6
100
AcDbEntity
  8
MO_001_VIEW_PV
  6
C_SOLID_M
100
AcDbVertex
100
AcDb2dVertex
 10
-9.404647999999999
 20
-6.280327999999999
 30
0.0
  0
VERTEX
  5
20B
330
B6
100
AcDbEntity
  8
MO_001_VIEW_PV
  6
C_SOLID_M
100
AcDbVertex
100
AcDb2dVertex
 10
-9.446127999999999
 20
-6.297282
 30
0.0
  0
VERTEX
  5
20C
330
B6
100
AcDbEntity
  8
MO_001_VIEW_PV
  6
C_SOLID_M
100
AcDbVertex
100
AcDb2dVertex
 10
-9.486475
 20
-6.323415999999999
 30
0.0
  0
VERTEX
  5
20D
330
B6
100
AcDbEntity
  8
MO_001_VIEW_PV
  6
C_SOLID_M
100
AcDbVertex
100
AcDb2dVertex
 10
-9.5
 20
-6.349998
 30
0.0
  0
SEQEND
  5
20E
330
B6
100
AcDbEntity
  8
MO_001_VIEW_PV
  6
C_SOLID_M
  0
LINE
  5
D0
330
1E
100
AcDbEntity
  8
MO_001_VIEW_PV
  6
C_SOLID_M
100
AcDbLine
 10
-12.7
 20
-6.349998
 30
0.0
 11
-9.5
 21
-6.349998
 31
0.0
  0
LINE
  5
D1
330
1E
100
AcDbEntity
  8
MO_001_VIEW_PV
  6
C_SOLID_M
100
AcDbLine
 10
-0.8
 20
9.55
 30
0.0
 11
-0.8
 21
-9.55
 31
0.0
  0
LINE
  5
D2
330
1E
100
AcDbEntity
  8
MO_001_VIEW_PV
  6
C_SOLID_M
100
AcDbLine
 10
-0.8
 20
9.55
 30
0.0
 11
0.0
 21
9.55
 31
0.0
  0
LINE
  5
D3
330
1E
100
AcDbEntity
  8
MO_001_VIEW_PV
  6
C_SOLID_M
100
AcDbLine
 10
-0.8
 20
-9.55
 30
0.0
 11
0.0
 21
-9.55
 31
0.0
  0
CIRCLE
  5
D4
330
1E
100
AcDbEntity
  8
MO_001_VIEW_PV
  6
C_SOLID_M
100
AcDbCircle
 10
-60.0
 20
0.0
 30
0.0
 40
9.55
  0
ARC
  5
D5
330
1E
100
AcDbEntity
  8
MO_001_VIEW_PV
  6
C_SOLID_M
100
AcDbCircle
 10
-60.0
 20
0.0
 30
0.0
 40
6.549999999999999
100
AcDbArc
 50
0.0
 51
60.00002900000001
  0
LINE
  5
D6
330
1E
100
AcDbEntity
  8
MO_001_VIEW_PV
  6
C_SOLID_M
100
AcDbLine
 10
23.78958099999999
 20
-45.0
 30
0.0
 11
67.75623299999999
 21
-45.0
 31
0.0
  0
LINE
  5
D7
330
1E
100
AcDbEntity
  8
MO_001_VIEW_PV
  6
C_SOLID_L
100
AcDbLine
 10
-33.55354699999999
 20
-30.0
 30
0.0
 11
-5.464993999999999
 21
-30.0
 31
0.0
  0
LINE
  5
D8
330
1E
100
AcDbEntity
  8
MO_001_VIEW_PV
  6
C_SOLID_L
100
AcDbLine
 10
-37.69216199999999
 20
24.0
 30
0.0
 11
-18.208517
 21
24.0
 31
0.0
  0
ARC
  5
D9
330
1E
100
AcDbEntity
  8
MO_001_VIEW_PV
  6
C_SOLID_M
100
AcDbCircle
 10
-60.0
 20
0.0
 30
0.0
 40
9.25
100
AcDbArc
 50
307.4364519999999
 51
232.563543
  0
LINE
  5
DA
330
1E
100
AcDbEntity
  8
MO_001_VIEW_PV
  6
C_SOLID_M
100
AcDbLine
 10
-53.650002
 20
0.0
 30
0.0
 11
-53.05648000000001
 21
0.0
 31
0.0
  0
LINE
  5
DB
330
1E
100
AcDbEntity
  8
MO_001_VIEW_PV
  6
C_SOLID_M
100
AcDbLine
 10
-56.824997
 20
5.499258999999999
 30
0.0
 11
-56.52823699999999
 21
6.013262999999999
 31
0.0
  0
ARC
  5
DC
330
1E
100
AcDbEntity
  8
MO_001_VIEW_PV
  6
C_SOLID_M
100
AcDbCircle
 10
-60.0
 20
0.0
 30
0.0
 40
7.25
100
AcDbArc
 50
2.473968
 51
57.52603199999999
  0
ARC
  5
DD
330
1E
100
AcDbEntity
  8
MO_001_VIEW_PV
  6
C_SOLID_M
100
AcDbCircle
 10
-56.26843299999999
 20
5.863266
 30
0.0
 40
0.3
100
AcDbArc
 50
57.52605899999999
 51
149.999984
  0
ARC
  5
DE
330
1E
100
AcDbEntity
  8
MO_001_VIEW_PV
  6
C_SOLID_M
100
AcDbCircle
 10
-53.05648000000001
 20
0.3
 30
0.0
 40
0.3
100
AcDbArc
 50
269.999998
 51
2.473965999999999
  0
LINE
  5
DF
330
1E
100
AcDbEntity
  8
MO_001_VIEW_PV
  6
C_SOLID_M
100
AcDbLine
 10
-55.55828100000001
 20
-4.538022999999999
 30
0.0
 11
-54.849241
 21
-7.184197
 31
0.0
  0
ARC
  5
E0
330
1E
100
AcDbEntity
  8
MO_001_VIEW_PV
  6
C_SOLID_M
100
AcDbCircle
 10
-54.559464
 20
-7.106550999999999
 30
0.0
 40
0.3
100
AcDbArc
 50
195.000006
 51
307.4364319999999
  0
LINE
  5
E1
330
1E
100
AcDbEntity
  8
MO_001_VIEW_PV
  6
C_SOLID_M
100
AcDbLine
 10
-63.17499599999999
 20
5.499260999999999
 30
0.0
 11
-63.471756
 21
6.013265
 31
0.0
  0
ARC
  5
E2
330
1E
100
AcDbEntity
  8
MO_001_VIEW_PV
  6
C_SOLID_M
100
AcDbCircle
 10
-60.0
 20
0.0
 30
0.0
 40
7.25
100
AcDbArc
 50
122.473966
 51
177.526029
  0
ARC
  5
E3
330
1E
100
AcDbEntity
  8
MO_001_VIEW_PV
  6
C_SOLID_M
100
AcDbCircle
 10
-63.731567
 20
5.863266
 30
0.0
 40
0.3
100
AcDbArc
 50
30.00001799999999
 51
122.4739389999999
  0
ARC
  5
E4
330
1E
100
AcDbEntity
  8
MO_001_VIEW_PV
  6
C_SOLID_M
100
AcDbCircle
 10
-66.94351999999999
 20
0.3
 30
0.0
 40
0.3
100
AcDbArc
 50
177.526029
 51
270.000001
  0
LINE
  5
E5
330
1E
100
AcDbEntity
  8
MO_001_VIEW_PV
  6
C_SOLID_M
100
AcDbLine
 10
-66.349998
 20
0.0
 30
0.0
 11
-66.94351999999999
 21
0.0
 31
0.0
  0
LINE
  5
E6
330
1E
100
AcDbEntity
  8
MO_001_VIEW_PV
  6
C_SOLID_M
100
AcDbLine
 10
-64.44171199999999
 20
-4.538019999999999
 30
0.0
 11
-65.150752
 21
-7.184194
 31
0.0
  0
ARC
  5
E7
330
1E
100
AcDbEntity
  8
MO_001_VIEW_PV
  6
C_SOLID_M
100
AcDbCircle
 10
-65.44053599999999
 20
-7.106550999999999
 30
0.0
 40
0.3
100
AcDbArc
 50
232.563574
 51
344.999994
  0
ARC
  5
E8
330
1E
100
AcDbEntity
  8
MO_001_VIEW_PV
  6
C_SOLID_M
100
AcDbCircle
 10
-60.0
 20
0.0
 30
0.0
 40
6.549999999999999
100
AcDbArc
 50
226.594999
 51
313.404979
  0
ARC
  5
E9
330
1E
100
AcDbEntity
  8
MO_001_VIEW_PV
  6
C_SOLID_M
100
AcDbCircle
 10
-60.0
 20
0.0
 30
0.0
 40
6.549999999999999
100
AcDbArc
 50
120.000031
 51
180.000005
  0
LINE
  5
EA
330
1E
100
AcDbEntity
  8
MO_001_VIEW_PV
  6
C_SOLID_M
100
AcDbLine
 10
-1.8
 20
9.25
 30
0.0
 11
-1.8
 21
-7.406550999999999
 31
0.0
  0
LINE
  5
EB
330
1E
100
AcDbEntity
  8
MO_001_VIEW_PV
  6
C_SOLID_M
100
AcDbLine
 10
-1.8
 20
-7.406550999999999
 30
0.0
 11
-0.8
 21
-7.406550999999999
 31
0.0
  0
LINE
  5
EC
330
1E
100
AcDbEntity
  8
MO_001_VIEW_PV
  6
C_SOLID_M
100
AcDbLine
 10
-1.8
 20
9.25
 30
0.0
 11
-0.8
 21
9.25
 31
0.0
  0
LINE
  5
ED
330
1E
100
AcDbEntity
  8
MO_001_VIEW_PV
  6
C_SOLID_M
100
AcDbLine
 10
79.01614399999999
 20
-28.718126
 30
0.0
 11
82.551678
 21
-32.25365999999999
 31
0.0
  0
LINE
  5
EE
330
1E
100
AcDbEntity
  8
MO_001_VIEW_PV
  6
C_SOLID_M
100
AcDbLine
 10
78.45045899999999
 20
-29.283811
 30
0.0
 11
81.98599300000001
 21
-32.819344
 31
0.0
  0
LINE
  5
EF
330
1E
100
AcDbEntity
  8
MO_001_VIEW_PV
  6
C_SOLID_M
100
AcDbLine
 10
69.39949
 20
-18.53578399999999
 30
0.0
 11
79.298988
 21
-28.435282
 31
0.0
  0
LINE
  5
F0
330
1E
100
AcDbEntity
  8
MO_001_VIEW_PV
  6
C_SOLID_M
100
AcDbLine
 10
68.26812099999999
 20
-19.667154
 30
0.0
 11
78.167618
 21
-29.566652
 31
0.0
  0
LINE
  5
F1
330
1E
100
AcDbEntity
  8
MO_001_VIEW_PV
  6
C_SOLID_M
100
AcDbLine
 10
82.551678
 20
-32.25365999999999
 30
0.0
 11
81.98599300000001
 21
-32.819344
 31
0.0
  0
LINE
  5
F2
330
1E
100
AcDbEntity
  8
MO_001_VIEW_PV
  6
C_SOLID_M
100
AcDbLine
 10
79.298988
 20
-28.435282
 30
0.0
 11
78.167618
 21
-29.566652
 31
0.0
  0
LINE
  5
F3
330
1E
100
AcDbEntity
  8
MO_001_VIEW_PV
  6
C_SOLID_M
100
AcDbLine
 10
57.5
 20
-11.950001
 30
0.0
 11
61.5
 21
-11.950001
 31
0.0
  0
LINE
  5
F4
330
1E
100
AcDbEntity
  8
MO_001_VIEW_PV
  6
C_SOLID_M
100
AcDbLine
 10
57.5
 20
-13.549999
 30
0.0
 11
59.5
 21
-13.549999
 31
0.0
  0
LINE
  5
F5
330
1E
100
AcDbEntity
  8
MO_001_VIEW_PV
  6
C_SOLID_M
100
AcDbLine
 10
64.02548
 20
-15.424514
 30
0.0
 11
67.561014
 21
-18.96004699999999
 31
0.0
  0
LINE
  5
F6
330
1E
100
AcDbEntity
  8
MO_001_VIEW_PV
  6
C_SOLID_M
100
AcDbLine
 10
65.15685000000001
 20
-14.29314399999999
 30
0.0
 11
68.69238399999999
 21
-17.828678
 31
0.0
  0
ARC
  5
F7
330
1E
100
AcDbEntity
  8
MO_001_VIEW_PV
  6
C_SOLID_M
100
AcDbCircle
 10
68.621674
 20
-18.323654
 30
0.0
 40
0.4999970000000001
100
AcDbArc
 50
81.869817
 51
188.129802
  0
ARC
  5
F8
330
1E
100
AcDbEntity
  8
MO_001_VIEW_PV
  6
C_SOLID_M
100
AcDbCircle
 10
67.631729
 20
-18.46506899999999
 30
0.0
 40
0.500007
100
AcDbArc
 50
261.870549
 51
8.129153
  0
ARC
  5
F9
330
1E
100
AcDbEntity
  8
MO_001_VIEW_PV
  6
C_SOLID_M
100
AcDbCircle
 10
68.197418
 20
-17.899395
 30
0.0
 40
0.4999950000000001
100
AcDbArc
 50
261.870064
 51
8.131264999999999
  0
ARC
  5
FA
330
1E
100
AcDbEntity
  8
MO_001_VIEW_PV
  6
C_SOLID_M
100
AcDbCircle
 10
68.338837
 20
-19.172176
 30
0.0
 40
0.500007
100
AcDbArc
 50
261.870549
 51
8.129153
  0
ARC
  5
FB
330
1E
100
AcDbEntity
  8
MO_001_VIEW_PV
  6
C_SOLID_M
100
AcDbCircle
 10
68.763092
 20
-19.596443
 30
0.0
 40
0.499996
100
AcDbArc
 50
81.869557
 51
188.130485
  0
ARC
  5
FC
330
1E
100
AcDbEntity
  8
MO_001_VIEW_PV
  6
C_SOLID_M
100
AcDbCircle
 10
69.328781
 20
-19.03075799999999
 30
0.0
 40
0.4999970000000001
100
AcDbArc
 50
81.869817
 51
188.129802
  0
ARC
  5
FD
330
1E
100
AcDbEntity
  8
MO_001_VIEW_PV
  6
C_SOLID_M
100
AcDbCircle
 10
59.5
 20
-19.950001
 30
0.0
 40
8.0
100
AcDbArc
 50
45.000005
 51
90.000002
  0
ARC
  5
FE
330
1E
100
AcDbEntity
  8
MO_001_VIEW_PV
  6
C_SOLID_M
100
AcDbCircle
 10
59.5
 20
-19.950001
 30
0.0
 40
6.4
100
AcDbArc
 50
45.000005
 51
90.000002
  0
LINE
  5
FF
330
1E
100
AcDbEntity
  8
MO_001_VIEW_PV
  6
C_SOLID_M
100
AcDbLine
 10
82.242221
 20
-25.195979
 30
0.0
 11
86.33798099999999
 21
-28.063862
 31
0.0
  0
LINE
  5
100
330
1E
100
AcDbEntity
  8
MO_001_VIEW_PV
  6
C_SOLID_M
100
AcDbLine
 10
81.78335999999999
 20
-25.85129999999999
 30
0.0
 11
85.87912000000001
 21
-28.719183
 31
0.0
  0
LINE
  5
101
330
1E
100
AcDbEntity
  8
MO_001_VIEW_PV
  6
C_SOLID_M
100
AcDbLine
 10
71.003517
 20
-16.83824299999999
 30
0.0
 11
82.47165200000001
 21
-24.868317
 31
0.0
  0
LINE
  5
102
330
1E
100
AcDbEntity
  8
MO_001_VIEW_PV
  6
C_SOLID_M
100
AcDbLine
 10
70.085796
 20
-18.148885
 30
0.0
 11
81.55393100000001
 21
-26.178959
 31
0.0
  0
LINE
  5
103
330
1E
100
AcDbEntity
  8
MO_001_VIEW_PV
  6
C_SOLID_M
100
AcDbLine
 10
86.33798099999999
 20
-28.063862
 30
0.0
 11
85.87912000000001
 21
-28.719183
 31
0.0
  0
LINE
  5
104
330
1E
100
AcDbEntity
  8
MO_001_VIEW_PV
  6
C_SOLID_M
100
AcDbLine
 10
82.47165200000001
 20
-24.868317
 30
0.0
 11
81.55393100000001
 21
-26.178959
 31
0.0
  0
LINE
  5
105
330
1E
100
AcDbEntity
  8
MO_001_VIEW_PV
  6
C_SOLID_M
100
AcDbLine
 10
66.50598000000001
 20
-15.642271
 30
0.0
 11
69.26664399999999
 21
-17.575308
 31
0.0
  0
LINE
  5
106
330
1E
100
AcDbEntity
  8
MO_001_VIEW_PV
  6
C_SOLID_M
100
AcDbLine
 10
66.088605
 20
-13.396784
 30
0.0
 11
70.18436499999999
 21
-16.264666
 31
0.0
  0
ARC
  5
107
330
1E
100
AcDbEntity
  8
MO_001_VIEW_PV
  6
C_SOLID_M
100
AcDbCircle
 10
70.20068399999999
 20
-16.76439999999999
 30
0.0
 40
0.4999970000000001
100
AcDbArc
 50
91.86981499999999
 51
198.1297999999999
  0
ARC
  5
108
330
1E
100
AcDbEntity
  8
MO_001_VIEW_PV
  6
C_SOLID_M
100
AcDbCircle
 10
69.250336
 20
-17.075569
 30
0.0
 40
0.500007
100
AcDbArc
 50
271.870547
 51
18.129153
  0
ARC
  5
109
330
1E
100
AcDbEntity
  8
MO_001_VIEW_PV
  6
C_SOLID_M
100
AcDbCircle
 10
69.709198
 20
-16.420258
 30
0.0
 40
0.4999950000000001
100
AcDbArc
 50
271.870062
 51
18.131265
  0
ARC
  5
10A
330
1E
100
AcDbEntity
  8
MO_001_VIEW_PV
  6
C_SOLID_M
100
AcDbCircle
 10
70.06948900000001
 20
-17.649145
 30
0.0
 40
0.500007
100
AcDbArc
 50
271.870547
 51
18.129153
  0
ARC
  5
10B
330
1E
100
AcDbEntity
  8
MO_001_VIEW_PV
  6
C_SOLID_M
100
AcDbCircle
 10
70.560966
 20
-17.993296
 30
0.0
 40
0.499996
100
AcDbArc
 50
91.86955500000001
 51
198.130483
  0
ARC
  5
10C
330
1E
100
AcDbEntity
  8
MO_001_VIEW_PV
  6
C_SOLID_M
100
AcDbCircle
 10
71.019836
 20
-17.337973
 30
0.0
 40
0.4999970000000001
100
AcDbArc
 50
91.86981499999999
 51
198.1297999999999
  0
ARC
  5
10D
330
1E
100
AcDbEntity
  8
MO_001_VIEW_PV
  6
C_SOLID_M
100
AcDbCircle
 10
61.5
 20
-19.950001
 30
0.0
 40
8.0
100
AcDbArc
 50
55.000006
 51
90.000002
  0
TEXT
  5
10E
330
1E
100
AcDbEntity
  8
MO_001_VIEW_PV
  6
C_SOLID_L
100
AcDbText
 10
-85.48828099999999
 20
-71.08359399999999
 30
0.0
 40
4.167187
  1
S-125 Pull
100
AcDbText
  0
TEXT
  5
10F
330
1E
100
AcDbEntity
  8
MO_001_VIEW_PV
  6
C_SOLID_L
100
AcDbText
 10
37.511719
 20
-71.08359399999999
 30
0.0
 40
4.167187
  1
単位：mm
100
AcDbText
  0
TEXT
  5
110
330
1E
100
AcDbEntity
  8
MO_001_VIEW_PV
  6
C_SOLID_L
100
AcDbText
 10
25.97982599999999
 20
-44.103695
 30
0.0
 40
3.0
  1
長さ150以上
100
AcDbText
  0
TEXT
  5
111
330
1E
100
AcDbEntity
  8
MO_001_VIEW_PV
  6
C_SOLID_L
100
AcDbText
 10
24.985403
 20
-49.324398
 30
0.0
 40
3.0
  1
(UL1430 AWG22)
100
AcDbText
  0
TEXT
  5
112
330
1E
100
AcDbEntity
  8
MO_001_VIEW_PV
  6
C_SOLID_L
100
AcDbText
 10
-12.804444
 20
-27.35955399999999
 30
0.0
 40
1.5
  1
+0.1
100
AcDbText
  0
TEXT
  5
113
330
1E
100
AcDbEntity
  8
MO_001_VIEW_PV
  6
C_SOLID_L
100
AcDbText
 10
-12.804444
 20
-29.60955399999999
 30
0.0
 40
1.5
  1
 0
100
AcDbText
  0
TEXT
  5
114
330
1E
100
AcDbEntity
  8
MO_001_VIEW_PV
  6
C_SOLID_L
100
AcDbText
 10
-30.590159
 20
-29.23455399999999
 30
0.0
 40
3.0
  1
4-%%C3.6
100
AcDbText
  0
TEXT
  5
115
330
1E
100
AcDbEntity
  8
MO_001_VIEW_PV
  6
C_SOLID_L
100
AcDbText
 10
-24.592355
 20
26.516495
 30
0.0
 40
1.5
  1
%%P0.1
100
AcDbText
  0
TEXT
  5
116
330
1E
100
AcDbEntity
  8
MO_001_VIEW_PV
  6
C_SOLID_L
100
AcDbText
 10
-36.378069
 20
24.641495
 30
0.0
 40
3.0
  1
%%C3.2
100
AcDbText
  0
TEXT
  5
117
330
1E
100
AcDbEntity
  8
MO_001_VIEW_PV
  6
C_SOLID_L
100
AcDbText
 10
37.511719
 20
-77.08359399999999
 30
0.0
 40
4.167187
  1
図は励磁時を示す
100
AcDbText
  0
DIMENSION
  5
119
330
1E
100
AcDbEntity
  8
MO_001_VIEW_PV
  6
C_SOLID_M
100
AcDbDimension
  2
*D0
 10
28.75
 20
30.0
 30
0.0
 11
28.75
 21
30.0
 31
0.0
  3
STANDARD
100
AcDbAlignedDimension
 13
57.5
 23
15.9
 33
0.0
 14
0.0
 24
15.599999
 34
0.0
 50
179.97571
100
AcDbRotatedDimension
  0
DIMENSION
  5
11B
330
1E
100
AcDbEntity
  8
MO_001_VIEW_PV
  6
C_SOLID_M
100
AcDbDimension
  2
*D1
 10
29.5
 20
-36.0
 30
0.0
 11
29.5
 21
-36.0
 31
0.0
  3
STANDARD
100
AcDbAlignedDimension
 13
14.8
 23
-21.297028
 33
0.0
 14
44.200001
 24
-21.297028
 34
0.0
100
AcDbRotatedDimension
  0
DIMENSION
  5
11D
330
1E
100
AcDbEntity
  8
MO_001_VIEW_PV
  6
C_SOLID_M
100
AcDbDimension
  2
*D2
 10
-10.373741
 20
-36.0
 30
0.0
 11
-10.373741
 21
-36.0
 31
0.0
  3
STANDARD
100
AcDbAlignedDimension
 13
14.8
 23
-21.297028
 33
0.0
 14
0.0
 24
-15.599999
 34
0.0
 50
179.97571
100
AcDbRotatedDimension
  0
DIMENSION
  5
11F
330
1E
100
AcDbEntity
  8
MO_001_VIEW_PV
  6
C_SOLID_M
100
AcDbDimension
  2
*D3
 10
-90.0
 20
9.0
 30
0.0
 11
-90.0
 21
9.0
 31
0.0
  1
(18.3)
  3
STANDARD
100
AcDbAlignedDimension
 13
-80.55264300000001
 23
0.0
 33
0.0
 14
-80.64999399999999
 24
-18.29999899999999
 34
0.0
 50
89.999523
100
AcDbRotatedDimension
  0
DIMENSION
  5
121
330
1E
100
AcDbEntity
  8
MO_001_VIEW_PV
  6
C_SOLID_M
100
AcDbDimension
  2
*D4
 10
-84.0
 20
-30.0
 30
0.0
 11
-84.0
 21
-30.0
 31
0.0
  3
STANDARD
100
AcDbAlignedDimension
 13
-80.64999399999999
 23
-16.69999899999999
 33
0.0
 14
-80.64999399999999
 24
-18.29999899999999
 34
0.0
 50
89.999523
100
AcDbRotatedDimension
  0
DIMENSION
  5
123
330
1E
100
AcDbEntity
  8
MO_001_VIEW_PV
  6
C_SOLID_M
100
AcDbDimension
  2
*D5
 10
-60.0
 20
-27.0
 30
0.0
 11
-60.0
 21
-27.0
 31
0.0
  3
STANDARD
100
AcDbAlignedDimension
 13
-43.349998
 23
-21.297028
 33
0.0
 14
-76.64999399999999
 24
-21.297028
 34
0.0
100
AcDbRotatedDimension
  0
DIMENSION
  5
125
330
1E
100
AcDbEntity
  8
MO_001_VIEW_PV
  6
C_SOLID_M
100
AcDbDimension
  2
*D6
 10
-60.0
 20
-33.0
 30
0.0
 11
-60.0
 21
-33.0
 31
0.0
  3
STANDARD
100
AcDbAlignedDimension
 13
-39.34999799999999
 23
-18.29999899999999
 33
0.0
 14
-80.64999399999999
 24
-18.29999899999999
 34
0.0
100
AcDbRotatedDimension
  0
DIMENSION
  5
127
330
1E
100
AcDbEntity
  8
MO_001_VIEW_PV
  6
C_SOLID_M
100
AcDbDimension
  2
*D7
 10
-24.0
 20
1.492370999999999
 30
0.0
 11
-24.0
 21
1.492370999999999
 31
0.0
  3
STANDARD
100
AcDbAlignedDimension
 13
-12.7
 23
6.349998
 33
0.0
 14
-12.7
 24
-6.349998
 34
0.0
 50
89.999523
100
AcDbRotatedDimension
  0
DIMENSION
  5
129
330
1E
100
AcDbEntity
  8
MO_001_VIEW_PV
  6
C_SOLID_M
100
AcDbDimension
  2
*D8
 10
-22.762135
 20
-21.0
 30
0.0
 11
-22.762135
 21
-21.0
 31
0.0
  3
STANDARD
100
AcDbAlignedDimension
 13
-12.7
 23
-6.349998
 33
0.0
 14
-3.2
 24
-2.0
 34
0.0
100
AcDbRotatedDimension
  0
DIMENSION
  5
12B
330
1E
100
AcDbEntity
  8
MO_001_VIEW_PV
  6
C_SOLID_M
100
AcDbDimension
  2
*D9
 10
-18.0
 20
15.0
 30
0.0
 11
-18.0
 21
15.0
 31
0.0
  3
STANDARD
100
AcDbAlignedDimension
 13
-12.7
 23
-2.0
 33
0.0
 14
-12.7
 24
2.0
 34
0.0
 50
89.999523
100
AcDbRotatedDimension
  0
DIMENSION
  5
12D
330
1E
100
AcDbEntity
  8
MO_001_VIEW_PV
  6
C_SOLID_M
100
AcDbDimension
  2
*D10
 10
-22.66737699999999
 20
30.0
 30
0.0
 11
-22.66737699999999
 21
30.0
 31
0.0
  3
STANDARD
100
AcDbAlignedDimension
 13
-12.7
 23
6.349998
 33
0.0
 14
-7.9
 24
8.179328999999999
 34
0.0
100
AcDbRotatedDimension
  0
LINE
  5
12E
330
1E
100
AcDbEntity
  8
MO_001_VIEW_PV
  6
C_SOLID_L
100
AcDbLine
 10
14.8
 20
-18.29999899999999
 30
0.0
 11
-5.464995
 21
-29.999999
 31
0.0
  0
POLYLINE
  5
12F
330
1E
100
AcDbEntity
  8
MO_001_VIEW_PV
  6
C_SOLID_L
100
AcDb2dPolyline
 66
     1
 10
0.0
 20
0.0
 30
0.0
 70
     1
  0
VERTEX
  5
20F
330
12F
100
AcDbEntity
  8
MO_001_VIEW_PV
  6
C_SOLID_L
100
AcDbVertex
100
AcDb2dVertex
 10
12.218058
 20
-20.464465
 30
0.0
  0
VERTEX
  5
210
330
12F
100
AcDbEntity
  8
MO_001_VIEW_PV
  6
C_SOLID_L
100
AcDbVertex
100
AcDb2dVertex
 10
14.360059
 20
-18.55399899999999
 30
0.0
  0
VERTEX
  5
211
330
12F
100
AcDbEntity
  8
MO_001_VIEW_PV
  6
C_SOLID_L
100
AcDbVertex
100
AcDb2dVertex
 10
11.634546
 20
-19.453793
 30
0.0
  0
SEQEND
  5
212
330
12F
100
AcDbEntity
  8
MO_001_VIEW_PV
  6
C_SOLID_L
  0
LINE
  5
134
330
1E
100
AcDbEntity
  8
MO_001_VIEW_PV
  6
C_SOLID_L
100
AcDbLine
 10
-7.900000999999999
 20
6.145122999999999
 30
0.0
 11
-18.20851799999999
 21
24.000001
 31
0.0
  0
POLYLINE
  5
135
330
1E
100
AcDbEntity
  8
MO_001_VIEW_PV
  6
C_SOLID_L
100
AcDb2dPolyline
 66
     1
 10
0.0
 20
0.0
 30
0.0
 70
     1
  0
VERTEX
  5
213
330
135
100
AcDbEntity
  8
MO_001_VIEW_PV
  6
C_SOLID_L
100
AcDbVertex
100
AcDb2dVertex
 10
-10.064466
 20
8.727064999999999
 30
0.0
  0
VERTEX
  5
214
330
135
100
AcDbEntity
  8
MO_001_VIEW_PV
  6
C_SOLID_L
100
AcDbVertex
100
AcDb2dVertex
 10
-8.154000999999999
 20
6.585064
 30
0.0
  0
VERTEX
  5
215
330
135
100
AcDbEntity
  8
MO_001_VIEW_PV
  6
C_SOLID_L
100
AcDbVertex
100
AcDb2dVertex
 10
-9.053794999999999
 20
9.310575999999999
 30
0.0
  0
SEQEND
  5
216
330
135
100
AcDbEntity
  8
MO_001_VIEW_PV
  6
C_SOLID_L
  0
DIMENSION
  5
13B
330
1E
100
AcDbEntity
  8
MO_001_VIEW_PV
  6
C_SOLID_M
100
AcDbDimension
  2
*D11
 10
8.047310000000001
 20
36.0
 30
0.0
 11
8.047310000000001
 21
36.0
 31
0.0
  3
STANDARD
100
AcDbAlignedDimension
 13
-7.9
 23
8.179328999999999
 33
0.0
 14
0.0
 24
15.599999
 34
0.0
100
AcDbRotatedDimension
  0
LINE
  5
13C
330
1E
100
AcDbEntity
  8
MO_001_VIEW_PV
  6
C_SOLID_L
100
AcDbLine
 10
73.217873
 20
-24.616902
 30
0.0
 11
67.75623399999999
 21
-44.999998
 31
0.0
  0
POLYLINE
  5
13D
330
1E
100
AcDbEntity
  8
MO_001_VIEW_PV
  6
C_SOLID_L
100
AcDb2dPolyline
 66
     1
 10
0.0
 20
0.0
 30
0.0
 70
     1
  0
VERTEX
  5
217
330
13D
100
AcDbEntity
  8
MO_001_VIEW_PV
  6
C_SOLID_L
100
AcDbVertex
100
AcDb2dVertex
 10
72.922673
 20
-27.973119
 30
0.0
  0
VERTEX
  5
218
330
13D
100
AcDbEntity
  8
MO_001_VIEW_PV
  6
C_SOLID_L
100
AcDbVertex
100
AcDb2dVertex
 10
73.086393
 20
-25.107592
 30
0.0
  0
VERTEX
  5
219
330
13D
100
AcDbEntity
  8
MO_001_VIEW_PV
  6
C_SOLID_L
100
AcDbVertex
100
AcDb2dVertex
 10
71.795415
 20
-27.671071
 30
0.0
  0
SEQEND
  5
21A
330
13D
100
AcDbEntity
  8
MO_001_VIEW_PV
  6
C_SOLID_L
  0
DIMENSION
  5
143
330
1E
100
AcDbEntity
  8
MO_001_VIEW_PV
  6
C_SOLID_M
100
AcDbDimension
  2
*D12
 10
-60.0
 20
24.0
 30
0.0
 11
-60.0
 21
24.0
 31
0.0
  3
STANDARD
100
AcDbAlignedDimension
 13
-44.099998
 23
0.0
 33
0.0
 14
-75.89999399999999
 24
0.0
 34
0.0
100
AcDbRotatedDimension
  0
ENDSEC
  0
SECTION
  2
OBJECTS
  0
DICTIONARY
  5
1A
330
0
100
AcDbDictionary
  3
ACAD_GROUP
350
1B
  3
ACAD_MLINESTYLE
350
1C
  3
ACAD_LAYOUT
350
1D3
  3
ACAD_PLOTSETTINGS
350
1D4
1001
ACAD
1000
TREAT_AS_HARD
1070
     0
  0
DICTIONARY
  5
1D9
330
1E
100
AcDbDictionary
  3
ACAD_LAYOUTSELFREF
350
1DA
  0
DICTIONARY
  5
1DB
330
1F
100
AcDbDictionary
  3
ACAD_LAYOUTSELFREF
350
1DC
  0
DICTIONARY
  5
1B
102
{ACAD_REACTORS
330
1A
102
}
330
1A
100
AcDbDictionary
1001
ACAD
1000
TREAT_AS_HARD
1070
     0
  0
DICTIONARY
  5
1C
102
{ACAD_REACTORS
330
1A
102
}
330
1A
100
AcDbDictionary
  3
STANDARD
350
1D
1001
ACAD
1000
TREAT_AS_HARD
1070
     0
  0
DICTIONARY
  5
1D3
102
{ACAD_REACTORS
330
1A
102
}
330
1A
100
AcDbDictionary
1001
ACAD
1000
TREAT_AS_HARD
1070
     0
  0
DICTIONARY
  5
1D4
102
{ACAD_REACTORS
330
1A
102
}
330
1A
100
AcDbDictionary
1001
ACAD
1000
TREAT_AS_HARD
1070
     0
  0
XRECORD
  5
1DA
102
{ACAD_REACTORS
330
1D9
102
}
330
1D9
100
AcDbXrecord
340
1E
  0
XRECORD
  5
1DC
102
{ACAD_REACTORS
330
1DB
102
}
330
1DB
100
AcDbXrecord
340
1F
  0
MLINESTYLE
  5
1D
102
{ACAD_REACTORS
330
1C
102
}
330
1C
100
AcDbMlineStyle
  2
STANDARD
 70
     0
  3

 62
     0
 51
90.0
 52
90.0
 71
     2
 49
0.5
 62
   256
  6
BYLAYER
 49
-0.5
 62
   256
  6
BYLAYER
  0
ENDSEC
  0
EOF
