  0
SECTION
  2
HEADER
  9
$ACADVER
  1
AC1012
  9
$DWGCODEPAGE
  3
dos932
  9
$INSBASE
 10
0.0
 20
0.0
 30
0.0
  9
$EXTMIN
 10
-81.829935527997
 20
-92.08396793340657
 30
-0.0015258207003583
  9
$EXTMAX
 10
97.13414650827452
 20
22.13008396141333
 30
0.0000000349246037
  9
$LIMMIN
 10
-81.82486
 20
-95.208984
  9
$LIMMAX
 10
84.50273100000002
 20
24.0
  9
$ORTHOMODE
 70
     0
  9
$REGENMODE
 70
     1
  9
$FILLMODE
 70
     1
  9
$QTEXTMODE
 70
     0
  9
$MIRRTEXT
 70
     1
  9
$DRAGMODE
 70
     2
  9
$LTSCALE
 40
1.0
  9
$OSMODE
 70
    37
  9
$ATTMODE
 70
     1
  9
$TEXTSIZE
 40
4.1672
  9
$TRACEWID
 40
0.05
  9
$TEXTSTYLE
  7
STANDARD
  9
$CLAYER
  8
0
  9
$CELTYPE
  6
CONTINUOUS
  9
$CECOLOR
 62
   256
  9
$CELTSCALE
 40
1.0
  9
$DELOBJ
 70
     1
  9
$DISPSILH
 70
     0
  9
$DIMSCALE
 40
1.0
  9
$DIMASZ
 40
0.18
  9
$DIMEXO
 40
0.0625
  9
$DIMDLI
 40
0.38
  9
$DIMRND
 40
0.0
  9
$DIMDLE
 40
0.0
  9
$DIMEXE
 40
0.18
  9
$DIMTP
 40
0.0
  9
$DIMTM
 40
0.0
  9
$DIMTXT
 40
0.18
  9
$DIMCEN
 40
0.09
  9
$DIMTSZ
 40
0.0
  9
$DIMTOL
 70
     0
  9
$DIMLIM
 70
     0
  9
$DIMTIH
 70
     1
  9
$DIMTOH
 70
     1
  9
$DIMSE1
 70
     0
  9
$DIMSE2
 70
     0
  9
$DIMTAD
 70
     0
  9
$DIMZIN
 70
     0
  9
$DIMBLK
  1

  9
$DIMASO
 70
     1
  9
$DIMSHO
 70
     1
  9
$DIMPOST
  1

  9
$DIMAPOST
  1

  9
$DIMALT
 70
     0
  9
$DIMALTD
 70
     2
  9
$DIMALTF
 40
25.4
  9
$DIMLFAC
 40
1.0
  9
$DIMTOFL
 70
     0
  9
$DIMTVP
 40
0.0
  9
$DIMTIX
 70
     0
  9
$DIMSOXD
 70
     0
  9
$DIMSAH
 70
     0
  9
$DIMBLK1
  1

  9
$DIMBLK2
  1

  9
$DIMSTYLE
  2
STANDARD
  9
$DIMCLRD
 70
     0
  9
$DIMCLRE
 70
     0
  9
$DIMCLRT
 70
     0
  9
$DIMTFAC
 40
1.0
  9
$DIMGAP
 40
0.09
  9
$DIMJUST
 70
     0
  9
$DIMSD1
 70
     0
  9
$DIMSD2
 70
     0
  9
$DIMTOLJ
 70
     1
  9
$DIMTZIN
 70
     0
  9
$DIMALTZ
 70
     0
  9
$DIMALTTZ
 70
     0
  9
$DIMFIT
 70
     3
  9
$DIMUPT
 70
     0
  9
$DIMUNIT
 70
     2
  9
$DIMDEC
 70
     4
  9
$DIMTDEC
 70
     4
  9
$DIMALTU
 70
     2
  9
$DIMALTTD
 70
     2
  9
$DIMTXSTY
  7
STANDARD
  9
$DIMAUNIT
 70
     0
  9
$LUNITS
 70
     2
  9
$LUPREC
 70
     6
  9
$SKETCHINC
 40
0.1
  9
$FILLETRAD
 40
0.0
  9
$AUNITS
 70
     0
  9
$AUPREC
 70
     4
  9
$MENU
  1
acad
  9
$ELEVATION
 40
0.0
  9
$PELEVATION
 40
0.0
  9
$THICKNESS
 40
0.0
  9
$LIMCHECK
 70
     0
  9
$BLIPMODE
 70
     0
  9
$CHAMFERA
 40
0.0
  9
$CHAMFERB
 40
0.0
  9
$CHAMFERC
 40
0.0
  9
$CHAMFERD
 40
0.0
  9
$SKPOLY
 70
     0
  9
$TDCREATE
 40
2376122.594768819
  9
$TDUPDATE
 40
2451663.756264236
  9
$TDINDWG
 40
0.0010546296
  9
$TDUSRTIMER
 40
0.0010546296
  9
$USRTIMER
 70
     1
  9
$ANGBASE
 50
0.0
  9
$ANGDIR
 70
     0
  9
$PDMODE
 70
     0
  9
$PDSIZE
 40
0.0
  9
$PLINEWID
 40
0.0
  9
$COORDS
 70
     1
  9
$SPLFRAME
 70
     0
  9
$SPLINETYPE
 70
     6
  9
$SPLINESEGS
 70
     8
  9
$ATTDIA
 70
     0
  9
$ATTREQ
 70
     1
  9
$HANDLING
 70
 10241
  9
$HANDSEED
  5
245
  9
$SURFTAB1
 70
     6
  9
$SURFTAB2
 70
     6
  9
$SURFTYPE
 70
     6
  9
$SURFU
 70
     6
  9
$SURFV
 70
     6
  9
$UCSNAME
  2
MO_001_VIEW_PV_P
  9
$UCSORG
 10
0.0
 20
0.0
 30
0.0
  9
$UCSXDIR
 10
1.0
 20
0.0
 30
0.0
  9
$UCSYDIR
 10
-0.0000000002051034
 20
1.0
 30
0.0
  9
$PUCSNAME
  2

  9
$PUCSORG
 10
0.0
 20
0.0
 30
0.0
  9
$PUCSXDIR
 10
1.0
 20
0.0
 30
0.0
  9
$PUCSYDIR
 10
0.0
 20
1.0
 30
0.0
  9
$USERI1
 70
     0
  9
$USERI2
 70
     0
  9
$USERI3
 70
     0
  9
$USERI4
 70
     0
  9
$USERI5
 70
     0
  9
$USERR1
 40
0.0
  9
$USERR2
 40
0.0
  9
$USERR3
 40
0.0
  9
$USERR4
 40
0.0
  9
$USERR5
 40
0.0
  9
$WORLDVIEW
 70
     1
  9
$SHADEDGE
 70
     3
  9
$SHADEDIF
 70
    70
  9
$TILEMODE
 70
     1
  9
$MAXACTVP
 70
    16
  9
$PINSBASE
 10
0.0
 20
0.0
 30
0.0
  9
$PLIMCHECK
 70
     0
  9
$PEXTMIN
 10
-81.82486
 20
-95.208984
 30
1.000000000000000E+20
  9
$PEXTMAX
 10
84.50273100000002
 20
24.0
 30
-1.000000000000000E+20
  9
$PLIMMIN
 10
0.0
 20
0.0
  9
$PLIMMAX
 10
12.0
 20
9.0
  9
$UNITMODE
 70
     0
  9
$VISRETAIN
 70
     0
  9
$PLINEGEN
 70
     0
  9
$PSLTSCALE
 70
     1
  9
$TREEDEPTH
 70
  3020
  9
$PICKSTYLE
 70
     1
  9
$CMLSTYLE
  2
STANDARD
  9
$CMLJUST
 70
     0
  9
$CMLSCALE
 40
1.0
  9
$SAVEIMAGES
 70
     1
  0
ENDSEC
  0
SECTION
  2
CLASSES
  0
CLASS
  1
ACDBDICTIONARYWDFLT
  2
AcDbDictionaryWithDefault
  3
AutoCAD 2000
 90
    32768
280
     0
281
     0
  0
CLASS
  1
ACDBPLACEHOLDER
  2
AcDbPlaceHolder
  3
AutoCAD 2000
 90
    32768
280
     0
281
     0
  0
CLASS
  1
LAYOUT
  2
AcDbLayout
  3
AutoCAD 2000
 90
    32768
280
     0
281
     0
  0
CLASS
  1
LONG_TRANSACTION
  2
AcDbLongTransaction
  3
AutoCAD 2000
 90
    32768
280
     0
281
     0
  0
CLASS
  1
LWPOLYLINE
  2
AcDbPolyline
  3
AutoCAD 2000
 90
    32768
280
     0
281
     1
  0
CLASS
  1
HATCH
  2
AcDbHatch
  3
AutoCAD 2000
 90
    32768
280
     0
281
     1
  0
CLASS
  1
XRECORD
  2
AcDbXrecord
  3
AutoCAD 2000
 90
    32768
280
     0
281
     0
  0
ENDSEC
  0
SECTION
  2
TABLES
  0
TABLE
  2
VPORT
  5
7
330
0
100
AcDbSymbolTable
 70
     2
  0
VPORT
  5
234
330
7
100
AcDbSymbolTableRecord
100
AcDbViewportTableRecord
  2
*ACTIVE
 70
     0
 10
0.0
 20
0.0
 11
1.0
 21
1.0
 12
-16.77719537181741
 22
-25.52471498287657
 13
0.0
 23
0.0
 14
6.349999999999999
 24
6.349999999999999
 15
6.349999999999999
 25
6.349999999999999
 16
0.0
 26
0.0
 36
1.0
 17
0.0
 27
0.0
 37
0.0
 40
165.8888733599207
 41
1.691964285714286
 42
50.0
 43
0.0
 44
0.0
 50
0.0
 51
0.0
 71
     0
 72
   100
 73
     1
 74
     1
 75
     0
 76
     0
 77
     0
 78
     0
  0
ENDTAB
  0
TABLE
  2
LTYPE
  5
4
330
0
100
AcDbSymbolTable
 70
    37
  0
LTYPE
  5
12
330
4
100
AcDbSymbolTableRecord
100
AcDbLinetypeTableRecord
  2
BYBLOCK
 70
     0
  3

 72
    65
 73
     0
 40
0.0
  0
LTYPE
  5
13
330
4
100
AcDbSymbolTableRecord
100
AcDbLinetypeTableRecord
  2
BYLAYER
 70
     0
  3

 72
    65
 73
     0
 40
0.0
  0
LTYPE
  5
14
330
4
100
AcDbSymbolTableRecord
100
AcDbLinetypeTableRecord
  2
CONTINUOUS
 70
     0
  3
DXF Default line type
 72
    65
 73
     0
 40
0.0
  0
LTYPE
  5
20
330
4
100
AcDbSymbolTableRecord
100
AcDbLinetypeTableRecord
  2
DASHED
 70
     0
  3
DXF Dashed
 72
    65
 73
     2
 40
0.75
 49
0.5
 74
     0
 49
-0.25
 74
     0
  0
LTYPE
  5
21
330
4
100
AcDbSymbolTableRecord
100
AcDbLinetypeTableRecord
  2
HIDDEN
 70
     0
  3
DXF Hidden
 72
    65
 73
     2
 40
0.375
 49
0.25
 74
     0
 49
-0.125
 74
     0
  0
LTYPE
  5
22
330
4
100
AcDbSymbolTableRecord
100
AcDbLinetypeTableRecord
  2
CENTER
 70
     0
  3
DXF Center
 72
    65
 73
     4
 40
2.0
 49
1.25
 74
     0
 49
-0.25
 74
     0
 49
0.25
 74
     0
 49
-0.25
 74
     0
  0
LTYPE
  5
23
330
4
100
AcDbSymbolTableRecord
100
AcDbLinetypeTableRecord
  2
PHANTOM
 70
     0
  3
DXF Phantom
 72
    65
 73
     6
 40
2.5
 49
1.25
 74
     0
 49
-0.25
 74
     0
 49
0.25
 74
     0
 49
-0.25
 74
     0
 49
0.25
 74
     0
 49
-0.25
 74
     0
  0
LTYPE
  5
24
330
4
100
AcDbSymbolTableRecord
100
AcDbLinetypeTableRecord
  2
DOT
 70
     0
  3
DXF DOT
 72
    65
 73
     2
 40
0.25
 49
0.0
 74
     0
 49
-0.25
 74
     0
  0
LTYPE
  5
25
330
4
100
AcDbSymbolTableRecord
100
AcDbLinetypeTableRecord
  2
DASHDOT
 70
     0
  3
DXF Dash Dot
 72
    65
 73
     4
 40
1.0
 49
0.5
 74
     0
 49
-0.25
 74
     0
 49
0.0
 74
     0
 49
-0.25
 74
     0
  0
LTYPE
  5
26
330
4
100
AcDbSymbolTableRecord
100
AcDbLinetypeTableRecord
  2
BORDER
 70
     0
  3
DXF Border
 72
    65
 73
     6
 40
1.75
 49
0.5
 74
     0
 49
-0.25
 74
     0
 49
0.5
 74
     0
 49
-0.25
 74
     0
 49
0.0
 74
     0
 49
-0.25
 74
     0
  0
LTYPE
  5
27
330
4
100
AcDbSymbolTableRecord
100
AcDbLinetypeTableRecord
  2
DIVIDE
 70
     0
  3
DXF Divide
 72
    65
 73
     6
 40
1.25
 49
0.5
 74
     0
 49
-0.25
 74
     0
 49
0.0
 74
     0
 49
-0.25
 74
     0
 49
0.0
 74
     0
 49
-0.25
 74
     0
  0
LTYPE
  5
28
330
4
100
AcDbSymbolTableRecord
100
AcDbLinetypeTableRecord
  2
C_SOLID_L
 70
     0
  3
CADAM Solid Light
 72
    65
 73
     0
 40
0.0
  0
LTYPE
  5
29
330
4
100
AcDbSymbolTableRecord
100
AcDbLinetypeTableRecord
  2
C_SOLID_M
 70
     0
  3
CADAM Solid Medium
 72
    65
 73
     0
 40
0.0
  0
LTYPE
  5
2A
330
4
100
AcDbSymbolTableRecord
100
AcDbLinetypeTableRecord
  2
C_SOLID_H
 70
     0
  3
CADAM Solid Heavy
 72
    65
 73
     0
 40
0.0
  0
LTYPE
  5
2B
330
4
100
AcDbSymbolTableRecord
100
AcDbLinetypeTableRecord
  2
C_DASHED_L
 70
     0
  3
CADAM Dashed Light
 72
    65
 73
     2
 40
0.375
 49
0.25
 74
     0
 49
-0.125
 74
     0
  0
LTYPE
  5
2C
330
4
100
AcDbSymbolTableRecord
100
AcDbLinetypeTableRecord
  2
C_DASHED_M
 70
     0
  3
CADAM Dashed Medium
 72
    65
 73
     2
 40
0.5
 49
0.375
 74
     0
 49
-0.125
 74
     0
  0
LTYPE
  5
2D
330
4
100
AcDbSymbolTableRecord
100
AcDbLinetypeTableRecord
  2
C_CENTER_L
 70
     0
  3
CADAM Center Light
 72
    65
 73
     4
 40
2.0
 49
1.25
 74
     0
 49
-0.25
 74
     0
 49
0.25
 74
     0
 49
-0.25
 74
     0
  0
LTYPE
  5
2E
330
4
100
AcDbSymbolTableRecord
100
AcDbLinetypeTableRecord
  2
C_PHANTOM_L
 70
     0
  3
CADAM Phantom Light
 72
    65
 73
     6
 40
2.5
 49
1.25
 74
     0
 49
-0.25
 74
     0
 49
0.25
 74
     0
 49
-0.25
 74
     0
 49
0.25
 74
     0
 49
-0.25
 74
     0
  0
LTYPE
  5
2F
330
4
100
AcDbSymbolTableRecord
100
AcDbLinetypeTableRecord
  2
C_BREAK_M
 70
     0
  3
CADAM Break Medium
 72
    65
 73
     4
 40
1.0
 49
0.5
 74
     0
 49
-0.25
 74
     0
 49
0.0
 74
     0
 49
-0.25
 74
     0
  0
LTYPE
  5
30
330
4
100
AcDbSymbolTableRecord
100
AcDbLinetypeTableRecord
  2
C_NC
 70
     0
  3
CADAM NC
 72
    65
 73
     0
 40
0.0
  0
LTYPE
  5
31
330
4
100
AcDbSymbolTableRecord
100
AcDbLinetypeTableRecord
  2
DSH1
 70
     0
  3
CADAM Style2 Type 1 Dashed Line
 72
    65
 73
     2
 40
0.075
 49
0.04
 74
     0
 49
-0.035
 74
     0
  0
LTYPE
  5
32
330
4
100
AcDbSymbolTableRecord
100
AcDbLinetypeTableRecord
  2
DSH2
 70
     0
  3
CADAM Style2 Type 2 Dashed Line
 72
    65
 73
     2
 40
0.15
 49
0.11
 74
     0
 49
-0.04
 74
     0
  0
LTYPE
  5
33
330
4
100
AcDbSymbolTableRecord
100
AcDbLinetypeTableRecord
  2
DSH3
 70
     0
  3
CADAM Style2 Type 3 Dashed Line
 72
    65
 73
     2
 40
0.2
 49
0.15
 74
     0
 49
-0.05
 74
     0
  0
LTYPE
  5
34
330
4
100
AcDbSymbolTableRecord
100
AcDbLinetypeTableRecord
  2
DSH4
 70
     0
  3
CADAM Style2 Type 4 Dashed Line
 72
    65
 73
     2
 40
0.36
 49
0.28
 74
     0
 49
-0.08
 74
     0
  0
LTYPE
  5
35
330
4
100
AcDbSymbolTableRecord
100
AcDbLinetypeTableRecord
  2
DSH5
 70
     0
  3
CADAM Style2 Type 5 Dashed Line
 72
    65
 73
     2
 40
0.47
 49
0.39
 74
     0
 49
-0.08
 74
     0
  0
LTYPE
  5
36
330
4
100
AcDbSymbolTableRecord
100
AcDbLinetypeTableRecord
  2
DSH6
 70
     0
  3
CADAM Style2 Type 6 Dashed Line
 72
    65
 73
     2
 40
0.9
 49
0.8100000000000001
 74
     0
 49
-0.09
 74
     0
  0
LTYPE
  5
37
330
4
100
AcDbSymbolTableRecord
100
AcDbLinetypeTableRecord
  2
PL1
 70
     0
  3
Style 2 Type 1 Phantom Line
 72
    65
 73
     6
 40
1.0
 49
0.6
 74
     0
 49
-0.08
 74
     0
 49
0.08
 74
     0
 49
-0.08
 74
     0
 49
0.08
 74
     0
 49
-0.08
 74
     0
  0
LTYPE
  5
38
330
4
100
AcDbSymbolTableRecord
100
AcDbLinetypeTableRecord
  2
PL2
 70
     0
  3
Style 2 Type 2 Phantom Line
 72
    65
 73
     6
 40
1.08
 49
0.6
 74
     0
 49
-0.08
 74
     0
 49
0.12
 74
     0
 49
-0.08
 74
     0
 49
0.12
 74
     0
 49
-0.08
 74
     0
  0
LTYPE
  5
39
330
4
100
AcDbSymbolTableRecord
100
AcDbLinetypeTableRecord
  2
PL3
 70
     0
  3
Style 2 Type 3 Phantom Line
 72
    65
 73
     6
 40
2.0
 49
1.439999999999999
 74
     0
 49
-0.08
 74
     0
 49
0.16
 74
     0
 49
-0.08
 74
     0
 49
0.16
 74
     0
 49
-0.08
 74
     0
  0
LTYPE
  5
3A
330
4
100
AcDbSymbolTableRecord
100
AcDbLinetypeTableRecord
  2
CL1
 70
     0
  3
CADAM Style 2 Type 1 Center Line
 72
    65
 73
     4
 40
0.7
 49
0.45
 74
     0
 49
-0.06
 74
     0
 49
0.13
 74
     0
 49
-0.06
 74
     0
  0
LTYPE
  5
3B
330
4
100
AcDbSymbolTableRecord
100
AcDbLinetypeTableRecord
  2
CL2
 70
     0
  3
CADAM Style 2 Type 2 Center Line
 72
    65
 73
     4
 40
1.199999999999999
 49
1.01
 74
     0
 49
-0.06
 74
     0
 49
0.11
 74
     0
 49
-0.06
 74
     0
  0
LTYPE
  5
3C
330
4
100
AcDbSymbolTableRecord
100
AcDbLinetypeTableRecord
  2
CL3
 70
     0
  3
CADAM Style 2 Type 3 Center Line
 72
    65
 73
     4
 40
1.199999999999999
 49
0.98
 74
     0
 49
-0.06
 74
     0
 49
0.1
 74
     0
 49
-0.06
 74
     0
  0
LTYPE
  5
3D
330
4
100
AcDbSymbolTableRecord
100
AcDbLinetypeTableRecord
  2
CL4
 70
     0
  3
CADAM Style 2 Type 4 Center Line
 72
    65
 73
     4
 40
2.2
 49
1.929999999999999
 74
     0
 49
-0.07
 74
     0
 49
0.13
 74
     0
 49
-0.07
 74
     0
  0
LTYPE
  5
3E
330
4
100
AcDbSymbolTableRecord
100
AcDbLinetypeTableRecord
  2
CL5
 70
     0
  3
CADAM Style 2 Type 5 Center Line
 72
    65
 73
     4
 40
2.2
 49
1.879999999999999
 74
     0
 49
-0.07
 74
     0
 49
0.18
 74
     0
 49
-0.07
 74
     0
  0
LTYPE
  5
3F
330
4
100
AcDbSymbolTableRecord
100
AcDbLinetypeTableRecord
  2
SBK1
 70
     0
  3
CADAM Style 2 Type 1 SetBack Line
 72
    65
 73
     8
 40
2.7
 49
0.1
 74
     0
 49
-0.08
 74
     0
 49
0.1
 74
     0
 49
-0.8
 74
     0
 49
0.0
 74
     0
 49
0.0
 74
     0
 49
0.0
 74
     0
 49
0.0
 74
     0
  0
LTYPE
  5
40
330
4
100
AcDbSymbolTableRecord
100
AcDbLinetypeTableRecord
  2
SBK2
 70
     0
  3
CADAM Style 2 Type 2 SetBack Line
 72
    65
 73
     8
 40
3.709999999999999
 49
0.13
 74
     0
 49
-0.08
 74
     0
 49
0.13
 74
     0
 49
-0.8
 74
     0
 49
0.0
 74
     0
 49
0.0
 74
     0
 49
0.0
 74
     0
 49
0.0
 74
     0
  0
LTYPE
  5
41
330
4
100
AcDbSymbolTableRecord
100
AcDbLinetypeTableRecord
  2
STCH
 70
     0
  3
CADAM Style2 Stitch Line
 72
    65
 73
     2
 40
0.25
 49
0.0
 74
     0
 49
-0.25
 74
     0
  0
LTYPE
  5
42
330
4
100
AcDbSymbolTableRecord
100
AcDbLinetypeTableRecord
  2
MTCH
 70
     0
  3
CADAM Style2 Match Line
 72
    65
 73
     6
 40
2.0
 49
1.439999999999999
 74
     0
 49
-0.8
 74
     0
 49
0.16
 74
     0
 49
-0.08
 74
     0
 49
0.16
 74
     0
 49
-0.08
 74
     0
  0
LTYPE
  5
43
330
4
100
AcDbSymbolTableRecord
100
AcDbLinetypeTableRecord
  2
SLD
 70
     0
  3
CADAM Solid_EXT2
 72
    65
 73
     0
 40
0.0
  0
ENDTAB
  0
TABLE
  2
LAYER
  5
2
330
0
100
AcDbSymbolTable
 70
     7
  0
LAYER
  5
15
330
2
100
AcDbSymbolTableRecord
100
AcDbLayerTableRecord
  2
0
 70
     0
 62
     7
  6
CONTINUOUS
  0
LAYER
  5
44
330
2
100
AcDbSymbolTableRecord
100
AcDbLayerTableRecord
  2
MO_001_NOSHOW
 70
     1
 62
     7
  6
CONTINUOUS
  0
LAYER
  5
45
330
2
100
AcDbSymbolTableRecord
100
AcDbLayerTableRecord
  2
MO_001_VIEW_PV
 70
     0
 62
     7
  6
CONTINUOUS
  0
LAYER
  5
46
330
2
100
AcDbSymbolTableRecord
100
AcDbLayerTableRecord
  2
OVERLAY_MAP
 70
     1
 62
     7
  6
CONTINUOUS
  0
LAYER
  5
47
330
2
100
AcDbSymbolTableRecord
100
AcDbLayerTableRecord
  2
DITTOS
 70
     0
 62
     7
  6
CONTINUOUS
  0
LAYER
  5
48
330
2
100
AcDbSymbolTableRecord
100
AcDbLayerTableRecord
  2
SYMBOLS
 70
     0
 62
     7
  6
CONTINUOUS
  0
LAYER
  5
49
330
2
100
AcDbSymbolTableRecord
100
AcDbLayerTableRecord
  2
SETS
 70
     0
 62
     7
  6
CONTINUOUS
  0
ENDTAB
  0
TABLE
  2
STYLE
  5
3
330
0
100
AcDbSymbolTable
 70
     1
  0
STYLE
  5
18
330
3
100
AcDbSymbolTableRecord
100
AcDbTextStyleTableRecord
  2
STANDARD
 70
     0
 40
4.1672
 41
1.0
 50
0.0
 71
     0
 42
4.1672
  3
monotxt
  4
BIGFONT
  0
ENDTAB
  0
TABLE
  2
VIEW
  5
5
330
0
100
AcDbSymbolTable
 70
     0
  0
ENDTAB
  0
TABLE
  2
UCS
  5
6
330
0
100
AcDbSymbolTable
 70
     1
  0
UCS
  5
4A
330
6
100
AcDbSymbolTableRecord
100
AcDbUCSTableRecord
  2
MO_001_VIEW_PV_P
 70
     0
 10
0.0
 20
0.0
 30
0.0
 11
1.0
 21
0.0
 31
0.0
 12
-0.0000000002051034
 22
1.0
 32
0.0
  0
ENDTAB
  0
TABLE
  2
APPID
  5
8
330
0
100
AcDbSymbolTable
 70
     1
  0
APPID
  5
17
330
8
100
AcDbSymbolTableRecord
100
AcDbRegAppTableRecord
  2
ACAD
 70
     0
  0
ENDTAB
  0
TABLE
  2
DIMSTYLE
  5
9
330
0
100
AcDbSymbolTable
 70
     1
  0
DIMSTYLE
105
19
102
{ACAD_REACTORS
330
15D
330
15F
330
161
330
163
330
165
330
167
330
169
330
16B
330
16D
330
16F
330
171
330
173
330
175
330
177
102
}
330
9
100
AcDbSymbolTableRecord
100
AcDbDimStyleTableRecord
  2
STANDARD
 70
     0
  3

  4

  5

  6

  7

 40
1.0
 41
0.18
 42
0.0625
 43
0.38
 44
0.18
 45
0.0
 46
0.0
 47
0.0
 48
0.0
140
0.18
141
0.09
142
0.0
143
25.4
144
1.0
145
0.0
146
1.0
147
0.09
 71
     0
 72
     0
 73
     1
 74
     1
 75
     0
 76
     0
 77
     0
 78
     0
170
     0
171
     2
172
     0
173
     0
174
     0
175
     0
176
     0
177
     0
178
     0
270
     2
271
     4
272
     4
273
     2
274
     2
340
18
275
     0
280
     0
281
     0
282
     0
283
     1
284
     0
285
     0
286
     0
287
     3
288
     0
  0
ENDTAB
  0
TABLE
  2
BLOCK_RECORD
  5
C
330
0
100
AcDbSymbolTable
 70
    14
  0
BLOCK_RECORD
  5
1E
102
{ACAD_XDICTIONARY
360
235
102
}
330
C
100
AcDbSymbolTableRecord
100
AcDbBlockTableRecord
  2
*MODEL_SPACE
  0
BLOCK_RECORD
  5
1F
102
{ACAD_XDICTIONARY
360
237
102
}
330
C
100
AcDbSymbolTableRecord
100
AcDbBlockTableRecord
  2
*PAPER_SPACE
  0
BLOCK_RECORD
  5
15C
330
C
100
AcDbSymbolTableRecord
100
AcDbBlockTableRecord
  2
*D0
  0
BLOCK_RECORD
  5
15E
330
C
100
AcDbSymbolTableRecord
100
AcDbBlockTableRecord
  2
*D1
  0
BLOCK_RECORD
  5
160
330
C
100
AcDbSymbolTableRecord
100
AcDbBlockTableRecord
  2
*D2
  0
BLOCK_RECORD
  5
162
330
C
100
AcDbSymbolTableRecord
100
AcDbBlockTableRecord
  2
*D3
  0
BLOCK_RECORD
  5
164
330
C
100
AcDbSymbolTableRecord
100
AcDbBlockTableRecord
  2
*D4
  0
BLOCK_RECORD
  5
166
330
C
100
AcDbSymbolTableRecord
100
AcDbBlockTableRecord
  2
*D5
  0
BLOCK_RECORD
  5
168
330
C
100
AcDbSymbolTableRecord
100
AcDbBlockTableRecord
  2
*D6
  0
BLOCK_RECORD
  5
16A
330
C
100
AcDbSymbolTableRecord
100
AcDbBlockTableRecord
  2
*D7
  0
BLOCK_RECORD
  5
16C
330
C
100
AcDbSymbolTableRecord
100
AcDbBlockTableRecord
  2
*D8
  0
BLOCK_RECORD
  5
16E
330
C
100
AcDbSymbolTableRecord
100
AcDbBlockTableRecord
  2
*D9
  0
BLOCK_RECORD
  5
170
330
C
100
AcDbSymbolTableRecord
100
AcDbBlockTableRecord
  2
*D10
  0
BLOCK_RECORD
  5
172
330
C
100
AcDbSymbolTableRecord
100
AcDbBlockTableRecord
  2
*D11
  0
BLOCK_RECORD
  5
174
330
C
100
AcDbSymbolTableRecord
100
AcDbBlockTableRecord
  2
*D12
  0
BLOCK_RECORD
  5
176
330
C
100
AcDbSymbolTableRecord
100
AcDbBlockTableRecord
  2
*D13
  0
ENDTAB
  0
ENDSEC
  0
SECTION
  2
BLOCKS
  0
BLOCK
  5
E
330
1E
100
AcDbEntity
  8
0
100
AcDbBlockBegin
  2
*MODEL_SPACE
 70
     0
 10
0.0
 20
0.0
 30
0.0
  3
*MODEL_SPACE
  1

  0
ENDBLK
  5
F
330
1E
100
AcDbEntity
  8
0
100
AcDbBlockEnd
  0
BLOCK
  5
10
330
1F
100
AcDbEntity
 67
     1
  8
0
100
AcDbBlockBegin
  2
*PAPER_SPACE
 70
     0
 10
0.0
 20
0.0
 30
0.0
  3
*PAPER_SPACE
  1

  0
ENDBLK
  5
11
330
1F
100
AcDbEntity
 67
     1
  8
0
100
AcDbBlockEnd
  0
BLOCK
  5
18A
330
15C
100
AcDbEntity
  8
0
100
AcDbBlockBegin
  2
*D0
 70
     1
 10
0.0
 20
0.0
 30
0.0
  3
*D0
  1

  0
TEXT
  5
18B
330
15C
100
AcDbEntity
  8
MO_001_VIEW_PV
  6
BYBLOCK
100
AcDbText
 10
-11.785714
 20
20.625
 30
0.0
 40
1.5
  1
%%P0.5
100
AcDbText
  0
TEXT
  5
18C
330
15C
100
AcDbEntity
  8
MO_001_VIEW_PV
  6
BYBLOCK
100
AcDbText
 10
-17.571429
 20
18.75
 30
0.0
 40
3.0
  1
24
100
AcDbText
  0
LINE
  5
18D
330
15C
100
AcDbEntity
  8
MO_001_VIEW_PV
  6
BYBLOCK
100
AcDbLine
 10
-24.0
 20
18.0
 30
0.0
 11
0.0
 21
18.0
 31
0.0
  0
SOLID
  5
18E
330
15C
100
AcDbEntity
  8
MO_001_VIEW_PV
  6
BYBLOCK
100
AcDbTrace
 10
-20.68173999999999
 20
18.58351199999999
 30
0.0
 11
-23.49199999999999
 21
18.0
 31
0.0
 12
-20.68173999999999
 22
17.416488
 32
0.0
 13
-20.68173999999999
 23
17.416488
 33
0.0
  0
SOLID
  5
18F
330
15C
100
AcDbEntity
  8
MO_001_VIEW_PV
  6
BYBLOCK
100
AcDbTrace
 10
-3.318259999999999
 20
17.416488
 30
0.0
 11
-0.508
 21
18.0
 31
0.0
 12
-3.318259999999999
 22
18.58351199999999
 32
0.0
 13
-3.318259999999999
 23
18.58351199999999
 33
0.0
  0
LINE
  5
190
330
15C
100
AcDbEntity
  8
MO_001_VIEW_PV
  6
BYBLOCK
100
AcDbLine
 10
-24.0
 20
6.0
 30
0.0
 11
-24.0
 21
20.285999
 31
0.0
  0
LINE
  5
191
330
15C
100
AcDbEntity
  8
MO_001_VIEW_PV
  6
BYBLOCK
100
AcDbLine
 10
0.0
 20
5.0
 30
0.0
 11
0.0
 21
20.285999
 31
0.0
  0
ENDBLK
  5
192
330
15C
100
AcDbEntity
  8
0
100
AcDbBlockEnd
  0
BLOCK
  5
193
330
15E
100
AcDbEntity
  8
0
100
AcDbBlockBegin
  2
*D1
 70
     1
 10
0.0
 20
0.0
 30
0.0
  3
*D1
  1

  0
TEXT
  5
194
330
15E
100
AcDbEntity
  8
MO_001_VIEW_PV
  6
BYBLOCK
100
AcDbText
 10
14.345916
 20
20.625
 30
0.0
 40
1.5
  1
%%P0.3
100
AcDbText
  0
TEXT
  5
195
330
15E
100
AcDbEntity
  8
MO_001_VIEW_PV
  6
BYBLOCK
100
AcDbText
 10
11.56020099999999
 20
18.75
 30
0.0
 40
3.0
  1
7
100
AcDbText
  0
LINE
  5
196
330
15E
100
AcDbEntity
  8
MO_001_VIEW_PV
  6
BYBLOCK
100
AcDbLine
 10
7.0
 20
18.0
 30
0.0
 11
0.0
 21
18.0
 31
0.0
  0
LINE
  5
197
330
15E
100
AcDbEntity
  8
MO_001_VIEW_PV
  6
BYBLOCK
100
AcDbLine
 10
7.0
 20
18.0
 30
0.0
 11
13.34999999999999
 21
18.0
 31
0.0
  0
LINE
  5
198
330
15E
100
AcDbEntity
  8
MO_001_VIEW_PV
  6
BYBLOCK
100
AcDbLine
 10
0.0
 20
18.0
 30
0.0
 11
-6.349999999999999
 21
18.0
 31
0.0
  0
SOLID
  5
199
330
15E
100
AcDbEntity
  8
MO_001_VIEW_PV
  6
BYBLOCK
100
AcDbTrace
 10
10.31826
 20
18.58351199999999
 30
0.0
 11
7.507999999999999
 21
18.0
 31
0.0
 12
10.31826
 22
17.416488
 32
0.0
 13
10.31826
 23
17.416488
 33
0.0
  0
SOLID
  5
19A
330
15E
100
AcDbEntity
  8
MO_001_VIEW_PV
  6
BYBLOCK
100
AcDbTrace
 10
-3.318259999999999
 20
17.416488
 30
0.0
 11
-0.508
 21
18.0
 31
0.0
 12
-3.318259999999999
 22
18.58351199999999
 32
0.0
 13
-3.318259999999999
 23
18.58351199999999
 33
0.0
  0
LINE
  5
19B
330
15E
100
AcDbEntity
  8
MO_001_VIEW_PV
  6
BYBLOCK
100
AcDbLine
 10
7.0
 20
0.8000010000000001
 30
0.0
 11
7.0
 21
20.285999
 31
0.0
  0
LINE
  5
19C
330
15E
100
AcDbEntity
  8
MO_001_VIEW_PV
  6
BYBLOCK
100
AcDbLine
 10
0.0
 20
5.0
 30
0.0
 11
0.0
 21
20.285999
 31
0.0
  0
LINE
  5
19D
330
15E
100
AcDbEntity
  8
MO_001_VIEW_PV
  6
BYBLOCK
100
AcDbLine
 10
20.667345
 20
18.0
 30
0.0
 11
7.0
 21
18.0
 31
0.0
  0
ENDBLK
  5
19E
330
15E
100
AcDbEntity
  8
0
100
AcDbBlockEnd
  0
BLOCK
  5
19F
330
160
100
AcDbEntity
  8
0
100
AcDbBlockBegin
  2
*D2
 70
     1
 10
0.0
 20
0.0
 30
0.0
  3
*D2
  1

  0
TEXT
  5
1A0
330
160
100
AcDbEntity
  8
MO_001_VIEW_PV
  6
BYBLOCK
100
AcDbText
 10
-37.107824
 20
20.625
 30
0.0
 40
1.5
  1
%%P0.3
100
AcDbText
  0
TEXT
  5
1A1
330
160
100
AcDbEntity
  8
MO_001_VIEW_PV
  6
BYBLOCK
100
AcDbText
 10
-39.89353799999999
 20
18.75
 30
0.0
 40
3.0
  1
5
100
AcDbText
  0
LINE
  5
1A2
330
160
100
AcDbEntity
  8
MO_001_VIEW_PV
  6
BYBLOCK
100
AcDbLine
 10
-28.99999799999999
 20
18.0
 30
0.0
 11
-24.0
 21
18.0
 31
0.0
  0
LINE
  5
1A3
330
160
100
AcDbEntity
  8
MO_001_VIEW_PV
  6
BYBLOCK
100
AcDbLine
 10
-28.99999799999999
 20
18.0
 30
0.0
 11
-35.349998
 21
18.0
 31
0.0
  0
LINE
  5
1A4
330
160
100
AcDbEntity
  8
MO_001_VIEW_PV
  6
BYBLOCK
100
AcDbLine
 10
-24.0
 20
18.0
 30
0.0
 11
-17.64999999999999
 21
18.0
 31
0.0
  0
SOLID
  5
1A5
330
160
100
AcDbEntity
  8
MO_001_VIEW_PV
  6
BYBLOCK
100
AcDbTrace
 10
-32.318258
 20
17.416488
 30
0.0
 11
-29.507998
 21
18.0
 31
0.0
 12
-32.318258
 22
18.58351199999999
 32
0.0
 13
-32.318258
 23
18.58351199999999
 33
0.0
  0
SOLID
  5
1A6
330
160
100
AcDbEntity
  8
MO_001_VIEW_PV
  6
BYBLOCK
100
AcDbTrace
 10
-20.68173999999999
 20
18.58351199999999
 30
0.0
 11
-23.49199999999999
 21
18.0
 31
0.0
 12
-20.68173999999999
 22
17.416488
 32
0.0
 13
-20.68173999999999
 23
17.416488
 33
0.0
  0
LINE
  5
1A7
330
160
100
AcDbEntity
  8
MO_001_VIEW_PV
  6
BYBLOCK
100
AcDbLine
 10
-28.99999799999999
 20
0.8000010000000001
 30
0.0
 11
-28.99999799999999
 21
20.285999
 31
0.0
  0
LINE
  5
1A8
330
160
100
AcDbEntity
  8
MO_001_VIEW_PV
  6
BYBLOCK
100
AcDbLine
 10
-24.0
 20
6.0
 30
0.0
 11
-24.0
 21
20.285999
 31
0.0
  0
LINE
  5
1A9
330
160
100
AcDbEntity
  8
MO_001_VIEW_PV
  6
BYBLOCK
100
AcDbLine
 10
-40.85782199999999
 20
18.0
 30
0.0
 11
-28.99999799999999
 21
18.0
 31
0.0
  0
ENDBLK
  5
1AA
330
160
100
AcDbEntity
  8
0
100
AcDbBlockEnd
  0
BLOCK
  5
1AB
330
162
100
AcDbEntity
  8
0
100
AcDbBlockBegin
  2
*D3
 70
     1
 10
0.0
 20
0.0
 30
0.0
  3
*D3
  1

  0
TEXT
  5
1AC
330
162
100
AcDbEntity
  8
MO_001_VIEW_PV
  6
BYBLOCK
100
AcDbText
 10
-43.34240499999999
 20
14.625
 30
0.0
 40
1.5
  1
%%P0.2
100
AcDbText
  0
TEXT
  5
1AD
330
162
100
AcDbEntity
  8
MO_001_VIEW_PV
  6
BYBLOCK
100
AcDbText
 10
-46.12811899999999
 20
12.75
 30
0.0
 40
3.0
  1
2
100
AcDbText
  0
LINE
  5
1AE
330
162
100
AcDbEntity
  8
MO_001_VIEW_PV
  6
BYBLOCK
100
AcDbLine
 10
-30.99999799999999
 20
12.0
 30
0.0
 11
-28.99999799999999
 21
12.0
 31
0.0
  0
LINE
  5
1AF
330
162
100
AcDbEntity
  8
MO_001_VIEW_PV
  6
BYBLOCK
100
AcDbLine
 10
-30.99999799999999
 20
12.0
 30
0.0
 11
-37.349998
 21
12.0
 31
0.0
  0
LINE
  5
1B0
330
162
100
AcDbEntity
  8
MO_001_VIEW_PV
  6
BYBLOCK
100
AcDbLine
 10
-28.99999799999999
 20
12.0
 30
0.0
 11
-22.649998
 21
12.0
 31
0.0
  0
SOLID
  5
1B1
330
162
100
AcDbEntity
  8
MO_001_VIEW_PV
  6
BYBLOCK
100
AcDbTrace
 10
-34.318258
 20
11.416488
 30
0.0
 11
-31.50799799999999
 21
12.0
 31
0.0
 12
-34.318258
 22
12.58351199999999
 32
0.0
 13
-34.318258
 23
12.58351199999999
 33
0.0
  0
SOLID
  5
1B2
330
162
100
AcDbEntity
  8
MO_001_VIEW_PV
  6
BYBLOCK
100
AcDbTrace
 10
-25.681738
 20
12.58351199999999
 30
0.0
 11
-28.491998
 21
12.0
 31
0.0
 12
-25.681738
 22
11.416488
 32
0.0
 13
-25.681738
 23
11.416488
 33
0.0
  0
LINE
  5
1B3
330
162
100
AcDbEntity
  8
MO_001_VIEW_PV
  6
BYBLOCK
100
AcDbLine
 10
-30.99999799999999
 20
0.800003
 30
0.0
 11
-30.99999799999999
 21
14.286
 31
0.0
  0
LINE
  5
1B4
330
162
100
AcDbEntity
  8
MO_001_VIEW_PV
  6
BYBLOCK
100
AcDbLine
 10
-28.99999799999999
 20
0.8000010000000001
 30
0.0
 11
-28.99999799999999
 21
14.286
 31
0.0
  0
LINE
  5
1B5
330
162
100
AcDbEntity
  8
MO_001_VIEW_PV
  6
BYBLOCK
100
AcDbLine
 10
-47.092403
 20
12.0
 30
0.0
 11
-30.99999799999999
 21
12.0
 31
0.0
  0
ENDBLK
  5
1B6
330
162
100
AcDbEntity
  8
0
100
AcDbBlockEnd
  0
BLOCK
  5
1B7
330
164
100
AcDbEntity
  8
0
100
AcDbBlockBegin
  2
*D4
 70
     1
 10
0.0
 20
0.0
 30
0.0
  3
*D4
  1

  0
TEXT
  5
1B8
330
164
100
AcDbEntity
  8
MO_001_VIEW_PV
  6
BYBLOCK
100
AcDbText
 10
-33.75
 20
-14.571429
 30
0.0
 40
3.0
  1
t1
 50
90.0
100
AcDbText
  0
LINE
  5
1B9
330
164
100
AcDbEntity
  8
MO_001_VIEW_PV
  6
BYBLOCK
100
AcDbLine
 10
-33.0
 20
-6.0
 30
0.0
 11
-33.0
 21
-5.0
 31
0.0
  0
LINE
  5
1BA
330
164
100
AcDbEntity
  8
MO_001_VIEW_PV
  6
BYBLOCK
100
AcDbLine
 10
-33.0
 20
-6.0
 30
0.0
 11
-33.0
 21
-12.35
 31
0.0
  0
LINE
  5
1BB
330
164
100
AcDbEntity
  8
MO_001_VIEW_PV
  6
BYBLOCK
100
AcDbLine
 10
-33.0
 20
-5.0
 30
0.0
 11
-33.0
 21
1.35
 31
0.0
  0
SOLID
  5
1BC
330
164
100
AcDbEntity
  8
MO_001_VIEW_PV
  6
BYBLOCK
100
AcDbTrace
 10
-32.416488
 20
-9.31826
 30
0.0
 11
-33.0
 21
-6.507999999999999
 31
0.0
 12
-33.58351199999999
 22
-9.31826
 32
0.0
 13
-33.58351199999999
 23
-9.31826
 33
0.0
  0
SOLID
  5
1BD
330
164
100
AcDbEntity
  8
MO_001_VIEW_PV
  6
BYBLOCK
100
AcDbTrace
 10
-33.58351199999999
 20
-1.68174
 30
0.0
 11
-33.0
 21
-4.491999999999999
 31
0.0
 12
-32.416488
 22
-1.68174
 32
0.0
 13
-32.416488
 23
-1.68174
 33
0.0
  0
LINE
  5
1BE
330
164
100
AcDbEntity
  8
MO_001_VIEW_PV
  6
BYBLOCK
100
AcDbLine
 10
-24.0
 20
-6.0
 30
0.0
 11
-35.28599899999999
 21
-6.0
 31
0.0
  0
LINE
  5
1BF
330
164
100
AcDbEntity
  8
MO_001_VIEW_PV
  6
BYBLOCK
100
AcDbLine
 10
-24.0
 20
-5.0
 30
0.0
 11
-35.28599899999999
 21
-5.0
 31
0.0
  0
LINE
  5
1C0
330
164
100
AcDbEntity
  8
MO_001_VIEW_PV
  6
BYBLOCK
100
AcDbLine
 10
-33.0
 20
-15.535713
 30
0.0
 11
-33.0
 21
-6.0
 31
0.0
  0
ENDBLK
  5
1C1
330
164
100
AcDbEntity
  8
0
100
AcDbBlockEnd
  0
BLOCK
  5
1C2
330
166
100
AcDbEntity
  8
0
100
AcDbBlockBegin
  2
*D5
 70
     1
 10
0.0
 20
0.0
 30
0.0
  3
*D5
  1

  0
TEXT
  5
1C3
330
166
100
AcDbEntity
  8
MO_001_VIEW_PV
  6
BYBLOCK
100
AcDbText
 10
-41.625
 20
-9.535714
 30
0.0
 40
1.5
  1
%%P0.03
 50
90.0
100
AcDbText
  0
TEXT
  5
1C4
330
166
100
AcDbEntity
  8
MO_001_VIEW_PV
  6
BYBLOCK
100
AcDbText
 10
-39.75
 20
-15.321429
 30
0.0
 40
3.0
  1
%%C2
 50
90.0
100
AcDbText
  0
LINE
  5
1C5
330
166
100
AcDbEntity
  8
MO_001_VIEW_PV
  6
BYBLOCK
100
AcDbLine
 10
-39.0
 20
1.0
 30
0.0
 11
-39.0
 21
-1.0
 31
0.0
  0
LINE
  5
1C6
330
166
100
AcDbEntity
  8
MO_001_VIEW_PV
  6
BYBLOCK
100
AcDbLine
 10
-39.0
 20
1.0
 30
0.0
 11
-39.0
 21
7.349999999999999
 31
0.0
  0
LINE
  5
1C7
330
166
100
AcDbEntity
  8
MO_001_VIEW_PV
  6
BYBLOCK
100
AcDbLine
 10
-39.0
 20
-1.0
 30
0.0
 11
-39.0
 21
-7.349999999999999
 31
0.0
  0
SOLID
  5
1C8
330
166
100
AcDbEntity
  8
MO_001_VIEW_PV
  6
BYBLOCK
100
AcDbTrace
 10
-39.583512
 20
4.318259999999999
 30
0.0
 11
-39.0
 21
1.508
 31
0.0
 12
-38.416488
 22
4.318259999999999
 32
0.0
 13
-38.416488
 23
4.318259999999999
 33
0.0
  0
SOLID
  5
1C9
330
166
100
AcDbEntity
  8
MO_001_VIEW_PV
  6
BYBLOCK
100
AcDbTrace
 10
-38.416488
 20
-4.318259999999999
 30
0.0
 11
-39.0
 21
-1.508
 31
0.0
 12
-39.583512
 22
-4.318259999999999
 32
0.0
 13
-39.583512
 23
-4.318259999999999
 33
0.0
  0
LINE
  5
1CA
330
166
100
AcDbEntity
  8
MO_001_VIEW_PV
  6
BYBLOCK
100
AcDbLine
 10
-30.799999
 20
1.0
 30
0.0
 11
-41.285999
 21
1.0
 31
0.0
  0
LINE
  5
1CB
330
166
100
AcDbEntity
  8
MO_001_VIEW_PV
  6
BYBLOCK
100
AcDbLine
 10
-30.800001
 20
-1.0
 30
0.0
 11
-41.285999
 21
-1.0
 31
0.0
  0
LINE
  5
1CC
330
166
100
AcDbEntity
  8
MO_001_VIEW_PV
  6
BYBLOCK
100
AcDbLine
 10
-39.0
 20
-1.0
 30
0.0
 11
-39.0
 21
-16.285713
 31
0.0
  0
ENDBLK
  5
1CD
330
166
100
AcDbEntity
  8
0
100
AcDbBlockEnd
  0
BLOCK
  5
1CE
330
168
100
AcDbEntity
  8
0
100
AcDbBlockBegin
  2
*D6
 70
     1
 10
0.0
 20
0.0
 30
0.0
  3
*D6
  1

  0
TEXT
  5
1CF
330
168
100
AcDbEntity
  8
MO_001_VIEW_PV
  6
BYBLOCK
100
AcDbText
 10
11.999999
 20
8.464285999999999
 30
0.0
 40
1.5
  1
%%P0.03
 50
90.0
100
AcDbText
  0
TEXT
  5
1D0
330
168
100
AcDbEntity
  8
MO_001_VIEW_PV
  6
BYBLOCK
100
AcDbText
 10
15.0
 20
2.678570999999999
 30
0.0
 40
3.0
  1
%%C2
 50
90.0
100
AcDbText
  0
LINE
  5
1D1
330
168
100
AcDbEntity
  8
MO_001_VIEW_PV
  6
BYBLOCK
100
AcDbLine
 10
18.0
 20
-1.0
 30
0.0
 11
18.0
 21
1.0
 31
0.0
  0
LINE
  5
1D2
330
168
100
AcDbEntity
  8
MO_001_VIEW_PV
  6
BYBLOCK
100
AcDbLine
 10
18.0
 20
-1.0
 30
0.0
 11
18.0
 21
-7.349999999999999
 31
0.0
  0
LINE
  5
1D3
330
168
100
AcDbEntity
  8
MO_001_VIEW_PV
  6
BYBLOCK
100
AcDbLine
 10
18.0
 20
1.0
 30
0.0
 11
18.0
 21
7.349999999999999
 31
0.0
  0
SOLID
  5
1D4
330
168
100
AcDbEntity
  8
MO_001_VIEW_PV
  6
BYBLOCK
100
AcDbTrace
 10
18.58351199999999
 20
-4.318259999999999
 30
0.0
 11
18.0
 21
-1.508
 31
0.0
 12
17.416488
 22
-4.318259999999999
 32
0.0
 13
17.416488
 23
-4.318259999999999
 33
0.0
  0
SOLID
  5
1D5
330
168
100
AcDbEntity
  8
MO_001_VIEW_PV
  6
BYBLOCK
100
AcDbTrace
 10
17.416488
 20
4.318259999999999
 30
0.0
 11
18.0
 21
1.508
 31
0.0
 12
18.58351199999999
 22
4.318259999999999
 32
0.0
 13
18.58351199999999
 23
4.318259999999999
 33
0.0
  0
LINE
  5
1D6
330
168
100
AcDbEntity
  8
MO_001_VIEW_PV
  6
BYBLOCK
100
AcDbLine
 10
6.799999
 20
-1.0
 30
0.0
 11
20.285999
 21
-1.0
 31
0.0
  0
LINE
  5
1D7
330
168
100
AcDbEntity
  8
MO_001_VIEW_PV
  6
BYBLOCK
100
AcDbLine
 10
6.799999
 20
1.0
 30
0.0
 11
20.285999
 21
1.0
 31
0.0
  0
LINE
  5
1D8
330
168
100
AcDbEntity
  8
MO_001_VIEW_PV
  6
BYBLOCK
100
AcDbLine
 10
18.0
 20
1.0
 30
0.0
 11
18.0
 21
16.285715
 31
0.0
  0
ENDBLK
  5
1D9
330
168
100
AcDbEntity
  8
0
100
AcDbBlockEnd
  0
BLOCK
  5
1DA
330
16A
100
AcDbEntity
  8
0
100
AcDbBlockBegin
  2
*D7
 70
     1
 10
0.0
 20
0.0
 30
0.0
  3
*D7
  1

  0
LINE
  5
1DB
330
16A
100
AcDbEntity
  8
MO_001_VIEW_PV
  6
BYBLOCK
100
AcDbLine
 10
-68.0
 20
-15.0
 30
0.0
 11
-58.0
 21
-15.0
 31
0.0
  0
LINE
  5
1DC
330
16A
100
AcDbEntity
  8
MO_001_VIEW_PV
  6
BYBLOCK
100
AcDbLine
 10
-68.0
 20
-15.0
 30
0.0
 11
-74.34999999999999
 21
-15.0
 31
0.0
  0
LINE
  5
1DD
330
16A
100
AcDbEntity
  8
MO_001_VIEW_PV
  6
BYBLOCK
100
AcDbLine
 10
-58.0
 20
-15.0
 30
0.0
 11
-51.65
 21
-15.0
 31
0.0
  0
SOLID
  5
1DE
330
16A
100
AcDbEntity
  8
MO_001_VIEW_PV
  6
BYBLOCK
100
AcDbTrace
 10
-71.31826
 20
-15.58351199999999
 30
0.0
 11
-68.50799999999999
 21
-15.0
 31
0.0
 12
-71.31826
 22
-14.416488
 32
0.0
 13
-71.31826
 23
-14.416488
 33
0.0
  0
SOLID
  5
1DF
330
16A
100
AcDbEntity
  8
MO_001_VIEW_PV
  6
BYBLOCK
100
AcDbTrace
 10
-54.68174000000001
 20
-14.416488
 30
0.0
 11
-57.492
 21
-15.0
 31
0.0
 12
-54.68174000000001
 22
-15.58351199999999
 32
0.0
 13
-54.68174000000001
 23
-15.58351199999999
 33
0.0
  0
LINE
  5
1E0
330
16A
100
AcDbEntity
  8
MO_001_VIEW_PV
  6
BYBLOCK
100
AcDbLine
 10
-68.0
 20
-6.0
 30
0.0
 11
-68.0
 21
-17.285999
 31
0.0
  0
LINE
  5
1E1
330
16A
100
AcDbEntity
  8
MO_001_VIEW_PV
  6
BYBLOCK
100
AcDbLine
 10
-58.0
 20
-6.0
 30
0.0
 11
-58.0
 21
-17.285999
 31
0.0
  0
TEXT
  5
1E2
330
16A
100
AcDbEntity
  8
MO_001_VIEW_PV
  6
BYBLOCK
100
AcDbText
 10
-75.074861
 20
-12.375
 30
0.0
 40
1.5
  1
%%P0.3
100
AcDbText
  0
TEXT
  5
1E3
330
16A
100
AcDbEntity
  8
MO_001_VIEW_PV
  6
BYBLOCK
100
AcDbText
 10
-80.860575
 20
-14.25
 30
0.0
 40
3.0
  1
10
100
AcDbText
  0
LINE
  5
1E4
330
16A
100
AcDbEntity
  8
MO_001_VIEW_PV
  6
BYBLOCK
100
AcDbLine
 10
-81.82486
 20
-15.0
 30
0.0
 11
-68.0
 21
-15.0
 31
0.0
  0
ENDBLK
  5
1E5
330
16A
100
AcDbEntity
  8
0
100
AcDbBlockEnd
  0
BLOCK
  5
1E6
330
16C
100
AcDbEntity
  8
0
100
AcDbBlockBegin
  2
*D8
 70
     1
 10
0.0
 20
0.0
 30
0.0
  3
*D8
  1

  0
LINE
  5
1E7
330
16C
100
AcDbEntity
  8
MO_001_VIEW_PV
  6
BYBLOCK
100
AcDbLine
 10
-51.0
 20
-6.0
 30
0.0
 11
-51.0
 21
6.0
 31
0.0
  0
LINE
  5
1E8
330
16C
100
AcDbEntity
  8
MO_001_VIEW_PV
  6
BYBLOCK
100
AcDbLine
 10
-51.0
 20
-6.0
 30
0.0
 11
-51.0
 21
-12.35
 31
0.0
  0
LINE
  5
1E9
330
16C
100
AcDbEntity
  8
MO_001_VIEW_PV
  6
BYBLOCK
100
AcDbLine
 10
-51.0
 20
6.0
 30
0.0
 11
-51.0
 21
12.35
 31
0.0
  0
SOLID
  5
1EA
330
16C
100
AcDbEntity
  8
MO_001_VIEW_PV
  6
BYBLOCK
100
AcDbTrace
 10
-50.416488
 20
-9.31826
 30
0.0
 11
-51.0
 21
-6.507999999999999
 31
0.0
 12
-51.583512
 22
-9.31826
 32
0.0
 13
-51.583512
 23
-9.31826
 33
0.0
  0
SOLID
  5
1EB
330
16C
100
AcDbEntity
  8
MO_001_VIEW_PV
  6
BYBLOCK
100
AcDbTrace
 10
-51.583512
 20
9.31826
 30
0.0
 11
-51.0
 21
6.507999999999999
 31
0.0
 12
-50.416488
 22
9.31826
 32
0.0
 13
-50.416488
 23
9.31826
 33
0.0
  0
LINE
  5
1EC
330
16C
100
AcDbEntity
  8
MO_001_VIEW_PV
  6
BYBLOCK
100
AcDbLine
 10
-58.0
 20
-6.0
 30
0.0
 11
-48.713997
 21
-6.0
 31
0.0
  0
LINE
  5
1ED
330
16C
100
AcDbEntity
  8
MO_001_VIEW_PV
  6
BYBLOCK
100
AcDbLine
 10
-58.0
 20
6.0
 30
0.0
 11
-48.713997
 21
6.0
 31
0.0
  0
TEXT
  5
1EE
330
16C
100
AcDbEntity
  8
MO_001_VIEW_PV
  6
BYBLOCK
100
AcDbText
 10
-53.625
 20
15.21428599999999
 30
0.0
 40
1.5
  1
%%P0.5
 50
90.0
100
AcDbText
  0
TEXT
  5
1EF
330
16C
100
AcDbEntity
  8
MO_001_VIEW_PV
  6
BYBLOCK
100
AcDbText
 10
-51.75
 20
9.428570999999999
 30
0.0
 40
3.0
  1
12
 50
90.0
100
AcDbText
  0
LINE
  5
1F0
330
16C
100
AcDbEntity
  8
MO_001_VIEW_PV
  6
BYBLOCK
100
AcDbLine
 10
-51.0
 20
6.0
 30
0.0
 11
-51.0
 21
21.535713
 31
0.0
  0
ENDBLK
  5
1F1
330
16C
100
AcDbEntity
  8
0
100
AcDbBlockEnd
  0
BLOCK
  5
1F2
330
16E
100
AcDbEntity
  8
0
100
AcDbBlockBegin
  2
*D9
 70
     1
 10
0.0
 20
0.0
 30
0.0
  3
*D9
  1

  0
LINE
  5
1F3
330
16E
100
AcDbEntity
  8
MO_001_VIEW_PV
  6
BYBLOCK
100
AcDbLine
 10
-15.0
 20
-23.0
 30
0.0
 11
-6.0
 21
-23.0
 31
0.0
  0
LINE
  5
1F4
330
16E
100
AcDbEntity
  8
MO_001_VIEW_PV
  6
BYBLOCK
100
AcDbLine
 10
-15.0
 20
-23.0
 30
0.0
 11
-21.35
 21
-23.0
 31
0.0
  0
SOLID
  5
1F5
330
16E
100
AcDbEntity
  8
MO_001_VIEW_PV
  6
BYBLOCK
100
AcDbTrace
 10
-18.31826
 20
-23.58351199999999
 30
0.0
 11
-15.50799999999999
 21
-23.0
 31
0.0
 12
-18.31826
 22
-22.416488
 32
0.0
 13
-18.31826
 23
-22.416488
 33
0.0
  0
SOLID
  5
1F6
330
16E
100
AcDbEntity
  8
MO_001_VIEW_PV
  6
BYBLOCK
100
AcDbTrace
 10
-6.0
 20
-23.635
 30
0.0
 11
-6.0
 21
-22.36499999999999
 31
0.0
 12
-6.0
 22
-23.635
 32
0.0
 13
-6.0
 23
-23.635
 33
0.0
  0
LINE
  5
1F7
330
16E
100
AcDbEntity
  8
MO_001_VIEW_PV
  6
BYBLOCK
100
AcDbLine
 10
-15.0
 20
-32.0
 30
0.0
 11
-15.0
 21
-20.71400099999999
 31
0.0
  0
LINE
  5
1F8
330
16E
100
AcDbEntity
  8
MO_001_VIEW_PV
  6
BYBLOCK
100
AcDbLine
 10
-6.0
 20
-37.0
 30
0.0
 11
-6.0
 21
-20.71400099999999
 31
0.0
  0
TEXT
  5
1F9
330
16E
100
AcDbEntity
  8
MO_001_VIEW_PV
  6
BYBLOCK
100
AcDbText
 10
-11.785714
 20
-20.375
 30
0.0
 40
1.5
  1
%%P0.2
100
AcDbText
  0
TEXT
  5
1FA
330
16E
100
AcDbEntity
  8
MO_001_VIEW_PV
  6
BYBLOCK
100
AcDbText
 10
-14.571429
 20
-22.25
 30
0.0
 40
3.0
  1
9
100
AcDbText
  0
LINE
  5
1FB
330
16E
100
AcDbEntity
  8
MO_001_VIEW_PV
  6
BYBLOCK
100
AcDbLine
 10
-15.535714
 20
-23.0
 30
0.0
 11
-15.0
 21
-23.0
 31
0.0
  0
LINE
  5
1FC
330
16E
100
AcDbEntity
  8
MO_001_VIEW_PV
  6
BYBLOCK
100
AcDbLine
 10
-6.0
 20
-23.0
 30
0.0
 11
-5.464286
 21
-23.0
 31
0.0
  0
ENDBLK
  5
1FD
330
16E
100
AcDbEntity
  8
0
100
AcDbBlockEnd
  0
BLOCK
  5
1FE
330
170
100
AcDbEntity
  8
0
100
AcDbBlockBegin
  2
*D10
 70
     1
 10
0.0
 20
0.0
 30
0.0
  3
*D10
  1

  0
LINE
  5
1FF
330
170
100
AcDbEntity
  8
MO_001_VIEW_PV
  6
BYBLOCK
100
AcDbLine
 10
0.0
 20
-23.0
 30
0.0
 11
-6.0
 21
-23.0
 31
0.0
  0
LINE
  5
200
330
170
100
AcDbEntity
  8
MO_001_VIEW_PV
  6
BYBLOCK
100
AcDbLine
 10
0.0
 20
-23.0
 30
0.0
 11
6.349999999999999
 21
-23.0
 31
0.0
  0
SOLID
  5
201
330
170
100
AcDbEntity
  8
MO_001_VIEW_PV
  6
BYBLOCK
100
AcDbTrace
 10
3.318259999999999
 20
-22.416488
 30
0.0
 11
0.508
 21
-23.0
 31
0.0
 12
3.318259999999999
 22
-23.58351199999999
 32
0.0
 13
3.318259999999999
 23
-23.58351199999999
 33
0.0
  0
SOLID
  5
202
330
170
100
AcDbEntity
  8
MO_001_VIEW_PV
  6
BYBLOCK
100
AcDbTrace
 10
-6.0
 20
-21.73
 30
0.0
 11
-6.0
 21
-24.27
 31
0.0
 12
-6.0
 22
-21.73
 32
0.0
 13
-6.0
 23
-21.73
 33
0.0
  0
LINE
  5
203
330
170
100
AcDbEntity
  8
MO_001_VIEW_PV
  6
BYBLOCK
100
AcDbLine
 10
0.0
 20
-31.0
 30
0.0
 11
0.0
 21
-20.71400099999999
 31
0.0
  0
LINE
  5
204
330
170
100
AcDbEntity
  8
MO_001_VIEW_PV
  6
BYBLOCK
100
AcDbLine
 10
-6.0
 20
-37.0
 30
0.0
 11
-6.0
 21
-20.71400099999999
 31
0.0
  0
TEXT
  5
205
330
170
100
AcDbEntity
  8
MO_001_VIEW_PV
  6
BYBLOCK
100
AcDbText
 10
6.860572
 20
-20.375
 30
0.0
 40
1.5
  1
%%P0.2
100
AcDbText
  0
TEXT
  5
206
330
170
100
AcDbEntity
  8
MO_001_VIEW_PV
  6
BYBLOCK
100
AcDbText
 10
4.074856999999999
 20
-22.25
 30
0.0
 40
3.0
  1
6
100
AcDbText
  0
LINE
  5
207
330
170
100
AcDbEntity
  8
MO_001_VIEW_PV
  6
BYBLOCK
100
AcDbLine
 10
13.182
 20
-23.0
 30
0.0
 11
0.0
 21
-23.0
 31
0.0
  0
ENDBLK
  5
208
330
170
100
AcDbEntity
  8
0
100
AcDbBlockEnd
  0
BLOCK
  5
209
330
172
100
AcDbEntity
  8
0
100
AcDbBlockBegin
  2
*D11
 70
     1
 10
0.0
 20
0.0
 30
0.0
  3
*D11
  1

  0
TEXT
  5
20A
330
172
100
AcDbEntity
  8
MO_001_VIEW_PV
  6
BYBLOCK
100
AcDbText
 10
12.375
 20
-45.810338
 30
0.0
 40
1.5
  1
%%P0.2
 50
90.0
100
AcDbText
  0
TEXT
  5
20B
330
172
100
AcDbEntity
  8
MO_001_VIEW_PV
  6
BYBLOCK
100
AcDbText
 10
14.25
 20
-48.59605300000001
 30
0.0
 40
3.0
  1
5
 50
90.0
100
AcDbText
  0
LINE
  5
20C
330
172
100
AcDbEntity
  8
MO_001_VIEW_PV
  6
BYBLOCK
100
AcDbLine
 10
15.0
 20
-38.5
 30
0.0
 11
15.0
 21
-33.5
 31
0.0
  0
LINE
  5
20D
330
172
100
AcDbEntity
  8
MO_001_VIEW_PV
  6
BYBLOCK
100
AcDbLine
 10
15.0
 20
-38.5
 30
0.0
 11
15.0
 21
-44.85
 31
0.0
  0
LINE
  5
20E
330
172
100
AcDbEntity
  8
MO_001_VIEW_PV
  6
BYBLOCK
100
AcDbLine
 10
15.0
 20
-33.5
 30
0.0
 11
15.0
 21
-27.14999999999999
 31
0.0
  0
SOLID
  5
20F
330
172
100
AcDbEntity
  8
MO_001_VIEW_PV
  6
BYBLOCK
100
AcDbTrace
 10
15.58351199999999
 20
-41.81826
 30
0.0
 11
15.0
 21
-39.008
 31
0.0
 12
14.416488
 22
-41.81826
 32
0.0
 13
14.416488
 23
-41.81826
 33
0.0
  0
SOLID
  5
210
330
172
100
AcDbEntity
  8
MO_001_VIEW_PV
  6
BYBLOCK
100
AcDbTrace
 10
14.416488
 20
-30.18174
 30
0.0
 11
15.0
 21
-32.99199999999999
 31
0.0
 12
15.58351199999999
 22
-30.18174
 32
0.0
 13
15.58351199999999
 23
-30.18174
 33
0.0
  0
LINE
  5
211
330
172
100
AcDbEntity
  8
MO_001_VIEW_PV
  6
BYBLOCK
100
AcDbLine
 10
-4.5
 20
-38.5
 30
0.0
 11
17.285999
 21
-38.5
 31
0.0
  0
LINE
  5
212
330
172
100
AcDbEntity
  8
MO_001_VIEW_PV
  6
BYBLOCK
100
AcDbLine
 10
-13.5
 20
-33.5
 30
0.0
 11
17.285999
 21
-33.5
 31
0.0
  0
LINE
  5
213
330
172
100
AcDbEntity
  8
MO_001_VIEW_PV
  6
BYBLOCK
100
AcDbLine
 10
15.0
 20
-49.56033699999999
 30
0.0
 11
15.0
 21
-38.5
 31
0.0
  0
ENDBLK
  5
214
330
172
100
AcDbEntity
  8
0
100
AcDbBlockEnd
  0
BLOCK
  5
215
330
174
100
AcDbEntity
  8
0
100
AcDbBlockBegin
  2
*D12
 70
     1
 10
0.0
 20
0.0
 30
0.0
  3
*D12
  1

  0
TEXT
  5
216
330
174
100
AcDbEntity
  8
MO_001_VIEW_PV
  6
BYBLOCK
100
AcDbText
 10
5.778920999999999
 20
-11.25
 30
0.0
 40
3.0
  1
(0.5)
100
AcDbText
  0
LINE
  5
217
330
174
100
AcDbEntity
  8
MO_001_VIEW_PV
  6
BYBLOCK
100
AcDbLine
 10
0.0
 20
-12.0
 30
0.0
 11
0.5
 21
-12.0
 31
0.0
  0
LINE
  5
218
330
174
100
AcDbEntity
  8
MO_001_VIEW_PV
  6
BYBLOCK
100
AcDbLine
 10
0.0
 20
-12.0
 30
0.0
 11
-6.349999999999999
 21
-12.0
 31
0.0
  0
LINE
  5
219
330
174
100
AcDbEntity
  8
MO_001_VIEW_PV
  6
BYBLOCK
100
AcDbLine
 10
0.5
 20
-12.0
 30
0.0
 11
6.849999999999999
 21
-12.0
 31
0.0
  0
SOLID
  5
21A
330
174
100
AcDbEntity
  8
MO_001_VIEW_PV
  6
BYBLOCK
100
AcDbTrace
 10
-3.318259999999999
 20
-12.58351199999999
 30
0.0
 11
-0.508
 21
-12.0
 31
0.0
 12
-3.318259999999999
 22
-11.416488
 32
0.0
 13
-3.318259999999999
 23
-11.416488
 33
0.0
  0
SOLID
  5
21B
330
174
100
AcDbEntity
  8
MO_001_VIEW_PV
  6
BYBLOCK
100
AcDbTrace
 10
3.81826
 20
-11.416488
 30
0.0
 11
1.008
 21
-12.0
 31
0.0
 12
3.81826
 22
-12.58351199999999
 32
0.0
 13
3.81826
 23
-12.58351199999999
 33
0.0
  0
LINE
  5
21C
330
174
100
AcDbEntity
  8
MO_001_VIEW_PV
  6
BYBLOCK
100
AcDbLine
 10
0.0
 20
-5.0
 30
0.0
 11
0.0
 21
-14.286
 31
0.0
  0
LINE
  5
21D
330
174
100
AcDbEntity
  8
MO_001_VIEW_PV
  6
BYBLOCK
100
AcDbLine
 10
0.5
 20
-2.0
 30
0.0
 11
0.5
 21
-14.286
 31
0.0
  0
LINE
  5
21E
330
174
100
AcDbEntity
  8
MO_001_VIEW_PV
  6
BYBLOCK
100
AcDbLine
 10
0.5
 20
-12.0
 30
0.0
 11
20.886065
 21
-12.0
 31
0.0
  0
ENDBLK
  5
21F
330
174
100
AcDbEntity
  8
0
100
AcDbBlockEnd
  0
BLOCK
  5
220
330
176
100
AcDbEntity
  8
0
100
AcDbBlockBegin
  2
*D13
 70
     1
 10
0.0
 20
0.0
 30
0.0
  3
*D13
  1

  0
LINE
  5
221
330
176
100
AcDbEntity
  8
MO_001_VIEW_PV
  6
BYBLOCK
100
AcDbLine
 10
-10.27473999999999
 20
-71.0
 30
0.0
 11
-10.27473999999999
 21
-41.0
 31
0.0
  0
SOLID
  5
222
330
176
100
AcDbEntity
  8
MO_001_VIEW_PV
  6
BYBLOCK
100
AcDbTrace
 10
-10.858252
 20
-67.68174000000001
 30
0.0
 11
-10.27473999999999
 21
-70.492
 31
0.0
 12
-9.691228999999999
 22
-67.68174000000001
 32
0.0
 13
-9.691228999999999
 23
-67.68174000000001
 33
0.0
  0
SOLID
  5
223
330
176
100
AcDbEntity
  8
MO_001_VIEW_PV
  6
BYBLOCK
100
AcDbTrace
 10
-9.691228999999999
 20
-44.31826
 30
0.0
 11
-10.27473999999999
 21
-41.508
 31
0.0
 12
-10.858252
 22
-44.31826
 32
0.0
 13
-10.858252
 23
-44.31826
 33
0.0
  0
LINE
  5
224
330
176
100
AcDbEntity
  8
MO_001_NOSHOW
  6
BYBLOCK
100
AcDbLine
 10
-4.130266
 20
-71.0
 30
0.0
 11
-12.56073999999999
 21
-71.0
 31
0.0
  0
LINE
  5
225
330
176
100
AcDbEntity
  8
MO_001_NOSHOW
  6
BYBLOCK
100
AcDbLine
 10
-1.7
 20
-41.0
 30
0.0
 11
-12.56073999999999
 21
-41.0
 31
0.0
  0
TEXT
  5
226
330
176
100
AcDbEntity
  8
MO_001_VIEW_PV
  6
BYBLOCK
100
AcDbText
 10
-11.02473999999999
 20
-66.07142900000001
 30
0.0
 40
3.0
  1
長さ250以上
 50
90.0
100
AcDbText
  0
ENDBLK
  5
227
330
176
100
AcDbEntity
  8
0
100
AcDbBlockEnd
  0
ENDSEC
  0
SECTION
  2
ENTITIES
  0
TEXT
  5
4B
330
1E
100
AcDbEntity
  8
OVERLAY_MAP
  6
C_SOLID_L
100
AcDbText
 10
0.0
 20
6.349999999999999
 30
0.0
 40
4.1672
  1
Model Overlay Name
100
AcDbText
  0
TEXT
  5
4C
330
1E
100
AcDbEntity
  8
OVERLAY_MAP
  6
C_SOLID_L
100
AcDbText
 10
126.999998
 20
0.0
 30
0.0
 40
4.1672
  1
Number
100
AcDbText
  0
TEXT
  5
4D
330
1E
100
AcDbEntity
  8
OVERLAY_MAP
  6
C_SOLID_L
100
AcDbText
 10
177.7999969999999
 20
0.0
 30
0.0
 40
4.1672
  1
File Text
100
AcDbText
  0
TEXT
  5
4E
330
1E
100
AcDbEntity
  8
OVERLAY_MAP
  6
C_SOLID_L
100
AcDbText
 10
0.0
 20
-6.349999999999999
 30
0.0
 40
4.1672
  1
sh2lc0524 
100
AcDbText
  0
TEXT
  5
4F
330
1E
100
AcDbEntity
  8
OVERLAY_MAP
  6
C_SOLID_L
100
AcDbText
 10
126.999998
 20
-6.349999999999999
 30
0.0
 40
4.1672
  1
001
100
AcDbText
  0
TEXT
  5
50
330
1E
100
AcDbEntity
  8
OVERLAY_MAP
  6
C_SOLID_L
100
AcDbText
 10
177.7999969999999
 20
-6.349999999999999
 30
0.0
 40
4.1672
  1
                                                                   00118
100
AcDbText
  0
LINE
  5
51
330
1E
100
AcDbEntity
  8
MO_001_VIEW_PV
  6
C_SOLID_M
100
AcDbLine
 10
-1.0
 20
4.799998999999999
 30
0.0
 11
-1.0
 21
-4.799998999999999
 31
0.0
  0
LINE
  5
52
330
1E
100
AcDbEntity
  8
MO_001_VIEW_PV
  6
C_SOLID_M
100
AcDbLine
 10
0.0
 20
5.0
 30
0.0
 11
0.0
 21
-5.0
 31
0.0
  0
LINE
  5
53
330
1E
100
AcDbEntity
  8
MO_001_VIEW_PV
  6
C_SOLID_M
100
AcDbLine
 10
-24.0
 20
5.0
 30
0.0
 11
-1.199999999999999
 21
5.0
 31
0.0
  0
LINE
  5
54
330
1E
100
AcDbEntity
  8
MO_001_VIEW_PV
  6
C_SOLID_M
100
AcDbLine
 10
-24.0
 20
6.0
 30
0.0
 11
-1.0
 21
6.0
 31
0.0
  0
ARC
  5
55
330
1E
100
AcDbEntity
  8
MO_001_VIEW_PV
  6
C_SOLID_M
100
AcDbCircle
 10
-1.0
 20
5.0
 30
0.0
 40
1.0
100
AcDbArc
 50
0.0
 51
89.99998900000001
  0
ARC
  5
56
330
1E
100
AcDbEntity
  8
MO_001_VIEW_PV
  6
C_SOLID_M
100
AcDbCircle
 10
-1.199999999999999
 20
4.799998999999999
 30
0.0
 40
0.2
100
AcDbArc
 50
0.0
 51
89.99998900000001
  0
LINE
  5
57
330
1E
100
AcDbEntity
  8
MO_001_VIEW_PV
  6
C_SOLID_M
100
AcDbLine
 10
-24.0
 20
6.0
 30
0.0
 11
-24.0
 21
5.0
 31
0.0
  0
LINE
  5
58
330
1E
100
AcDbEntity
  8
MO_001_VIEW_PV
  6
C_SOLID_M
100
AcDbLine
 10
-1.7
 20
6.0
 30
0.0
 11
-1.7
 21
5.0
 31
0.0
  0
LINE
  5
59
330
1E
100
AcDbEntity
  8
MO_001_VIEW_PV
  6
C_SOLID_M
100
AcDbLine
 10
-1.0
 20
4.299998999999999
 30
0.0
 11
0.0
 21
4.299998999999999
 31
0.0
  0
LINE
  5
5A
330
1E
100
AcDbEntity
  8
MO_001_VIEW_PV
  6
C_SOLID_M
100
AcDbLine
 10
-24.0
 20
-5.0
 30
0.0
 11
-1.199999999999999
 21
-5.0
 31
0.0
  0
LINE
  5
5B
330
1E
100
AcDbEntity
  8
MO_001_VIEW_PV
  6
C_SOLID_M
100
AcDbLine
 10
-24.0
 20
-6.0
 30
0.0
 11
-1.0
 21
-6.0
 31
0.0
  0
ARC
  5
5C
330
1E
100
AcDbEntity
  8
MO_001_VIEW_PV
  6
C_SOLID_M
100
AcDbCircle
 10
-1.0
 20
-5.0
 30
0.0
 40
1.0
100
AcDbArc
 50
270.0000109999999
 51
359.999996
  0
ARC
  5
5D
330
1E
100
AcDbEntity
  8
MO_001_VIEW_PV
  6
C_SOLID_M
100
AcDbCircle
 10
-1.199999999999999
 20
-4.799998999999999
 30
0.0
 40
0.2
100
AcDbArc
 50
270.0000109999999
 51
359.999996
  0
LINE
  5
5E
330
1E
100
AcDbEntity
  8
MO_001_VIEW_PV
  6
C_SOLID_M
100
AcDbLine
 10
-24.0
 20
-6.0
 30
0.0
 11
-24.0
 21
-5.0
 31
0.0
  0
LINE
  5
5F
330
1E
100
AcDbEntity
  8
MO_001_VIEW_PV
  6
C_SOLID_M
100
AcDbLine
 10
-1.7
 20
-6.0
 30
0.0
 11
-1.7
 21
-5.0
 31
0.0
  0
LINE
  5
60
330
1E
100
AcDbEntity
  8
MO_001_VIEW_PV
  6
C_SOLID_M
100
AcDbLine
 10
-1.0
 20
-4.299998999999999
 30
0.0
 11
0.0
 21
-4.299998999999999
 31
0.0
  0
LINE
  5
61
330
1E
100
AcDbEntity
  8
MO_001_VIEW_PV
  6
C_SOLID_M
100
AcDbLine
 10
0.0
 20
-2.0
 30
0.0
 11
0.5
 21
-2.0
 31
0.0
  0
LINE
  5
62
330
1E
100
AcDbEntity
  8
MO_001_VIEW_PV
  6
C_CENTER_L
100
AcDbLine
 10
-6.0
 20
-7.026828999999999
 30
0.0
 11
-6.0
 21
-3.726616
 31
0.0
  0
LINE
  5
63
330
1E
100
AcDbEntity
  8
MO_001_VIEW_PV
  6
C_CENTER_L
100
AcDbLine
 10
-15.0
 20
-7.248958999999999
 30
0.0
 11
-15.0
 21
-3.98048
 31
0.0
  0
LINE
  5
64
330
1E
100
AcDbEntity
  8
MO_001_VIEW_PV
  6
C_SOLID_L
100
AcDbLine
 10
-16.0
 20
-5.396037999999999
 30
0.0
 11
-16.0
 21
-5.21056
 31
0.0
  0
LINE
  5
65
330
1E
100
AcDbEntity
  8
MO_001_VIEW_PV
  6
C_SOLID_L
100
AcDbLine
 10
-16.0
 20
-5.803187999999999
 30
0.0
 11
-16.0
 21
-5.635803
 31
0.0
  0
LINE
  5
66
330
1E
100
AcDbEntity
  8
MO_001_VIEW_PV
  6
C_SOLID_M
100
AcDbLine
 10
-1.0
 20
-41.0
 30
0.0
 11
-1.0
 21
-40.799995
 31
0.0
  0
LINE
  5
67
330
1E
100
AcDbEntity
  8
MO_001_VIEW_PV
  6
C_SOLID_M
100
AcDbLine
 10
0.0
 20
-41.0
 30
0.0
 11
0.0
 21
-31.0
 31
0.0
  0
LINE
  5
68
330
1E
100
AcDbEntity
  8
MO_001_VIEW_PV
  6
C_SOLID_M
100
AcDbLine
 10
-1.0
 20
-41.0
 30
0.0
 11
0.0
 21
-41.0
 31
0.0
  0
LINE
  5
69
330
1E
100
AcDbEntity
  8
MO_001_VIEW_PV
  6
C_SOLID_M
100
AcDbLine
 10
-24.0
 20
-41.0
 30
0.0
 11
-24.0
 21
-38.5
 31
0.0
  0
LINE
  5
6A
330
1E
100
AcDbEntity
  8
MO_001_VIEW_PV
  6
C_CENTER_L
100
AcDbLine
 10
-30.451538
 20
-36.0
 30
0.0
 11
8.775131
 21
-36.0
 31
0.0
  0
LINE
  5
6B
330
1E
100
AcDbEntity
  8
MO_001_VIEW_PV
  6
C_SOLID_M
100
AcDbLine
 10
-1.7
 20
-40.799995
 30
0.0
 11
0.0
 21
-40.799995
 31
0.0
  0
LINE
  5
6C
330
1E
100
AcDbEntity
  8
MO_001_VIEW_PV
  6
C_SOLID_M
100
AcDbLine
 10
-1.7
 20
-41.0
 30
0.0
 11
-1.7
 21
-40.799995
 31
0.0
  0
LINE
  5
6D
330
1E
100
AcDbEntity
  8
MO_001_VIEW_PV
  6
C_SOLID_M
100
AcDbLine
 10
-24.0
 20
-41.0
 30
0.0
 11
-1.7
 21
-41.0
 31
0.0
  0
LINE
  5
6E
330
1E
100
AcDbEntity
  8
MO_001_VIEW_PV
  6
C_SOLID_M
100
AcDbLine
 10
-24.0
 20
-38.5
 30
0.0
 11
-22.299999
 21
-38.5
 31
0.0
  0
LINE
  5
6F
330
1E
100
AcDbEntity
  8
MO_001_VIEW_PV
  6
C_SOLID_M
100
AcDbLine
 10
-22.5
 20
-38.0
 30
0.0
 11
-22.299999
 21
-38.0
 31
0.0
  0
LINE
  5
70
330
1E
100
AcDbEntity
  8
MO_001_VIEW_PV
  6
C_SOLID_M
100
AcDbLine
 10
-22.299999
 20
-38.0
 30
0.0
 11
-22.299999
 21
-38.5
 31
0.0
  0
LINE
  5
71
330
1E
100
AcDbEntity
  8
MO_001_VIEW_PV
  6
C_SOLID_M
100
AcDbLine
 10
-1.0
 20
-31.0
 30
0.0
 11
-1.0
 21
-31.19999699999999
 31
0.0
  0
LINE
  5
72
330
1E
100
AcDbEntity
  8
MO_001_VIEW_PV
  6
C_SOLID_M
100
AcDbLine
 10
-1.0
 20
-31.0
 30
0.0
 11
0.0
 21
-31.0
 31
0.0
  0
LINE
  5
73
330
1E
100
AcDbEntity
  8
MO_001_VIEW_PV
  6
C_SOLID_M
100
AcDbLine
 10
-24.0
 20
-31.0
 30
0.0
 11
-24.0
 21
-33.5
 31
0.0
  0
LINE
  5
74
330
1E
100
AcDbEntity
  8
MO_001_VIEW_PV
  6
C_SOLID_M
100
AcDbLine
 10
-1.7
 20
-31.19999699999999
 30
0.0
 11
0.0
 21
-31.19999699999999
 31
0.0
  0
LINE
  5
75
330
1E
100
AcDbEntity
  8
MO_001_VIEW_PV
  6
C_SOLID_M
100
AcDbLine
 10
-1.7
 20
-31.0
 30
0.0
 11
-1.7
 21
-31.19999699999999
 31
0.0
  0
LINE
  5
76
330
1E
100
AcDbEntity
  8
MO_001_VIEW_PV
  6
C_SOLID_M
100
AcDbLine
 10
-24.0
 20
-31.0
 30
0.0
 11
-1.7
 21
-31.0
 31
0.0
  0
LINE
  5
77
330
1E
100
AcDbEntity
  8
MO_001_VIEW_PV
  6
C_SOLID_M
100
AcDbLine
 10
-24.0
 20
-33.5
 30
0.0
 11
-22.299999
 21
-33.5
 31
0.0
  0
LINE
  5
78
330
1E
100
AcDbEntity
  8
MO_001_VIEW_PV
  6
C_SOLID_M
100
AcDbLine
 10
-22.5
 20
-38.5
 30
0.0
 11
-22.5
 21
-33.5
 31
0.0
  0
LINE
  5
79
330
1E
100
AcDbEntity
  8
MO_001_VIEW_PV
  6
C_SOLID_M
100
AcDbLine
 10
-22.5
 20
-34.0
 30
0.0
 11
-22.299999
 21
-34.0
 31
0.0
  0
LINE
  5
7A
330
1E
100
AcDbEntity
  8
MO_001_VIEW_PV
  6
C_SOLID_M
100
AcDbLine
 10
-22.299999
 20
-34.0
 30
0.0
 11
-22.299999
 21
-33.5
 31
0.0
  0
CIRCLE
  5
7B
330
1E
100
AcDbEntity
  8
MO_001_VIEW_PV
  6
C_SOLID_L
100
AcDbCircle
 10
-6.0
 20
-38.5
 30
0.0
 40
1.0
  0
CIRCLE
  5
7C
330
1E
100
AcDbEntity
  8
MO_001_VIEW_PV
  6
C_SOLID_L
100
AcDbCircle
 10
-15.0
 20
-33.5
 30
0.0
 40
1.0
  0
CIRCLE
  5
7D
330
1E
100
AcDbEntity
  8
MO_001_VIEW_PV
  6
C_SOLID_M
100
AcDbCircle
 10
-6.0
 20
-38.5
 30
0.0
 40
0.7835
  0
CIRCLE
  5
7E
330
1E
100
AcDbEntity
  8
MO_001_VIEW_PV
  6
C_SOLID_M
100
AcDbCircle
 10
-15.0
 20
-33.5
 30
0.0
 40
0.7835
  0
LINE
  5
7F
330
1E
100
AcDbEntity
  8
MO_001_VIEW_PV
  6
C_CENTER_L
100
AcDbLine
 10
-6.0
 20
-40.0
 30
0.0
 11
-6.0
 21
-37.0
 31
0.0
  0
LINE
  5
80
330
1E
100
AcDbEntity
  8
MO_001_VIEW_PV
  6
C_CENTER_L
100
AcDbLine
 10
-15.0
 20
-35.0
 30
0.0
 11
-15.0
 21
-32.0
 31
0.0
  0
LINE
  5
81
330
1E
100
AcDbEntity
  8
MO_001_VIEW_PV
  6
C_CENTER_L
100
AcDbLine
 10
-7.5
 20
-38.5
 30
0.0
 11
-4.5
 21
-38.5
 31
0.0
  0
LINE
  5
82
330
1E
100
AcDbEntity
  8
MO_001_VIEW_PV
  6
C_CENTER_L
100
AcDbLine
 10
-16.5
 20
-33.5
 30
0.0
 11
-13.5
 21
-33.5
 31
0.0
  0
LINE
  5
83
330
1E
100
AcDbEntity
  8
MO_001_VIEW_PV
  6
C_SOLID_M
100
AcDbLine
 10
-68.0
 20
6.0
 30
0.0
 11
-58.0
 21
6.0
 31
0.0
  0
LINE
  5
84
330
1E
100
AcDbEntity
  8
MO_001_VIEW_PV
  6
C_SOLID_M
100
AcDbLine
 10
-60.5
 20
6.0
 30
0.0
 11
-60.5
 21
5.0
 31
0.0
  0
LINE
  5
85
330
1E
100
AcDbEntity
  8
MO_001_VIEW_PV
  6
C_SOLID_M
100
AcDbLine
 10
-65.5
 20
6.0
 30
0.0
 11
-65.5
 21
5.0
 31
0.0
  0
LINE
  5
86
330
1E
100
AcDbEntity
  8
MO_001_VIEW_PV
  6
C_SOLID_M
100
AcDbLine
 10
-68.0
 20
-6.0
 30
0.0
 11
-58.0
 21
-6.0
 31
0.0
  0
LINE
  5
87
330
1E
100
AcDbEntity
  8
MO_001_VIEW_PV
  6
C_SOLID_M
100
AcDbLine
 10
-60.650002
 20
-5.0
 30
0.0
 11
-58.0
 21
-5.0
 31
0.0
  0
LINE
  5
88
330
1E
100
AcDbEntity
  8
MO_001_VIEW_PV
  6
C_SOLID_M
100
AcDbLine
 10
-58.0
 20
-6.0
 30
0.0
 11
-58.0
 21
6.0
 31
0.0
  0
LINE
  5
89
330
1E
100
AcDbEntity
  8
MO_001_VIEW_PV
  6
C_SOLID_M
100
AcDbLine
 10
-60.5
 20
-6.0
 30
0.0
 11
-60.5
 21
-5.0
 31
0.0
  0
LINE
  5
8A
330
1E
100
AcDbEntity
  8
MO_001_VIEW_PV
  6
C_SOLID_M
100
AcDbLine
 10
-68.0
 20
-6.0
 30
0.0
 11
-68.0
 21
6.0
 31
0.0
  0
LINE
  5
8B
330
1E
100
AcDbEntity
  8
MO_001_VIEW_PV
  6
C_SOLID_M
100
AcDbLine
 10
-65.5
 20
-6.0
 30
0.0
 11
-65.5
 21
-5.0
 31
0.0
  0
LINE
  5
8C
330
1E
100
AcDbEntity
  8
MO_001_VIEW_PV
  6
C_CENTER_L
100
AcDbLine
 10
-63.0
 20
8.130264
 30
0.0
 11
-63.0
 21
-8.666074999999999
 31
0.0
  0
LINE
  5
8D
330
1E
100
AcDbEntity
  8
MO_001_VIEW_PV
  6
C_CENTER_L
100
AcDbLine
 10
-73.40849300000001
 20
0.0
 30
0.0
 11
-56.0
 21
0.0
 31
0.0
  0
CIRCLE
  5
8E
330
1E
100
AcDbEntity
  8
MO_001_VIEW_PV
  6
C_SOLID_M
100
AcDbCircle
 10
-63.0
 20
0.0
 30
0.0
 40
2.0
  0
LINE
  5
8F
330
1E
100
AcDbEntity
  8
MO_001_VIEW_PV
  6
C_SOLID_L
100
AcDbLine
 10
-15.783501
 20
-5.396037999999999
 30
0.0
 11
-15.783501
 21
-5.21056
 31
0.0
  0
LINE
  5
90
330
1E
100
AcDbEntity
  8
MO_001_VIEW_PV
  6
C_SOLID_L
100
AcDbLine
 10
-15.783501
 20
-5.803187999999999
 30
0.0
 11
-15.783501
 21
-5.635803
 31
0.0
  0
LINE
  5
91
330
1E
100
AcDbEntity
  8
MO_001_VIEW_PV
  6
C_SOLID_L
100
AcDbLine
 10
-14.216499
 20
-5.396037999999999
 30
0.0
 11
-14.216499
 21
-5.21056
 31
0.0
  0
LINE
  5
92
330
1E
100
AcDbEntity
  8
MO_001_VIEW_PV
  6
C_SOLID_L
100
AcDbLine
 10
-14.216499
 20
-5.803187999999999
 30
0.0
 11
-14.216499
 21
-5.635803
 31
0.0
  0
LINE
  5
93
330
1E
100
AcDbEntity
  8
MO_001_VIEW_PV
  6
C_SOLID_L
100
AcDbLine
 10
-14.0
 20
-5.396037999999999
 30
0.0
 11
-14.0
 21
-5.21056
 31
0.0
  0
LINE
  5
94
330
1E
100
AcDbEntity
  8
MO_001_VIEW_PV
  6
C_SOLID_L
100
AcDbLine
 10
-14.0
 20
-5.803187999999999
 30
0.0
 11
-14.0
 21
-5.635803
 31
0.0
  0
LINE
  5
95
330
1E
100
AcDbEntity
  8
MO_001_VIEW_PV
  6
C_SOLID_L
100
AcDbLine
 10
-7.0
 20
-5.396037999999999
 30
0.0
 11
-7.0
 21
-5.21056
 31
0.0
  0
LINE
  5
96
330
1E
100
AcDbEntity
  8
MO_001_VIEW_PV
  6
C_SOLID_L
100
AcDbLine
 10
-7.0
 20
-5.803187999999999
 30
0.0
 11
-7.0
 21
-5.635803
 31
0.0
  0
LINE
  5
97
330
1E
100
AcDbEntity
  8
MO_001_VIEW_PV
  6
C_SOLID_L
100
AcDbLine
 10
-6.783500999999999
 20
-5.396037999999999
 30
0.0
 11
-6.783500999999999
 21
-5.21056
 31
0.0
  0
LINE
  5
98
330
1E
100
AcDbEntity
  8
MO_001_VIEW_PV
  6
C_SOLID_L
100
AcDbLine
 10
-6.783500999999999
 20
-5.803187999999999
 30
0.0
 11
-6.783500999999999
 21
-5.635803
 31
0.0
  0
LINE
  5
99
330
1E
100
AcDbEntity
  8
MO_001_VIEW_PV
  6
C_SOLID_L
100
AcDbLine
 10
-5.216498999999999
 20
-5.396037999999999
 30
0.0
 11
-5.216498999999999
 21
-5.21056
 31
0.0
  0
LINE
  5
9A
330
1E
100
AcDbEntity
  8
MO_001_VIEW_PV
  6
C_SOLID_L
100
AcDbLine
 10
-5.216498999999999
 20
-5.803187999999999
 30
0.0
 11
-5.216498999999999
 21
-5.635803
 31
0.0
  0
LINE
  5
9B
330
1E
100
AcDbEntity
  8
MO_001_VIEW_PV
  6
C_SOLID_L
100
AcDbLine
 10
-5.0
 20
-5.396037999999999
 30
0.0
 11
-5.0
 21
-5.21056
 31
0.0
  0
LINE
  5
9C
330
1E
100
AcDbEntity
  8
MO_001_VIEW_PV
  6
C_SOLID_L
100
AcDbLine
 10
-5.0
 20
-5.803187999999999
 30
0.0
 11
-5.0
 21
-5.635803
 31
0.0
  0
LINE
  5
9D
330
1E
100
AcDbEntity
  8
MO_001_VIEW_PV
  6
C_SOLID_M
100
AcDbLine
 10
-65.5
 20
5.95
 30
0.0
 11
-60.5
 21
5.95
 31
0.0
  0
LINE
  5
9E
330
1E
100
AcDbEntity
  8
MO_001_VIEW_PV
  6
C_SOLID_M
100
AcDbLine
 10
-60.649974
 20
4.999996
 30
0.0
 11
-60.499974
 21
5.949995999999999
 31
0.0
  0
LINE
  5
9F
330
1E
100
AcDbEntity
  8
MO_001_VIEW_PV
  6
C_SOLID_M
100
AcDbLine
 10
-60.650002
 20
5.0
 30
0.0
 11
-58.0
 21
5.0
 31
0.0
  0
LINE
  5
A0
330
1E
100
AcDbEntity
  8
MO_001_VIEW_PV
  6
C_SOLID_M
100
AcDbLine
 10
-65.34997800000001
 20
5.000001999999999
 30
0.0
 11
-65.49997799999999
 21
5.950002999999999
 31
0.0
  0
LINE
  5
A1
330
1E
100
AcDbEntity
  8
MO_001_VIEW_PV
  6
C_SOLID_M
100
AcDbLine
 10
-65.349998
 20
5.0
 30
0.0
 11
-68.0
 21
5.0
 31
0.0
  0
LINE
  5
A2
330
1E
100
AcDbEntity
  8
MO_001_VIEW_PV
  6
C_SOLID_M
100
AcDbLine
 10
-65.5
 20
-5.95
 30
0.0
 11
-60.5
 21
-5.95
 31
0.0
  0
LINE
  5
A3
330
1E
100
AcDbEntity
  8
MO_001_VIEW_PV
  6
C_SOLID_M
100
AcDbLine
 10
-60.649974
 20
-4.999996
 30
0.0
 11
-60.499974
 21
-5.949995999999999
 31
0.0
  0
LINE
  5
A4
330
1E
100
AcDbEntity
  8
MO_001_VIEW_PV
  6
C_SOLID_M
100
AcDbLine
 10
-65.34997800000001
 20
-5.000001999999999
 30
0.0
 11
-65.49997799999999
 21
-5.950002999999999
 31
0.0
  0
CIRCLE
  5
A5
330
1E
100
AcDbEntity
  8
MO_001_VIEW_PV
  6
C_SOLID_M
100
AcDbCircle
 10
-63.0
 20
0.0
 30
0.0
 40
2.0
  0
LINE
  5
A6
330
1E
100
AcDbEntity
  8
MO_001_VIEW_PV
  6
C_SOLID_M
100
AcDbLine
 10
-68.0
 20
-5.0
 30
0.0
 11
-65.349998
 21
-5.0
 31
0.0
  0
LINE
  5
A7
330
1E
100
AcDbEntity
  8
MO_001_VIEW_PV
  6
C_SOLID_M
100
AcDbLine
 10
-23.5
 20
5.0
 30
0.0
 11
-22.5
 21
5.0
 31
0.0
  0
LINE
  5
A8
330
1E
100
AcDbEntity
  8
MO_001_VIEW_PV
  6
C_SOLID_M
100
AcDbLine
 10
-23.5
 20
-5.0
 30
0.0
 11
-23.5
 21
5.0
 31
0.0
  0
LINE
  5
A9
330
1E
100
AcDbEntity
  8
MO_001_VIEW_PV
  6
C_SOLID_M
100
AcDbLine
 10
-22.5
 20
-5.0
 30
0.0
 11
-22.5
 21
5.0
 31
0.0
  0
LINE
  5
AA
330
1E
100
AcDbEntity
  8
MO_001_VIEW_PV
  6
C_SOLID_M
100
AcDbLine
 10
-23.5
 20
-5.0
 30
0.0
 11
-22.5
 21
-5.0
 31
0.0
  0
LINE
  5
AB
330
1E
100
AcDbEntity
  8
MO_001_VIEW_PV
  6
C_SOLID_M
100
AcDbLine
 10
-23.5
 20
-38.5
 30
0.0
 11
-23.5
 21
-33.5
 31
0.0
  0
LINE
  5
AC
330
1E
100
AcDbEntity
  8
MO_001_VIEW_PV
  6
C_SOLID_M
100
AcDbLine
 10
-24.0
 20
2.0
 30
0.0
 11
-24.0
 21
-2.0
 31
0.0
  0
LINE
  5
AD
330
1E
100
AcDbEntity
  8
MO_001_VIEW_PV
  6
C_SOLID_M
100
AcDbLine
 10
-22.5
 20
2.5
 30
0.0
 11
-22.5
 21
2.0
 31
0.0
  0
LINE
  5
AE
330
1E
100
AcDbEntity
  8
MO_001_VIEW_PV
  6
C_SOLID_M
100
AcDbLine
 10
-24.0
 20
2.0
 30
0.0
 11
-23.5
 21
2.0
 31
0.0
  0
LINE
  5
AF
330
1E
100
AcDbEntity
  8
MO_001_VIEW_PV
  6
C_SOLID_M
100
AcDbLine
 10
-22.5
 20
-2.5
 30
0.0
 11
-22.5
 21
-2.0
 31
0.0
  0
LINE
  5
B0
330
1E
100
AcDbEntity
  8
MO_001_VIEW_PV
  6
C_SOLID_M
100
AcDbLine
 10
-24.0
 20
-2.0
 30
0.0
 11
-23.5
 21
-2.0
 31
0.0
  0
LINE
  5
B1
330
1E
100
AcDbEntity
  8
MO_001_VIEW_PV
  6
C_CENTER_L
100
AcDbLine
 10
8.034098
 20
0.0
 30
0.0
 11
-32.0
 21
0.0
 31
0.0
  0
LINE
  5
B2
330
1E
100
AcDbEntity
  8
MO_001_VIEW_PV
  6
C_SOLID_M
100
AcDbLine
 10
0.5
 20
2.0
 30
0.0
 11
0.5
 21
-2.0
 31
0.0
  0
LINE
  5
B3
330
1E
100
AcDbEntity
  8
MO_001_VIEW_PV
  6
C_SOLID_M
100
AcDbLine
 10
0.5
 20
2.0
 30
0.0
 11
0.0
 21
2.0
 31
0.0
  0
LINE
  5
B4
330
1E
100
AcDbEntity
  8
MO_001_VIEW_PV
  6
C_SOLID_M
100
AcDbLine
 10
-28.799998
 20
-1.000000999999999
 30
0.0
 11
-28.99999799999999
 21
-0.8000019999999999
 31
0.0
  0
LINE
  5
B5
330
1E
100
AcDbEntity
  8
MO_001_VIEW_PV
  6
C_SOLID_M
100
AcDbLine
 10
-28.79999899999999
 20
-1.000000999999999
 30
0.0
 11
-28.79999899999999
 21
1.0
 31
0.0
  0
LINE
  5
B6
330
1E
100
AcDbEntity
  8
MO_001_VIEW_PV
  6
C_SOLID_M
100
AcDbLine
 10
7.0
 20
-0.8000010000000001
 30
0.0
 11
7.0
 21
0.8000010000000001
 31
0.0
  0
LINE
  5
B7
330
1E
100
AcDbEntity
  8
MO_001_VIEW_PV
  6
C_SOLID_M
100
AcDbLine
 10
6.799997999999999
 20
-1.0
 30
0.0
 11
6.999999
 21
-0.8000010000000001
 31
0.0
  0
LINE
  5
B8
330
1E
100
AcDbEntity
  8
MO_001_VIEW_PV
  6
C_SOLID_M
100
AcDbLine
 10
-28.799998
 20
1.000000999999999
 30
0.0
 11
-28.99999799999999
 21
0.8000019999999999
 31
0.0
  0
LINE
  5
B9
330
1E
100
AcDbEntity
  8
MO_001_VIEW_PV
  6
C_SOLID_M
100
AcDbLine
 10
6.799997999999999
 20
1.0
 30
0.0
 11
6.999999
 21
0.8000010000000001
 31
0.0
  0
LINE
  5
BA
330
1E
100
AcDbEntity
  8
MO_001_VIEW_PV
  6
C_SOLID_M
100
AcDbLine
 10
0.5
 20
-1.0
 30
0.0
 11
6.799999
 21
-1.0
 31
0.0
  0
LINE
  5
BB
330
1E
100
AcDbEntity
  8
MO_001_VIEW_PV
  6
C_SOLID_M
100
AcDbLine
 10
0.5
 20
1.0
 30
0.0
 11
6.799999
 21
1.0
 31
0.0
  0
LINE
  5
BC
330
1E
100
AcDbEntity
  8
MO_001_VIEW_PV
  6
C_SOLID_M
100
AcDbLine
 10
-24.0
 20
-1.0
 30
0.0
 11
-28.79999899999999
 21
-1.0
 31
0.0
  0
LINE
  5
BD
330
1E
100
AcDbEntity
  8
MO_001_VIEW_PV
  6
C_SOLID_M
100
AcDbLine
 10
-24.0
 20
1.0
 30
0.0
 11
-28.79999899999999
 21
1.0
 31
0.0
  0
LINE
  5
BE
330
1E
100
AcDbEntity
  8
MO_001_VIEW_PV
  6
C_SOLID_M
100
AcDbLine
 10
6.799999
 20
-1.0
 30
0.0
 11
6.799999
 21
1.0
 31
0.0
  0
LINE
  5
BF
330
1E
100
AcDbEntity
  8
MO_001_VIEW_PV
  6
C_SOLID_M
100
AcDbLine
 10
0.0
 20
-38.0
 30
0.0
 11
0.5
 21
-38.0
 31
0.0
  0
LINE
  5
C0
330
1E
100
AcDbEntity
  8
MO_001_VIEW_PV
  6
C_SOLID_M
100
AcDbLine
 10
0.5
 20
-34.0
 30
0.0
 11
0.5
 21
-38.0
 31
0.0
  0
LINE
  5
C1
330
1E
100
AcDbEntity
  8
MO_001_VIEW_PV
  6
C_SOLID_M
100
AcDbLine
 10
0.5
 20
-34.0
 30
0.0
 11
0.0
 21
-34.0
 31
0.0
  0
LINE
  5
C2
330
1E
100
AcDbEntity
  8
MO_001_VIEW_PV
  6
C_SOLID_M
100
AcDbLine
 10
7.0
 20
-36.800003
 30
0.0
 11
7.0
 21
-35.200001
 31
0.0
  0
LINE
  5
C3
330
1E
100
AcDbEntity
  8
MO_001_VIEW_PV
  6
C_SOLID_M
100
AcDbLine
 10
6.799993999999999
 20
-36.999995
 30
0.0
 11
6.999992999999999
 21
-36.79999699999999
 31
0.0
  0
LINE
  5
C4
330
1E
100
AcDbEntity
  8
MO_001_VIEW_PV
  6
C_SOLID_M
100
AcDbLine
 10
6.799999
 20
-34.99999499999999
 30
0.0
 11
7.0
 21
-35.199996
 31
0.0
  0
LINE
  5
C5
330
1E
100
AcDbEntity
  8
MO_001_VIEW_PV
  6
C_SOLID_M
100
AcDbLine
 10
0.5
 20
-37.0
 30
0.0
 11
6.799999
 21
-37.0
 31
0.0
  0
LINE
  5
C6
330
1E
100
AcDbEntity
  8
MO_001_VIEW_PV
  6
C_SOLID_M
100
AcDbLine
 10
0.5
 20
-35.0
 30
0.0
 11
6.799999
 21
-35.0
 31
0.0
  0
LINE
  5
C7
330
1E
100
AcDbEntity
  8
MO_001_VIEW_PV
  6
C_SOLID_M
100
AcDbLine
 10
6.799999
 20
-37.0
 30
0.0
 11
6.799999
 21
-35.0
 31
0.0
  0
LINE
  5
C8
330
1E
100
AcDbEntity
  8
MO_001_VIEW_PV
  6
C_SOLID_M
100
AcDbLine
 10
-24.0
 20
-34.0
 30
0.0
 11
-24.0
 21
-38.0
 31
0.0
  0
LINE
  5
C9
330
1E
100
AcDbEntity
  8
MO_001_VIEW_PV
  6
C_SOLID_M
100
AcDbLine
 10
-24.0
 20
-34.0
 30
0.0
 11
-23.5
 21
-34.0
 31
0.0
  0
LINE
  5
CA
330
1E
100
AcDbEntity
  8
MO_001_VIEW_PV
  6
C_SOLID_M
100
AcDbLine
 10
-24.0
 20
-38.0
 30
0.0
 11
-23.5
 21
-38.0
 31
0.0
  0
LINE
  5
CB
330
1E
100
AcDbEntity
  8
MO_001_VIEW_PV
  6
C_SOLID_M
100
AcDbLine
 10
-29.0
 20
-36.800003
 30
0.0
 11
-29.0
 21
-35.200001
 31
0.0
  0
LINE
  5
CC
330
1E
100
AcDbEntity
  8
MO_001_VIEW_PV
  6
C_SOLID_M
100
AcDbLine
 10
-28.799994
 20
-36.999997
 30
0.0
 11
-28.999994
 21
-36.79999699999999
 31
0.0
  0
LINE
  5
CD
330
1E
100
AcDbEntity
  8
MO_001_VIEW_PV
  6
C_SOLID_M
100
AcDbLine
 10
-28.79999899999999
 20
-37.0
 30
0.0
 11
-28.79999899999999
 21
-35.0
 31
0.0
  0
LINE
  5
CE
330
1E
100
AcDbEntity
  8
MO_001_VIEW_PV
  6
C_SOLID_M
100
AcDbLine
 10
-28.799996
 20
-34.999994
 30
0.0
 11
-28.999997
 21
-35.199995
 31
0.0
  0
LINE
  5
CF
330
1E
100
AcDbEntity
  8
MO_001_VIEW_PV
  6
C_SOLID_M
100
AcDbLine
 10
-24.0
 20
-37.0
 30
0.0
 11
-28.79999899999999
 21
-37.0
 31
0.0
  0
LINE
  5
D0
330
1E
100
AcDbEntity
  8
MO_001_VIEW_PV
  6
C_SOLID_M
100
AcDbLine
 10
-24.0
 20
-35.0
 30
0.0
 11
-28.79999899999999
 21
-35.0
 31
0.0
  0
LINE
  5
D1
330
1E
100
AcDbEntity
  8
MO_001_VIEW_PV
  6
C_SOLID_M
100
AcDbLine
 10
-22.5
 20
4.9
 30
0.0
 11
-22.5
 21
-4.9
 31
0.0
  0
LINE
  5
D2
330
1E
100
AcDbEntity
  8
MO_001_VIEW_PV
  6
C_SOLID_M
100
AcDbLine
 10
-1.6
 20
4.9
 30
0.0
 11
-1.1
 21
4.9
 31
0.0
  0
LINE
  5
D3
330
1E
100
AcDbEntity
  8
MO_001_VIEW_PV
  6
C_SOLID_M
100
AcDbLine
 10
-20.799999
 20
4.9
 30
0.0
 11
-20.799999
 21
-4.9
 31
0.0
  0
LINE
  5
D4
330
1E
100
AcDbEntity
  8
MO_001_VIEW_PV
  6
C_SOLID_M
100
AcDbLine
 10
-13.8
 20
4.9
 30
0.0
 11
-13.8
 21
-4.9
 31
0.0
  0
LINE
  5
D5
330
1E
100
AcDbEntity
  8
MO_001_VIEW_PV
  6
C_SOLID_M
100
AcDbLine
 10
-13.8
 20
4.9
 30
0.0
 11
-8.599999999999999
 21
4.9
 31
0.0
  0
LINE
  5
D6
330
1E
100
AcDbEntity
  8
MO_001_VIEW_PV
  6
C_SOLID_M
100
AcDbLine
 10
-22.5
 20
4.9
 30
0.0
 11
-20.799999
 21
4.9
 31
0.0
  0
LINE
  5
D7
330
1E
100
AcDbEntity
  8
MO_001_VIEW_PV
  6
C_SOLID_M
100
AcDbLine
 10
-1.1
 20
-4.9
 30
0.0
 11
-1.1
 21
4.9
 31
0.0
  0
LINE
  5
D8
330
1E
100
AcDbEntity
  8
MO_001_VIEW_PV
  6
C_SOLID_M
100
AcDbLine
 10
-1.6
 20
-4.9
 30
0.0
 11
-1.1
 21
-4.9
 31
0.0
  0
LINE
  5
D9
330
1E
100
AcDbEntity
  8
MO_001_VIEW_PV
  6
C_SOLID_M
100
AcDbLine
 10
-8.599999999999999
 20
-4.9
 30
0.0
 11
-8.599999999999999
 21
4.9
 31
0.0
  0
LINE
  5
DA
330
1E
100
AcDbEntity
  8
MO_001_VIEW_PV
  6
C_SOLID_M
100
AcDbLine
 10
-1.6
 20
-4.9
 30
0.0
 11
-1.6
 21
4.9
 31
0.0
  0
LINE
  5
DB
330
1E
100
AcDbEntity
  8
MO_001_VIEW_PV
  6
C_SOLID_M
100
AcDbLine
 10
-13.8
 20
-4.9
 30
0.0
 11
-8.599999999999999
 21
-4.9
 31
0.0
  0
LINE
  5
DC
330
1E
100
AcDbEntity
  8
MO_001_VIEW_PV
  6
C_SOLID_M
100
AcDbLine
 10
-22.5
 20
-4.9
 30
0.0
 11
-20.799999
 21
-4.9
 31
0.0
  0
LINE
  5
DD
330
1E
100
AcDbEntity
  8
MO_001_VIEW_PV
  6
C_SOLID_M
100
AcDbLine
 10
-22.5
 20
-41.199997
 30
0.0
 11
-22.5
 21
-41.0
 31
0.0
  0
LINE
  5
DE
330
1E
100
AcDbEntity
  8
MO_001_VIEW_PV
  6
C_SOLID_M
100
AcDbLine
 10
-1.1
 20
-40.900002
 30
0.0
 11
-1.1
 21
-40.799995
 31
0.0
  0
LINE
  5
DF
330
1E
100
AcDbEntity
  8
MO_001_VIEW_PV
  6
C_SOLID_M
100
AcDbLine
 10
-1.6
 20
-40.900002
 30
0.0
 11
-1.1
 21
-40.900002
 31
0.0
  0
LINE
  5
E0
330
1E
100
AcDbEntity
  8
MO_001_VIEW_PV
  6
C_SOLID_M
100
AcDbLine
 10
-20.799999
 20
-41.199997
 30
0.0
 11
-20.799999
 21
-41.0
 31
0.0
  0
LINE
  5
E1
330
1E
100
AcDbEntity
  8
MO_001_VIEW_PV
  6
C_SOLID_M
100
AcDbLine
 10
-8.599999999999999
 20
-41.199997
 30
0.0
 11
-8.599999999999999
 21
-41.0
 31
0.0
  0
LINE
  5
E2
330
1E
100
AcDbEntity
  8
MO_001_VIEW_PV
  6
C_SOLID_M
100
AcDbLine
 10
-1.6
 20
-40.900002
 30
0.0
 11
-1.6
 21
-40.799995
 31
0.0
  0
LINE
  5
E3
330
1E
100
AcDbEntity
  8
MO_001_VIEW_PV
  6
C_SOLID_M
100
AcDbLine
 10
-1.1
 20
-31.099998
 30
0.0
 11
-1.1
 21
-31.19999699999999
 31
0.0
  0
LINE
  5
E4
330
1E
100
AcDbEntity
  8
MO_001_VIEW_PV
  6
C_SOLID_M
100
AcDbLine
 10
-1.6
 20
-31.099998
 30
0.0
 11
-1.1
 21
-31.099998
 31
0.0
  0
LINE
  5
E5
330
1E
100
AcDbEntity
  8
MO_001_VIEW_PV
  6
C_SOLID_M
100
AcDbLine
 10
-1.6
 20
-31.099998
 30
0.0
 11
-1.6
 21
-31.19999699999999
 31
0.0
  0
LINE
  5
E6
330
1E
100
AcDbEntity
  8
MO_001_VIEW_PV
  6
C_SOLID_M
100
AcDbLine
 10
-22.5
 20
-41.199997
 30
0.0
 11
-20.799999
 21
-41.199997
 31
0.0
  0
LINE
  5
E7
330
1E
100
AcDbEntity
  8
MO_001_VIEW_PV
  6
C_SOLID_M
100
AcDbLine
 10
-10.6
 20
-41.0
 30
0.0
 11
-10.6
 21
-41.199997
 31
0.0
  0
LINE
  5
E8
330
1E
100
AcDbEntity
  8
MO_001_VIEW_PV
  6
C_SOLID_M
100
AcDbLine
 10
-10.6
 20
-41.199997
 30
0.0
 11
-8.599999999999999
 21
-41.199997
 31
0.0
  0
LINE
  5
E9
330
1E
100
AcDbEntity
  8
MO_001_VIEW_PV
  6
C_SOLID_M
100
AcDbLine
 10
-68.199997
 20
4.9
 30
0.0
 11
-68.0
 21
4.9
 31
0.0
  0
LINE
  5
EA
330
1E
100
AcDbEntity
  8
MO_001_VIEW_PV
  6
C_SOLID_M
100
AcDbLine
 10
-68.199997
 20
-4.9
 30
0.0
 11
-68.0
 21
-4.9
 31
0.0
  0
LINE
  5
EB
330
1E
100
AcDbEntity
  8
MO_001_VIEW_PV
  6
C_SOLID_M
100
AcDbLine
 10
-68.199997
 20
-4.9
 30
0.0
 11
-68.199997
 21
4.9
 31
0.0
  0
CIRCLE
  5
EC
330
1E
100
AcDbEntity
  8
MO_001_VIEW_PV
  6
C_SOLID_M
100
AcDbCircle
 10
-63.0
 20
0.0
 30
0.0
 40
1.0
  0
CIRCLE
  5
ED
330
1E
100
AcDbEntity
  8
MO_001_VIEW_PV
  6
C_SOLID_M
100
AcDbCircle
 10
-63.0
 20
0.0
 30
0.0
 40
0.8000010000000001
  0
LINE
  5
EE
330
1E
100
AcDbEntity
  8
MO_001_VIEW_PV
  6
C_DASHED_M
100
AcDbLine
 10
-30.79999799999999
 20
1.000002
 30
0.0
 11
-30.99999799999999
 21
0.8000019999999999
 31
0.0
  0
LINE
  5
EF
330
1E
100
AcDbEntity
  8
MO_001_VIEW_PV
  6
C_DASHED_M
100
AcDbLine
 10
-30.799999
 20
-1.0
 30
0.0
 11
-30.799999
 21
1.0
 31
0.0
  0
LINE
  5
F0
330
1E
100
AcDbEntity
  8
MO_001_VIEW_PV
  6
C_DASHED_M
100
AcDbLine
 10
-30.79999799999999
 20
-1.000002
 30
0.0
 11
-30.99999799999999
 21
-0.8000019999999999
 31
0.0
  0
LINE
  5
F1
330
1E
100
AcDbEntity
  8
MO_001_VIEW_PV
  6
C_DASHED_M
100
AcDbLine
 10
-29.857889
 20
-1.0
 30
0.0
 11
-30.800001
 21
-1.0
 31
0.0
  0
LINE
  5
F2
330
1E
100
AcDbEntity
  8
MO_001_VIEW_PV
  6
C_DASHED_M
100
AcDbLine
 10
-29.857889
 20
1.0
 30
0.0
 11
-30.799999
 21
1.0
 31
0.0
  0
LINE
  5
F3
330
1E
100
AcDbEntity
  8
MO_001_VIEW_PV
  6
C_DASHED_M
100
AcDbLine
 10
-30.99999799999999
 20
-0.800003
 30
0.0
 11
-30.99999799999999
 21
0.800003
 31
0.0
  0
LINE
  5
F4
330
1E
100
AcDbEntity
  8
MO_001_VIEW_PV
  6
C_SOLID_M
100
AcDbLine
 10
-28.99999799999999
 20
-0.800003
 30
0.0
 11
-28.99999799999999
 21
0.8000010000000001
 31
0.0
  0
LINE
  5
F5
330
1E
100
AcDbEntity
  8
MO_001_VIEW_PV
  6
C_SOLID_M
100
AcDbLine
 10
-8.599999999999999
 20
4.4
 30
0.0
 11
-1.6
 21
4.4
 31
0.0
  0
LINE
  5
F6
330
1E
100
AcDbEntity
  8
MO_001_VIEW_PV
  6
C_SOLID_M
100
AcDbLine
 10
-20.799999
 20
4.4
 30
0.0
 11
-13.8
 21
4.4
 31
0.0
  0
LINE
  5
F7
330
1E
100
AcDbEntity
  8
MO_001_VIEW_PV
  6
C_SOLID_M
100
AcDbLine
 10
-8.599999999999999
 20
-4.400001
 30
0.0
 11
-1.6
 21
-4.400001
 31
0.0
  0
LINE
  5
F8
330
1E
100
AcDbEntity
  8
MO_001_VIEW_PV
  6
C_SOLID_M
100
AcDbLine
 10
-20.799999
 20
-4.400001
 30
0.0
 11
-13.8
 21
-4.400001
 31
0.0
  0
LINE
  5
F9
330
1E
100
AcDbEntity
  8
MO_001_VIEW_PV
  6
C_SOLID_M
100
AcDbLine
 10
-6.849999999999999
 20
-41.82
 30
0.0
 11
-3.320001
 21
-41.82
 31
0.0
  0
LINE
  5
FA
330
1E
100
AcDbEntity
  8
MO_001_VIEW_PV
  6
C_SOLID_M
100
AcDbLine
 10
-2.820002
 20
-41.320007
 30
0.0
 11
-2.820002
 21
-41.0
 31
0.0
  0
ARC
  5
FB
330
1E
100
AcDbEntity
  8
MO_001_VIEW_PV
  6
C_SOLID_M
100
AcDbCircle
 10
-6.849999999999999
 20
-40.099998
 30
0.0
 40
1.720000999999999
100
AcDbArc
 50
211.550934
 51
269.999998
  0
LINE
  5
FC
330
1E
100
AcDbEntity
  8
MO_001_VIEW_PV
  6
C_SOLID_M
100
AcDbLine
 10
-3.320001
 20
-41.819996
 30
0.0
 11
-2.819999999999999
 21
-41.319995
 31
0.0
  0
LINE
  5
FD
330
1E
100
AcDbEntity
  8
MO_001_VIEW_PV
  6
C_SOLID_M
100
AcDbLine
 10
-2.019502999999999
 20
-66.5
 30
0.0
 11
-2.019502999999999
 21
-71.0
 31
0.0
  0
LINE
  5
FE
330
1E
100
AcDbEntity
  8
MO_001_VIEW_PV
  6
C_SOLID_M
100
AcDbLine
 10
-2.400498999999999
 20
-66.5
 30
0.0
 11
-2.400498999999999
 21
-71.0
 31
0.0
  0
LINE
  5
FF
330
1E
100
AcDbEntity
  8
MO_001_VIEW_PV
  6
C_SOLID_M
100
AcDbLine
 10
-2.019502999999999
 20
-71.0
 30
0.0
 11
-2.400498999999999
 21
-71.0
 31
0.0
  0
LINE
  5
100
330
1E
100
AcDbEntity
  8
MO_001_VIEW_PV
  6
C_SOLID_M
100
AcDbLine
 10
-1.6
 20
-66.5
 30
0.0
 11
-2.820002
 21
-66.5
 31
0.0
  0
LINE
  5
101
330
1E
100
AcDbEntity
  8
MO_001_VIEW_PV
  6
C_SOLID_M
100
AcDbLine
 10
-1.6
 20
-61.809998
 30
0.0
 11
-1.6
 21
-66.5
 31
0.0
  0
LINE
  5
102
330
1E
100
AcDbEntity
  8
MO_001_VIEW_PV
  6
C_SOLID_M
100
AcDbLine
 10
-2.820002
 20
-61.809998
 30
0.0
 11
-2.820002
 21
-66.5
 31
0.0
  0
ARC
  5
103
330
1E
100
AcDbEntity
  8
MO_001_VIEW_PV
  6
C_SOLID_M
100
AcDbCircle
 10
-3.820001999999999
 20
-42.120003
 30
0.0
 40
1.0
100
AcDbArc
 50
355.0
 51
36.869832
  0
ARC
  5
104
330
1E
100
AcDbEntity
  8
MO_001_VIEW_PV
  6
C_SOLID_M
100
AcDbCircle
 10
-3.820001999999999
 20
-42.120003
 30
0.0
 40
2.220000999999999
100
AcDbArc
 50
0.0
 51
30.298528
  0
LINE
  5
105
330
1E
100
AcDbEntity
  8
MO_001_VIEW_PV
  6
C_SOLID_M
100
AcDbLine
 10
-4.151212
 20
-66.56417199999999
 30
0.0
 11
-4.543413
 21
-71.047049
 31
0.0
  0
LINE
  5
106
330
1E
100
AcDbEntity
  8
MO_001_VIEW_PV
  6
C_SOLID_M
100
AcDbLine
 10
-4.530758999999999
 20
-66.53096600000001
 30
0.0
 11
-4.922959999999999
 21
-71.01384300000001
 31
0.0
  0
LINE
  5
107
330
1E
100
AcDbEntity
  8
MO_001_VIEW_PV
  6
C_SOLID_M
100
AcDbLine
 10
-4.543413
 20
-71.047049
 30
0.0
 11
-4.922959999999999
 21
-71.01384300000001
 31
0.0
  0
LINE
  5
108
330
1E
100
AcDbEntity
  8
MO_001_VIEW_PV
  6
C_SOLID_M
100
AcDbLine
 10
-3.733305999999999
 20
-66.600734
 30
0.0
 11
-4.948665
 21
-66.494404
 31
0.0
  0
LINE
  5
109
330
1E
100
AcDbEntity
  8
MO_001_VIEW_PV
  6
C_SOLID_M
100
AcDbLine
 10
-3.320230999999999
 20
-61.87926700000001
 30
0.0
 11
-3.733305
 21
-66.60072599999999
 31
0.0
  0
LINE
  5
10A
330
1E
100
AcDbEntity
  8
MO_001_VIEW_PV
  6
C_SOLID_M
100
AcDbLine
 10
-4.535591
 20
-61.77293699999999
 30
0.0
 11
-4.948663999999999
 21
-66.494396
 31
0.0
  0
ARC
  5
10B
330
1E
100
AcDbEntity
  8
MO_001_VIEW_PV
  6
C_SOLID_M
100
AcDbCircle
 10
-2.515000999999999
 20
-61.045074
 30
0.0
 40
0.385082
100
AcDbArc
 50
37.62277499999999
 51
142.377219
  0
ARC
  5
10C
330
1E
100
AcDbEntity
  8
MO_001_VIEW_PV
  6
C_SOLID_M
100
AcDbCircle
 10
-2.515000999999999
 20
-60.574921
 30
0.0
 40
0.385082
100
AcDbArc
 50
217.6227809999999
 51
322.377225
  0
ARC
  5
10D
330
1E
100
AcDbEntity
  8
MO_001_VIEW_PV
  6
C_SOLID_M
100
AcDbCircle
 10
-1.905001
 20
-60.574921
 30
0.0
 40
0.385082
100
AcDbArc
 50
217.6227809999999
 51
322.377225
  0
LINE
  5
10E
330
1E
100
AcDbEntity
  8
MO_001_VIEW_PV
  6
C_SOLID_M
100
AcDbLine
 10
-1.6
 20
-42.120003
 30
0.0
 11
-1.6
 21
-60.809998
 31
0.0
  0
LINE
  5
10F
330
1E
100
AcDbEntity
  8
MO_001_VIEW_PV
  6
C_SOLID_M
100
AcDbLine
 10
-2.820002
 20
-42.120003
 30
0.0
 11
-2.820002
 21
-60.809998
 31
0.0
  0
ARC
  5
110
330
1E
100
AcDbEntity
  8
MO_001_VIEW_PV
  6
C_SOLID_M
100
AcDbCircle
 10
-1.905001
 20
-62.045074
 30
0.0
 40
0.385082
100
AcDbArc
 50
37.622782
 51
142.377219
  0
ARC
  5
111
330
1E
100
AcDbEntity
  8
MO_001_VIEW_PV
  6
C_SOLID_M
100
AcDbCircle
 10
-2.515000999999999
 20
-62.045074
 30
0.0
 40
0.385082
100
AcDbArc
 50
37.622782
 51
142.377219
  0
ARC
  5
112
330
1E
100
AcDbEntity
  8
MO_001_VIEW_PV
  6
C_SOLID_M
100
AcDbCircle
 10
-1.905001
 20
-61.57492099999999
 30
0.0
 40
0.385082
100
AcDbArc
 50
217.6227809999999
 51
322.377225
  0
ARC
  5
113
330
1E
100
AcDbEntity
  8
MO_001_VIEW_PV
  6
C_SOLID_M
100
AcDbCircle
 10
-4.165081999999999
 20
-61.03748299999999
 30
0.0
 40
0.385082
100
AcDbArc
 50
32.622776
 51
137.3772199999999
  0
ARC
  5
114
330
1E
100
AcDbEntity
  8
MO_001_VIEW_PV
  6
C_SOLID_M
100
AcDbCircle
 10
-4.124105
 20
-60.569122
 30
0.0
 40
0.385082
100
AcDbArc
 50
212.6227819999999
 51
317.3772259999999
  0
ARC
  5
115
330
1E
100
AcDbEntity
  8
MO_001_VIEW_PV
  6
C_SOLID_M
100
AcDbCircle
 10
-3.516426
 20
-60.62228399999999
 30
0.0
 40
0.385082
100
AcDbArc
 50
212.6227819999999
 51
317.3772259999999
  0
ARC
  5
116
330
1E
100
AcDbEntity
  8
MO_001_VIEW_PV
  6
C_SOLID_M
100
AcDbCircle
 10
-3.644557999999999
 20
-62.086845
 30
0.0
 40
0.385082
100
AcDbArc
 50
32.622783
 51
137.3772199999999
  0
ARC
  5
117
330
1E
100
AcDbEntity
  8
MO_001_VIEW_PV
  6
C_SOLID_M
100
AcDbCircle
 10
-4.252237
 20
-62.03368399999999
 30
0.0
 40
0.385082
100
AcDbArc
 50
32.622783
 51
137.3772199999999
  0
ARC
  5
118
330
1E
100
AcDbEntity
  8
MO_001_VIEW_PV
  6
C_SOLID_M
100
AcDbCircle
 10
-3.603581999999999
 20
-61.618484
 30
0.0
 40
0.385082
100
AcDbArc
 50
212.6227819999999
 51
317.3772259999999
  0
LINE
  5
119
330
1E
100
AcDbEntity
  8
MO_001_VIEW_PV
  6
C_SOLID_M
100
AcDbLine
 10
-2.823808
 20
-42.207176
 30
0.0
 11
-4.448434999999999
 21
-60.77675
 31
0.0
  0
LINE
  5
11A
330
1E
100
AcDbEntity
  8
MO_001_VIEW_PV
  6
C_SOLID_M
100
AcDbLine
 10
-2.820002999999999
 20
-56.161629
 30
0.0
 11
-3.233076
 21
-60.883073
 31
0.0
  0
LINE
  5
11B
330
1E
100
AcDbEntity
  8
MO_001_VIEW_PV
  6
C_SOLID_M
100
AcDbLine
 10
-15.549999
 20
-41.82
 30
0.0
 11
-19.07999799999999
 21
-41.82
 31
0.0
  0
LINE
  5
11C
330
1E
100
AcDbEntity
  8
MO_001_VIEW_PV
  6
C_SOLID_M
100
AcDbLine
 10
-19.57999799999999
 20
-41.320007
 30
0.0
 11
-19.57999799999999
 21
-41.0
 31
0.0
  0
ARC
  5
11D
330
1E
100
AcDbEntity
  8
MO_001_VIEW_PV
  6
C_SOLID_M
100
AcDbCircle
 10
-15.549999
 20
-40.099998
 30
0.0
 40
1.720000999999999
100
AcDbArc
 50
270.0000039999999
 51
328.449065
  0
LINE
  5
11E
330
1E
100
AcDbEntity
  8
MO_001_VIEW_PV
  6
C_SOLID_M
100
AcDbLine
 10
-19.07999699999999
 20
-41.81999499999999
 30
0.0
 11
-19.57999799999999
 21
-41.31999299999999
 31
0.0
  0
LINE
  5
11F
330
1E
100
AcDbEntity
  8
MO_001_VIEW_PV
  6
C_SOLID_M
100
AcDbLine
 10
-20.380497
 20
-66.5
 30
0.0
 11
-20.380497
 21
-71.0
 31
0.0
  0
LINE
  5
120
330
1E
100
AcDbEntity
  8
MO_001_VIEW_PV
  6
C_SOLID_M
100
AcDbLine
 10
-19.9995
 20
-66.5
 30
0.0
 11
-19.9995
 21
-71.0
 31
0.0
  0
LINE
  5
121
330
1E
100
AcDbEntity
  8
MO_001_VIEW_PV
  6
C_SOLID_M
100
AcDbLine
 10
-20.380497
 20
-71.0
 30
0.0
 11
-19.9995
 21
-71.0
 31
0.0
  0
LINE
  5
122
330
1E
100
AcDbEntity
  8
MO_001_VIEW_PV
  6
C_SOLID_M
100
AcDbLine
 10
-20.799999
 20
-66.5
 30
0.0
 11
-19.57999799999999
 21
-66.5
 31
0.0
  0
LINE
  5
123
330
1E
100
AcDbEntity
  8
MO_001_VIEW_PV
  6
C_SOLID_M
100
AcDbLine
 10
-20.799999
 20
-61.809998
 30
0.0
 11
-20.799999
 21
-66.5
 31
0.0
  0
LINE
  5
124
330
1E
100
AcDbEntity
  8
MO_001_VIEW_PV
  6
C_SOLID_M
100
AcDbLine
 10
-19.57999799999999
 20
-61.809998
 30
0.0
 11
-19.57999799999999
 21
-66.5
 31
0.0
  0
ARC
  5
125
330
1E
100
AcDbEntity
  8
MO_001_VIEW_PV
  6
C_SOLID_M
100
AcDbCircle
 10
-18.57999799999999
 20
-42.120003
 30
0.0
 40
1.0
100
AcDbArc
 50
143.130166
 51
185.0000039999999
  0
ARC
  5
126
330
1E
100
AcDbEntity
  8
MO_001_VIEW_PV
  6
C_SOLID_M
100
AcDbCircle
 10
-18.57999799999999
 20
-42.120003
 30
0.0
 40
2.220000999999999
100
AcDbArc
 50
149.701477
 51
179.9999909999999
  0
LINE
  5
127
330
1E
100
AcDbEntity
  8
MO_001_VIEW_PV
  6
C_SOLID_M
100
AcDbLine
 10
-18.248791
 20
-66.564175
 30
0.0
 11
-17.85659
 21
-71.04705200000001
 31
0.0
  0
LINE
  5
128
330
1E
100
AcDbEntity
  8
MO_001_VIEW_PV
  6
C_SOLID_M
100
AcDbLine
 10
-17.869244
 20
-66.530969
 30
0.0
 11
-17.47704399999999
 21
-71.013846
 31
0.0
  0
LINE
  5
129
330
1E
100
AcDbEntity
  8
MO_001_VIEW_PV
  6
C_SOLID_M
100
AcDbLine
 10
-17.85659
 20
-71.04705200000001
 30
0.0
 11
-17.47704399999999
 21
-71.013846
 31
0.0
  0
LINE
  5
12A
330
1E
100
AcDbEntity
  8
MO_001_VIEW_PV
  6
C_SOLID_M
100
AcDbLine
 10
-18.666697
 20
-66.60073800000001
 30
0.0
 11
-17.451338
 21
-66.49440699999999
 31
0.0
  0
LINE
  5
12B
330
1E
100
AcDbEntity
  8
MO_001_VIEW_PV
  6
C_SOLID_M
100
AcDbLine
 10
-19.07976999999999
 20
-61.879286
 30
0.0
 11
-18.666697
 21
-66.60074200000001
 31
0.0
  0
LINE
  5
12C
330
1E
100
AcDbEntity
  8
MO_001_VIEW_PV
  6
C_SOLID_M
100
AcDbLine
 10
-17.86441099999999
 20
-61.772956
 30
0.0
 11
-17.451338
 21
-66.494412
 31
0.0
  0
ARC
  5
12D
330
1E
100
AcDbEntity
  8
MO_001_VIEW_PV
  6
C_SOLID_M
100
AcDbCircle
 10
-20.495003
 20
-61.045074
 30
0.0
 40
0.385082
100
AcDbArc
 50
37.622782
 51
142.377219
  0
ARC
  5
12E
330
1E
100
AcDbEntity
  8
MO_001_VIEW_PV
  6
C_SOLID_M
100
AcDbCircle
 10
-20.495003
 20
-60.574921
 30
0.0
 40
0.385082
100
AcDbArc
 50
217.6227809999999
 51
322.377218
  0
ARC
  5
12F
330
1E
100
AcDbEntity
  8
MO_001_VIEW_PV
  6
C_SOLID_M
100
AcDbCircle
 10
-19.885002
 20
-60.574921
 30
0.0
 40
0.385082
100
AcDbArc
 50
217.6227809999999
 51
322.377218
  0
LINE
  5
130
330
1E
100
AcDbEntity
  8
MO_001_VIEW_PV
  6
C_SOLID_M
100
AcDbLine
 10
-20.799999
 20
-42.120003
 30
0.0
 11
-20.799999
 21
-60.809998
 31
0.0
  0
LINE
  5
131
330
1E
100
AcDbEntity
  8
MO_001_VIEW_PV
  6
C_SOLID_M
100
AcDbLine
 10
-19.57999799999999
 20
-42.120003
 30
0.0
 11
-19.57999799999999
 21
-60.809998
 31
0.0
  0
ARC
  5
132
330
1E
100
AcDbEntity
  8
MO_001_VIEW_PV
  6
C_SOLID_M
100
AcDbCircle
 10
-19.885002
 20
-62.045074
 30
0.0
 40
0.385082
100
AcDbArc
 50
37.622782
 51
142.377219
  0
ARC
  5
133
330
1E
100
AcDbEntity
  8
MO_001_VIEW_PV
  6
C_SOLID_M
100
AcDbCircle
 10
-20.495003
 20
-62.045074
 30
0.0
 40
0.385082
100
AcDbArc
 50
37.622782
 51
142.377219
  0
ARC
  5
134
330
1E
100
AcDbEntity
  8
MO_001_VIEW_PV
  6
C_SOLID_M
100
AcDbCircle
 10
-19.885002
 20
-61.57492099999999
 30
0.0
 40
0.385082
100
AcDbArc
 50
217.6227809999999
 51
322.377218
  0
ARC
  5
135
330
1E
100
AcDbEntity
  8
MO_001_VIEW_PV
  6
C_SOLID_M
100
AcDbCircle
 10
-18.842598
 20
-61.090668
 30
0.0
 40
0.385082
100
AcDbArc
 50
42.62278099999999
 51
147.377218
  0
ARC
  5
136
330
1E
100
AcDbEntity
  8
MO_001_VIEW_PV
  6
C_SOLID_M
100
AcDbCircle
 10
-18.883574
 20
-60.62230699999999
 30
0.0
 40
0.385082
100
AcDbArc
 50
222.6227799999999
 51
327.37722
  0
ARC
  5
137
330
1E
100
AcDbEntity
  8
MO_001_VIEW_PV
  6
C_SOLID_M
100
AcDbCircle
 10
-18.27589599999999
 20
-60.569138
 30
0.0
 40
0.385082
100
AcDbArc
 50
222.6227799999999
 51
327.37722
  0
ARC
  5
138
330
1E
100
AcDbEntity
  8
MO_001_VIEW_PV
  6
C_SOLID_M
100
AcDbCircle
 10
-18.147762
 20
-62.033699
 30
0.0
 40
0.385082
100
AcDbArc
 50
42.62278099999999
 51
147.377218
  0
ARC
  5
139
330
1E
100
AcDbEntity
  8
MO_001_VIEW_PV
  6
C_SOLID_M
100
AcDbCircle
 10
-18.755442
 20
-62.086868
 30
0.0
 40
0.385082
100
AcDbArc
 50
42.62278099999999
 51
147.377218
  0
ARC
  5
13A
330
1E
100
AcDbEntity
  8
MO_001_VIEW_PV
  6
C_SOLID_M
100
AcDbCircle
 10
-18.18874
 20
-61.565338
 30
0.0
 40
0.385082
100
AcDbArc
 50
222.6227799999999
 51
327.37722
  0
LINE
  5
13B
330
1E
100
AcDbEntity
  8
MO_001_VIEW_PV
  6
C_SOLID_M
100
AcDbLine
 10
-19.576196
 20
-42.20718
 30
0.0
 11
-17.951567
 21
-60.77676999999999
 31
0.0
  0
LINE
  5
13C
330
1E
100
AcDbEntity
  8
MO_001_VIEW_PV
  6
C_SOLID_M
100
AcDbLine
 10
-19.58000099999999
 20
-56.16163199999999
 30
0.0
 11
-19.166926
 21
-60.883091
 31
0.0
  0
LINE
  5
13D
330
1E
100
AcDbEntity
  8
MO_001_VIEW_PV
  6
C_SOLID_L
100
AcDbLine
 10
-17.95533
 20
-71.0
 30
0.0
 11
-4.130266
 21
-71.0
 31
0.0
  0
ARC
  5
13E
330
1E
100
AcDbEntity
  8
MO_001_VIEW_PV
  6
C_SOLID_M
100
AcDbCircle
 10
-63.0
 20
0.0
 30
0.0
 40
5.82
100
AcDbArc
 50
153.312612
 51
206.6873849999999
  0
ARC
  5
13F
330
1E
100
AcDbEntity
  8
MO_001_VIEW_PV
  6
C_SOLID_M
100
AcDbCircle
 10
-76.682663
 20
-0.6485820000000001
 30
0.0
 40
0.385082
100
AcDbArc
 50
310.1227759999999
 51
54.87721999999999
  0
ARC
  5
140
330
1E
100
AcDbEntity
  8
MO_001_VIEW_PV
  6
C_SOLID_M
100
AcDbCircle
 10
-76.212952
 20
-0.628074
 30
0.0
 40
0.385082
100
AcDbArc
 50
130.122781
 51
234.8772279999999
  0
ARC
  5
141
330
1E
100
AcDbEntity
  8
MO_001_VIEW_PV
  6
C_SOLID_M
100
AcDbCircle
 10
-76.18634799999999
 20
-1.237494
 30
0.0
 40
0.385082
100
AcDbArc
 50
130.122781
 51
234.8772279999999
  0
LINE
  5
142
330
1E
100
AcDbEntity
  8
MO_001_VIEW_PV
  6
C_SOLID_M
100
AcDbLine
 10
-68.69166400000001
 20
-1.215559999999999
 30
0.0
 11
-76.407915
 21
-1.552458999999999
 31
0.0
  0
LINE
  5
143
330
1E
100
AcDbEntity
  8
MO_001_VIEW_PV
  6
C_SOLID_M
100
AcDbLine
 10
-68.82001899999998
 20
-0.000001
 30
0.0
 11
-76.461131
 21
-0.333619
 31
0.0
  0
ARC
  5
144
330
1E
100
AcDbEntity
  8
MO_001_VIEW_PV
  6
C_SOLID_M
100
AcDbCircle
 10
-76.796501
 20
1.264136
 30
0.0
 40
0.385082
100
AcDbArc
 50
305.122777
 51
49.877221
  0
ARC
  5
145
330
1E
100
AcDbEntity
  8
MO_001_VIEW_PV
  6
C_SOLID_M
100
AcDbCircle
 10
-76.32680500000001
 20
1.243627
 30
0.0
 40
0.385082
100
AcDbArc
 50
125.122782
 51
229.877229
  0
ARC
  5
146
330
1E
100
AcDbEntity
  8
MO_001_VIEW_PV
  6
C_SOLID_M
100
AcDbCircle
 10
-76.353409
 20
0.6342050000000001
 30
0.0
 40
0.385082
100
AcDbArc
 50
125.122782
 51
229.877229
  0
LINE
  5
147
330
1E
100
AcDbEntity
  8
MO_001_VIEW_PV
  6
C_SOLID_M
100
AcDbLine
 10
-68.69166400000001
 20
1.215565999999999
 30
0.0
 11
-76.548383
 21
1.558596999999999
 31
0.0
  0
LINE
  5
148
330
1E
100
AcDbEntity
  8
MO_001_VIEW_PV
  6
C_SOLID_M
100
AcDbLine
 10
-68.82002599999999
 20
-0.000001
 30
0.0
 11
-76.60159200000001
 21
0.33975
 31
0.0
  0
LINE
  5
149
330
1E
100
AcDbEntity
  8
MO_001_VIEW_PV
  6
C_SOLID_L
100
AcDbLine
 10
-25.511959
 20
-62.0
 30
0.0
 11
-64.987518
 21
-62.0
 31
0.0
  0
LINE
  5
14A
330
1E
100
AcDbEntity
  8
MO_001_VIEW_PV
  6
C_SOLID_L
100
AcDbLine
 10
3.111959999999999
 20
-62.0
 30
0.0
 11
42.0
 21
-62.0
 31
0.0
  0
LINE
  5
14B
330
1E
100
AcDbEntity
  8
MO_001_VIEW_PV
  6
C_SOLID_L
100
AcDbLine
 10
-50.151443
 20
-26.0
 30
0.0
 11
-22.500004
 21
-26.0
 31
0.0
  0
TEXT
  5
14C
330
1E
100
AcDbEntity
  8
MO_001_VIEW_PV
  6
C_SOLID_L
100
AcDbText
 10
-7.618232
 20
-75.767937
 30
0.0
 40
3.0
  1
プッシュ側
100
AcDbText
  0
TEXT
  5
14D
330
1E
100
AcDbEntity
  8
MO_001_VIEW_PV
  6
C_SOLID_L
100
AcDbText
 10
-7.618232
 20
-80.267937
 30
0.0
 40
3.0
  1
コイル
100
AcDbText
  0
TEXT
  5
14E
330
1E
100
AcDbEntity
  8
MO_001_VIEW_PV
  6
C_SOLID_L
100
AcDbText
 10
-23.66813899999999
 20
-76.02269699999999
 30
0.0
 40
3.0
  1
プル側
100
AcDbText
  0
TEXT
  5
14F
330
1E
100
AcDbEntity
  8
MO_001_VIEW_PV
  6
C_SOLID_L
100
AcDbText
 10
-23.66813899999999
 20
-80.522697
 30
0.0
 40
3.0
  1
コイル
100
AcDbText
  0
TEXT
  5
150
330
1E
100
AcDbEntity
  8
MO_001_VIEW_PV
  6
C_SOLID_L
100
AcDbText
 10
-73.488281
 20
-92.08359399999999
 30
0.0
 40
4.167187
  1
SH2LC0524
100
AcDbText
  0
TEXT
  5
151
330
1E
100
AcDbEntity
  8
MO_001_VIEW_PV
  6
C_SOLID_L
100
AcDbText
 10
-64.571429
 20
-56.75
 30
0.0
 40
3.0
  1
リ－ド線
100
AcDbText
  0
TEXT
  5
152
330
1E
100
AcDbEntity
  8
MO_001_VIEW_PV
  6
C_SOLID_L
100
AcDbText
 10
-64.571429
 20
-61.25
 30
0.0
 40
3.0
  1
UL1007 AWG.28
100
AcDbText
  0
TEXT
  5
153
330
1E
100
AcDbEntity
  8
MO_001_VIEW_PV
  6
C_SOLID_L
100
AcDbText
 10
-40.57142899999999
 20
-65.75
 30
0.0
 40
3.0
  1
（赤、黒）
100
AcDbText
  0
TEXT
  5
154
330
1E
100
AcDbEntity
  8
MO_001_VIEW_PV
  6
C_SOLID_L
100
AcDbText
 10
3.428570999999999
 20
-56.75
 30
0.0
 40
3.0
  1
リ－ド線
100
AcDbText
  0
TEXT
  5
155
330
1E
100
AcDbEntity
  8
MO_001_VIEW_PV
  6
C_SOLID_L
100
AcDbText
 10
3.428570999999999
 20
-61.25
 30
0.0
 40
3.0
  1
UL1007 AWG.28
100
AcDbText
  0
TEXT
  5
156
330
1E
100
AcDbEntity
  8
MO_001_VIEW_PV
  6
C_SOLID_L
100
AcDbText
 10
3.428570999999999
 20
-65.75
 30
0.0
 40
3.0
  1
（白、黒）
100
AcDbText
  0
TEXT
  5
157
330
1E
100
AcDbEntity
  8
MO_001_VIEW_PV
  6
C_SOLID_L
100
AcDbText
 10
13.51171899999999
 20
-80.08359399999999
 30
0.0
 40
4.167187
  1
単位：mm
100
AcDbText
  0
TEXT
  5
158
330
1E
100
AcDbEntity
  8
MO_001_VIEW_PV
  6
C_SOLID_L
100
AcDbText
 10
13.51171899999999
 20
-86.08359399999999
 30
0.0
 40
4.167187
  1
図はプッシュ側コイルの励磁時を示す
100
AcDbText
  0
TEXT
  5
159
330
1E
100
AcDbEntity
  8
MO_001_VIEW_PV
  6
C_SOLID_L
100
AcDbText
 10
13.51171899999999
 20
-92.08359399999999
 30
0.0
 40
4.167187
  1
ストロ－ク：2mm%%P0.2
100
AcDbText
  0
TEXT
  5
15A
330
1E
100
AcDbEntity
  8
MO_001_VIEW_PV
  6
C_SOLID_L
100
AcDbText
 10
-46.94874399999999
 20
8.274371999999999
 30
0.0
 40
3.0
  1
ストロ－ク
100
AcDbText
  0
TEXT
  5
15B
330
1E
100
AcDbEntity
  8
MO_001_VIEW_PV
  6
C_SOLID_L
100
AcDbText
 10
-49.071432
 20
-25.25
 30
0.0
 40
3.0
  1
2-M2 P0.4
100
AcDbText
  0
DIMENSION
  5
15D
330
1E
100
AcDbEntity
  8
MO_001_VIEW_PV
  6
C_SOLID_M
100
AcDbDimension
  2
*D0
 10
-12.0
 20
18.0
 30
0.0
 11
-12.0
 21
18.0
 31
0.0
  3
STANDARD
100
AcDbAlignedDimension
 13
-24.0
 23
6.0
 33
0.0
 14
0.0
 24
5.0
 34
0.0
100
AcDbRotatedDimension
  0
DIMENSION
  5
15F
330
1E
100
AcDbEntity
  8
MO_001_VIEW_PV
  6
C_SOLID_M
100
AcDbDimension
  2
*D1
 10
15.63163
 20
18.0
 30
0.0
 11
15.63163
 21
18.0
 31
0.0
  3
STANDARD
100
AcDbAlignedDimension
 13
7.0
 23
0.8000010000000001
 33
0.0
 14
0.0
 24
5.0
 34
0.0
 50
179.97571
100
AcDbRotatedDimension
  0
DIMENSION
  5
161
330
1E
100
AcDbEntity
  8
MO_001_VIEW_PV
  6
C_SOLID_M
100
AcDbDimension
  2
*D2
 10
-35.822109
 20
18.0
 30
0.0
 11
-35.822109
 21
18.0
 31
0.0
  3
STANDARD
100
AcDbAlignedDimension
 13
-28.99999799999999
 23
0.8000010000000001
 33
0.0
 14
-24.0
 24
6.0
 34
0.0
100
AcDbRotatedDimension
  0
DIMENSION
  5
163
330
1E
100
AcDbEntity
  8
MO_001_VIEW_PV
  6
C_SOLID_M
100
AcDbDimension
  2
*D3
 10
-42.05669
 20
12.0
 30
0.0
 11
-42.05669
 21
12.0
 31
0.0
  3
STANDARD
100
AcDbAlignedDimension
 13
-30.99999799999999
 23
0.800003
 33
0.0
 14
-28.99999799999999
 24
0.8000010000000001
 34
0.0
100
AcDbRotatedDimension
  0
DIMENSION
  5
165
330
1E
100
AcDbEntity
  8
MO_001_VIEW_PV
  6
C_SOLID_M
100
AcDbDimension
  2
*D4
 10
-33.0
 20
-12.0
 30
0.0
 11
-33.0
 21
-12.0
 31
0.0
  1
t1
  3
STANDARD
100
AcDbAlignedDimension
 13
-24.0
 23
-6.0
 33
0.0
 14
-24.0
 24
-5.0
 34
0.0
 50
89.98785500000002
100
AcDbRotatedDimension
  0
DIMENSION
  5
167
330
1E
100
AcDbEntity
  8
MO_001_VIEW_PV
  6
C_SOLID_M
100
AcDbDimension
  2
*D5
 10
-39.0
 20
-9.0
 30
0.0
 11
-39.0
 21
-9.0
 31
0.0
  3
STANDARD
100
AcDbAlignedDimension
 13
-30.799999
 23
1.0
 33
0.0
 14
-30.800001
 24
-1.0
 34
0.0
 50
270.012145
100
AcDbRotatedDimension
  0
DIMENSION
  5
169
330
1E
100
AcDbEntity
  8
MO_001_VIEW_PV
  6
C_SOLID_M
100
AcDbDimension
  2
*D6
 10
18.0
 20
9.0
 30
0.0
 11
18.0
 21
9.0
 31
0.0
  3
STANDARD
100
AcDbAlignedDimension
 13
6.799999
 23
-1.0
 33
0.0
 14
6.799999
 24
1.0
 34
0.0
 50
89.98785500000002
100
AcDbRotatedDimension
  0
DIMENSION
  5
16B
330
1E
100
AcDbEntity
  8
MO_001_VIEW_PV
  6
C_SOLID_M
100
AcDbDimension
  2
*D7
 10
-75.289146
 20
-15.0
 30
0.0
 11
-75.289146
 21
-15.0
 31
0.0
  3
STANDARD
100
AcDbAlignedDimension
 13
-58.0
 23
-6.0
 33
0.0
 14
-68.0
 24
-6.0
 34
0.0
100
AcDbRotatedDimension
  0
DIMENSION
  5
16D
330
1E
100
AcDbEntity
  8
MO_001_VIEW_PV
  6
C_SOLID_M
100
AcDbDimension
  2
*D8
 10
-51.0
 20
15.0
 30
0.0
 11
-51.0
 21
15.0
 31
0.0
  3
STANDARD
100
AcDbAlignedDimension
 13
-58.0
 23
6.0
 33
0.0
 14
-58.0
 24
-6.0
 34
0.0
 50
89.999523
100
AcDbRotatedDimension
  0
DIMENSION
  5
16F
330
1E
100
AcDbEntity
  8
MO_001_VIEW_PV
  6
C_SOLID_M
100
AcDbDimension
  2
*D9
 10
-10.5
 20
-23.0
 30
0.0
 11
-10.5
 21
-23.0
 31
0.0
  3
STANDARD
100
AcDbAlignedDimension
 13
-6.0
 23
-37.0
 33
0.0
 14
-15.0
 24
-32.0
 34
0.0
100
AcDbRotatedDimension
  0
DIMENSION
  5
171
330
1E
100
AcDbEntity
  8
MO_001_VIEW_PV
  6
C_SOLID_M
100
AcDbDimension
  2
*D10
 10
8.146285999999999
 20
-23.0
 30
0.0
 11
8.146285999999999
 21
-23.0
 31
0.0
  3
STANDARD
100
AcDbAlignedDimension
 13
-6.0
 23
-37.0
 33
0.0
 14
0.0
 24
-31.0
 34
0.0
100
AcDbRotatedDimension
  0
DIMENSION
  5
173
330
1E
100
AcDbEntity
  8
MO_001_VIEW_PV
  6
C_SOLID_M
100
AcDbDimension
  2
*D11
 10
15.0
 20
-44.52462399999999
 30
0.0
 11
15.0
 21
-44.52462399999999
 31
0.0
  3
STANDARD
100
AcDbAlignedDimension
 13
-13.5
 23
-33.5
 33
0.0
 14
-4.5
 24
-38.5
 34
0.0
 50
89.999523
100
AcDbRotatedDimension
  0
DIMENSION
  5
175
330
1E
100
AcDbEntity
  8
MO_001_VIEW_PV
  6
C_SOLID_M
100
AcDbDimension
  2
*D12
 10
12.850349
 20
-12.0
 30
0.0
 11
12.850349
 21
-12.0
 31
0.0
  1
(0.5)
  3
STANDARD
100
AcDbAlignedDimension
 13
0.0
 23
-5.0
 33
0.0
 14
0.5
 24
-2.0
 34
0.0
100
AcDbRotatedDimension
  0
DIMENSION
  5
177
330
1E
100
AcDbEntity
  8
MO_001_VIEW_PV
  6
C_SOLID_M
100
AcDbDimension
  2
*D13
 10
-10.27473999999999
 20
-56.0
 30
0.0
 11
-10.27473999999999
 21
-56.0
 31
0.0
  1
長さ250以上
  3
STANDARD
100
AcDbAlignedDimension
 13
-1.7
 23
-41.0
 33
0.0
 14
-4.130266
 24
-71.0
 34
0.0
 50
89.999523
100
AcDbRotatedDimension
  0
LINE
  5
178
330
1E
100
AcDbEntity
  8
MO_001_VIEW_PV
  6
C_SOLID_L
100
AcDbLine
 10
-20.80000599999999
 20
-53.83865899999999
 30
0.0
 11
-25.51196
 21
-62.000007
 31
0.0
  0
POLYLINE
  5
179
330
1E
100
AcDbEntity
  8
MO_001_VIEW_PV
  6
C_SOLID_L
100
AcDb2dPolyline
 66
     1
 10
0.0
 20
0.0
 30
0.0
 70
     1
  0
VERTEX
  5
239
330
179
100
AcDbEntity
  8
MO_001_VIEW_PV
  6
C_SOLID_L
100
AcDbVertex
100
AcDb2dVertex
 10
-21.953799
 20
-57.004113
 30
0.0
  0
VERTEX
  5
23A
330
179
100
AcDbEntity
  8
MO_001_VIEW_PV
  6
C_SOLID_L
100
AcDbVertex
100
AcDb2dVertex
 10
-21.054006
 20
-54.27859999999999
 30
0.0
  0
VERTEX
  5
23B
330
179
100
AcDbEntity
  8
MO_001_VIEW_PV
  6
C_SOLID_L
100
AcDbVertex
100
AcDb2dVertex
 10
-22.96447099999999
 20
-56.420601
 30
0.0
  0
SEQEND
  5
23C
330
179
100
AcDbEntity
  8
MO_001_VIEW_PV
  6
C_SOLID_L
  0
LINE
  5
17E
330
1E
100
AcDbEntity
  8
MO_001_VIEW_PV
  6
C_SOLID_L
100
AcDbLine
 10
-1.599996999999999
 20
-53.83864499999999
 30
0.0
 11
3.111965
 21
-62.000006
 31
0.0
  0
POLYLINE
  5
17F
330
1E
100
AcDbEntity
  8
MO_001_VIEW_PV
  6
C_SOLID_L
100
AcDb2dPolyline
 66
     1
 10
0.0
 20
0.0
 30
0.0
 70
     1
  0
VERTEX
  5
23D
330
17F
100
AcDbEntity
  8
MO_001_VIEW_PV
  6
C_SOLID_L
100
AcDbVertex
100
AcDb2dVertex
 10
0.564469
 20
-56.42058699999999
 30
0.0
  0
VERTEX
  5
23E
330
17F
100
AcDbEntity
  8
MO_001_VIEW_PV
  6
C_SOLID_L
100
AcDbVertex
100
AcDb2dVertex
 10
-1.345996999999999
 20
-54.278586
 30
0.0
  0
VERTEX
  5
23F
330
17F
100
AcDbEntity
  8
MO_001_VIEW_PV
  6
C_SOLID_L
100
AcDbVertex
100
AcDb2dVertex
 10
-0.446203
 20
-57.004098
 30
0.0
  0
SEQEND
  5
240
330
17F
100
AcDbEntity
  8
MO_001_VIEW_PV
  6
C_SOLID_L
  0
LINE
  5
184
330
1E
100
AcDbEntity
  8
MO_001_VIEW_PV
  6
C_SOLID_L
100
AcDbLine
 10
-15.70710499999999
 20
-32.792887
 30
0.0
 11
-22.499999
 21
-25.999993
 31
0.0
  0
POLYLINE
  5
185
330
1E
100
AcDbEntity
  8
MO_001_VIEW_PV
  6
C_SOLID_L
100
AcDb2dPolyline
 66
     1
 10
0.0
 20
0.0
 30
0.0
 70
     1
  0
VERTEX
  5
241
330
185
100
AcDbEntity
  8
MO_001_VIEW_PV
  6
C_SOLID_L
100
AcDbVertex
100
AcDb2dVertex
 10
-18.46607399999999
 20
-30.859128
 30
0.0
  0
VERTEX
  5
242
330
185
100
AcDbEntity
  8
MO_001_VIEW_PV
  6
C_SOLID_L
100
AcDbVertex
100
AcDb2dVertex
 10
-16.06631499999999
 20
-32.433677
 30
0.0
  0
VERTEX
  5
243
330
185
100
AcDbEntity
  8
MO_001_VIEW_PV
  6
C_SOLID_L
100
AcDbVertex
100
AcDb2dVertex
 10
-17.640864
 20
-30.033918
 30
0.0
  0
SEQEND
  5
244
330
185
100
AcDbEntity
  8
MO_001_VIEW_PV
  6
C_SOLID_L
  0
ENDSEC
  0
SECTION
  2
OBJECTS
  0
DICTIONARY
  5
1A
330
0
100
AcDbDictionary
  3
ACAD_GROUP
350
1B
  3
ACAD_MLINESTYLE
350
1C
  3
ACAD_LAYOUT
350
22F
  3
ACAD_PLOTSETTINGS
350
230
1001
ACAD
1000
TREAT_AS_HARD
1070
     0
  0
DICTIONARY
  5
235
330
1E
100
AcDbDictionary
  3
ACAD_LAYOUTSELFREF
350
236
  0
DICTIONARY
  5
237
330
1F
100
AcDbDictionary
  3
ACAD_LAYOUTSELFREF
350
238
  0
DICTIONARY
  5
1B
102
{ACAD_REACTORS
330
1A
102
}
330
1A
100
AcDbDictionary
1001
ACAD
1000
TREAT_AS_HARD
1070
     0
  0
DICTIONARY
  5
1C
102
{ACAD_REACTORS
330
1A
102
}
330
1A
100
AcDbDictionary
  3
STANDARD
350
1D
1001
ACAD
1000
TREAT_AS_HARD
1070
     0
  0
DICTIONARY
  5
22F
102
{ACAD_REACTORS
330
1A
102
}
330
1A
100
AcDbDictionary
1001
ACAD
1000
TREAT_AS_HARD
1070
     0
  0
DICTIONARY
  5
230
102
{ACAD_REACTORS
330
1A
102
}
330
1A
100
AcDbDictionary
1001
ACAD
1000
TREAT_AS_HARD
1070
     0
  0
XRECORD
  5
236
102
{ACAD_REACTORS
330
235
102
}
330
235
100
AcDbXrecord
340
1E
  0
XRECORD
  5
238
102
{ACAD_REACTORS
330
237
102
}
330
237
100
AcDbXrecord
340
1F
  0
MLINESTYLE
  5
1D
102
{ACAD_REACTORS
330
1C
102
}
330
1C
100
AcDbMlineStyle
  2
STANDARD
 70
     0
  3

 62
     0
 51
90.0
 52
90.0
 71
     2
 49
0.5
 62
   256
  6
BYLAYER
 49
-0.5
 62
   256
  6
BYLAYER
  0
ENDSEC
  0
EOF
