  0
SECTION
  2
HEADER
  9
$ACADVER
  1
AC1014
  9
$ACADMAINTVER
 70
     9
  9
$DWGCODEPAGE
  3
ANSI_932
  9
$INSBASE
 10
0.0
 20
0.0
 30
0.0
  9
$EXTMIN
 10
-67.26310618920532
 20
-103.5387098833332
 30
0.0
  9
$EXTMAX
 10
364.7683703333331
 20
63.12582318725475
 30
0.0
  9
$LIMMIN
 10
-64.51978299999999
 20
-106.733551
  9
$LIMMAX
 10
88.72593700000002
 20
62.93939599999998
  9
$ORTHOMODE
 70
     0
  9
$REGENMODE
 70
     1
  9
$FILLMODE
 70
     1
  9
$QTEXTMODE
 70
     0
  9
$MIRRTEXT
 70
     1
  9
$DRAGMODE
 70
     2
  9
$LTSCALE
 40
1.0
  9
$OSMODE
 70
   511
  9
$ATTMODE
 70
     1
  9
$TEXTSIZE
 40
4.1672
  9
$TRACEWID
 40
0.05
  9
$TEXTSTYLE
  7
STANDARD
  9
$CLAYER
  8
1
  9
$CELTYPE
  6
CONTINUOUS
  9
$CECOLOR
 62
   256
  9
$CELTSCALE
 40
1.0
  9
$DELOBJ
 70
     1
  9
$DISPSILH
 70
     0
  9
$DIMSCALE
 40
1.0
  9
$DIMASZ
 40
2.0
  9
$DIMEXO
 40
0.0625
  9
$DIMDLI
 40
0.38
  9
$DIMRND
 40
0.0
  9
$DIMDLE
 40
0.0
  9
$DIMEXE
 40
0.18
  9
$DIMTP
 40
0.0
  9
$DIMTM
 40
0.0
  9
$DIMTXT
 40
0.18
  9
$DIMCEN
 40
0.09
  9
$DIMTSZ
 40
0.0
  9
$DIMTOL
 70
     0
  9
$DIMLIM
 70
     0
  9
$DIMTIH
 70
     0
  9
$DIMTOH
 70
     0
  9
$DIMSE1
 70
     0
  9
$DIMSE2
 70
     0
  9
$DIMTAD
 70
     1
  9
$DIMZIN
 70
     0
  9
$DIMBLK
  1

  9
$DIMASO
 70
     1
  9
$DIMSHO
 70
     1
  9
$DIMPOST
  1

  9
$DIMAPOST
  1

  9
$DIMALT
 70
     0
  9
$DIMALTD
 70
     2
  9
$DIMALTF
 40
25.4
  9
$DIMLFAC
 40
1.0
  9
$DIMTOFL
 70
     0
  9
$DIMTVP
 40
0.0
  9
$DIMTIX
 70
     0
  9
$DIMSOXD
 70
     0
  9
$DIMSAH
 70
     0
  9
$DIMBLK1
  1

  9
$DIMBLK2
  1

  9
$DIMSTYLE
  2
STANDARD
  9
$DIMCLRD
 70
     0
  9
$DIMCLRE
 70
     0
  9
$DIMCLRT
 70
     0
  9
$DIMTFAC
 40
1.0
  9
$DIMGAP
 40
0.09
  9
$DIMJUST
 70
     0
  9
$DIMSD1
 70
     0
  9
$DIMSD2
 70
     0
  9
$DIMTOLJ
 70
     1
  9
$DIMTZIN
 70
     0
  9
$DIMALTZ
 70
     0
  9
$DIMALTTZ
 70
     0
  9
$DIMFIT
 70
     5
  9
$DIMUPT
 70
     0
  9
$DIMUNIT
 70
     2
  9
$DIMDEC
 70
     4
  9
$DIMTDEC
 70
     4
  9
$DIMALTU
 70
     2
  9
$DIMALTTD
 70
     2
  9
$DIMTXSTY
  7
STANDARD
  9
$DIMAUNIT
 70
     0
  9
$LUNITS
 70
     2
  9
$LUPREC
 70
     6
  9
$SKETCHINC
 40
0.1
  9
$FILLETRAD
 40
0.0
  9
$AUNITS
 70
     0
  9
$AUPREC
 70
     4
  9
$MENU
  1
acad
  9
$ELEVATION
 40
0.0
  9
$PELEVATION
 40
0.0
  9
$THICKNESS
 40
0.0
  9
$LIMCHECK
 70
     0
  9
$CHAMFERA
 40
0.0
  9
$CHAMFERB
 40
0.0
  9
$CHAMFERC
 40
0.0
  9
$CHAMFERD
 40
0.0
  9
$SKPOLY
 70
     0
  9
$TDCREATE
 40
2305814.569090139
  9
$TDUPDATE
 40
2457319.808323923
  9
$TDINDWG
 40
0.070248287
  9
$TDUSRTIMER
 40
2457319.426654248
  9
$USRTIMER
 70
     1
  9
$ANGBASE
 50
0.0
  9
$ANGDIR
 70
     0
  9
$PDMODE
 70
     0
  9
$PDSIZE
 40
0.0
  9
$PLINEWID
 40
0.0
  9
$COORDS
 70
     1
  9
$SPLFRAME
 70
     0
  9
$SPLINETYPE
 70
     6
  9
$SPLINESEGS
 70
     8
  9
$ATTDIA
 70
     0
  9
$ATTREQ
 70
     1
  9
$HANDLING
 70
     1
  9
$HANDSEED
  5
328
  9
$SURFTAB1
 70
     6
  9
$SURFTAB2
 70
     6
  9
$SURFTYPE
 70
     6
  9
$SURFU
 70
     6
  9
$SURFV
 70
     6
  9
$UCSNAME
  2

  9
$UCSORG
 10
0.0
 20
0.0
 30
0.0
  9
$UCSXDIR
 10
1.0
 20
0.0
 30
0.0
  9
$UCSYDIR
 10
0.0
 20
1.0
 30
0.0
  9
$PUCSNAME
  2

  9
$PUCSORG
 10
0.0
 20
0.0
 30
0.0
  9
$PUCSXDIR
 10
1.0
 20
0.0
 30
0.0
  9
$PUCSYDIR
 10
0.0
 20
1.0
 30
0.0
  9
$USERI1
 70
     0
  9
$USERI2
 70
     0
  9
$USERI3
 70
     0
  9
$USERI4
 70
     0
  9
$USERI5
 70
     0
  9
$USERR1
 40
0.0
  9
$USERR2
 40
0.0
  9
$USERR3
 40
0.0
  9
$USERR4
 40
0.0
  9
$USERR5
 40
0.0
  9
$WORLDVIEW
 70
     1
  9
$SHADEDGE
 70
     3
  9
$SHADEDIF
 70
    70
  9
$TILEMODE
 70
     1
  9
$MAXACTVP
 70
    16
  9
$PINSBASE
 10
0.0
 20
0.0
 30
0.0
  9
$PLIMCHECK
 70
     0
  9
$PEXTMIN
 10
-64.51978299999999
 20
-106.733551
 30
1.000000000000000E+20
  9
$PEXTMAX
 10
88.72593700000002
 20
62.93939599999998
 30
-1.000000000000000E+20
  9
$PLIMMIN
 10
0.0
 20
0.0
  9
$PLIMMAX
 10
0.0
 20
0.0
  9
$UNITMODE
 70
     0
  9
$VISRETAIN
 70
     0
  9
$PLINEGEN
 70
     0
  9
$PSLTSCALE
 70
     1
  9
$TREEDEPTH
 70
  3020
  9
$PICKSTYLE
 70
     1
  9
$CMLSTYLE
  2
STANDARD
  9
$CMLJUST
 70
     0
  9
$CMLSCALE
 40
1.0
  9
$PROXYGRAPHICS
 70
     1
  9
$MEASUREMENT
 70
     0
  0
ENDSEC
  0
SECTION
  2
CLASSES
  0
CLASS
  1
ACDBDICTIONARYWDFLT
  2
AcDbDictionaryWithDefault
  3
ObjectDBX Classes
 90
        0
280
     0
281
     0
  0
CLASS
  1
ACDBPLACEHOLDER
  2
AcDbPlaceHolder
  3
ObjectDBX Classes
 90
        0
280
     0
281
     0
  0
CLASS
  1
LAYOUT
  2
AcDbLayout
  3
ObjectDBX Classes
 90
        0
280
     0
281
     0
  0
CLASS
  1
LONG_TRANSACTION
  2
AcDbLongTransaction
  3
ObjectDBX Classes
 90
        0
280
     0
281
     0
  0
CLASS
  1
LWPOLYLINE
  2
AcDbPolyline
  3
ObjectDBX Classes
 90
        0
280
     0
281
     1
  0
CLASS
  1
HATCH
  2
AcDbHatch
  3
ObjectDBX Classes
 90
        0
280
     0
281
     1
  0
CLASS
  1
XRECORD
  2
AcDbXrecord
  3
ObjectDBX Classes
 90
        0
280
     0
281
     0
  0
CLASS
  1
LONG_TRANSACTION
  2
AcDbLongTransaction
  3
ObjectDBX Classes
 90
        0
280
     0
281
     0
  0
CLASS
  1
LWPOLYLINE
  2
AcDbPolyline
  3
ObjectDBX Classes
 90
        0
280
     0
281
     1
  0
CLASS
  1
HATCH
  2
AcDbHatch
  3
ObjectDBX Classes
 90
        0
280
     0
281
     1
  0
CLASS
  1
XRECORD
  2
AcDbXrecord
  3
ObjectDBX Classes
 90
        0
280
     0
281
     0
  0
CLASS
  1
LONG_TRANSACTION
  2
AcDbLongTransaction
  3
ObjectDBX Classes
 90
        0
280
     0
281
     0
  0
CLASS
  1
LWPOLYLINE
  2
AcDbPolyline
  3
ObjectDBX Classes
 90
        0
280
     0
281
     1
  0
CLASS
  1
HATCH
  2
AcDbHatch
  3
ObjectDBX Classes
 90
        0
280
     0
281
     1
  0
CLASS
  1
XRECORD
  2
AcDbXrecord
  3
ObjectDBX Classes
 90
        0
280
     0
281
     0
  0
CLASS
  1
LONG_TRANSACTION
  2
AcDbLongTransaction
  3
ObjectDBX Classes
 90
        0
280
     0
281
     0
  0
CLASS
  1
LWPOLYLINE
  2
AcDbPolyline
  3
ObjectDBX Classes
 90
        0
280
     0
281
     1
  0
CLASS
  1
HATCH
  2
AcDbHatch
  3
ObjectDBX Classes
 90
        0
280
     0
281
     1
  0
CLASS
  1
XRECORD
  2
AcDbXrecord
  3
ObjectDBX Classes
 90
        0
280
     0
281
     0
  0
CLASS
  1
SCALE
  2
AcDbScale
  3
ObjectDBX Classes
 90
     1153
280
     0
281
     0
  0
CLASS
  1
VISUALSTYLE
  2
AcDbVisualStyle
  3
ObjectDBX Classes
 90
     4095
280
     0
281
     0
  0
CLASS
  1
MATERIAL
  2
AcDbMaterial
  3
ObjectDBX Classes
 90
     1153
280
     0
281
     0
  0
CLASS
  1
TABLESTYLE
  2
AcDbTableStyle
  3
ObjectDBX Classes
 90
     4095
280
     0
281
     0
  0
CLASS
  1
MLEADERSTYLE
  2
AcDbMLeaderStyle
  3
ACDB_MLEADERSTYLE_CLASS
 90
     4095
280
     0
281
     0
  0
CLASS
  1
SUN
  2
AcDbSun
  3
SCENEOE
 90
     1153
280
     0
281
     0
  0
CLASS
  1
RASTERVARIABLES
  2
AcDbRasterVariables
  3
ISM
 90
        0
280
     0
281
     0
  0
CLASS
  1
DIMASSOC
  2
AcDbDimAssoc
  3
"AcDbDimAssoc|Product Desc:     AcDim ARX App For Dimension|Company:          Autodesk, Inc.|WEB Address:      www.autodesk.com"
 90
        0
280
     0
281
     0
  0
CLASS
  1
DICTIONARYVAR
  2
AcDbDictionaryVar
  3
ObjectDBX Classes
 90
        0
280
     0
281
     0
  0
ENDSEC
  0
SECTION
  2
TABLES
  0
TABLE
  2
VPORT
  5
7
330
0
100
AcDbSymbolTable
 70
     1
  0
VPORT
  5
235
330
7
100
AcDbSymbolTableRecord
100
AcDbViewportTableRecord
  2
*ACTIVE
 70
     0
 10
0.0
 20
0.0
 11
1.0
 21
1.0
 12
7.348813046651486
 22
-28.66352028742631
 13
0.0
 23
0.0
 14
6.349999999999997
 24
6.349999999999997
 15
6.349999999999997
 25
6.349999999999997
 16
0.0
 26
0.0
 36
1.0
 17
0.0
 27
0.0
 37
0.0
 40
255.8987145558149
 41
1.248717948717949
 42
50.0
 43
0.0
 44
0.0
 50
0.0
 51
0.0
 71
    16
 72
   100
 73
     1
 74
     3
 75
     0
 76
     0
 77
     0
 78
     0
  0
ENDTAB
  0
TABLE
  2
LTYPE
  5
4
330
0
100
AcDbSymbolTable
 70
    37
  0
LTYPE
  5
12
330
4
100
AcDbSymbolTableRecord
100
AcDbLinetypeTableRecord
  2
BYBLOCK
 70
     0
  3

 72
    65
 73
     0
 40
0.0
  0
LTYPE
  5
13
330
4
100
AcDbSymbolTableRecord
100
AcDbLinetypeTableRecord
  2
BYLAYER
 70
     0
  3

 72
    65
 73
     0
 40
0.0
  0
LTYPE
  5
14
330
4
100
AcDbSymbolTableRecord
100
AcDbLinetypeTableRecord
  2
CONTINUOUS
 70
     0
  3
DXF Default line type
 72
    65
 73
     0
 40
0.0
  0
LTYPE
  5
20
330
4
100
AcDbSymbolTableRecord
100
AcDbLinetypeTableRecord
  2
DASHED
 70
     0
  3
DXF Dashed
 72
    65
 73
     2
 40
0.75
 49
0.5
 74
     0
 49
-0.25
 74
     0
  0
LTYPE
  5
21
330
4
100
AcDbSymbolTableRecord
100
AcDbLinetypeTableRecord
  2
HIDDEN
 70
     0
  3
DXF Hidden
 72
    65
 73
     2
 40
0.375
 49
0.25
 74
     0
 49
-0.125
 74
     0
  0
LTYPE
  5
22
330
4
100
AcDbSymbolTableRecord
100
AcDbLinetypeTableRecord
  2
CENTER
 70
     0
  3
DXF Center
 72
    65
 73
     4
 40
2.0
 49
1.25
 74
     0
 49
-0.25
 74
     0
 49
0.25
 74
     0
 49
-0.25
 74
     0
  0
LTYPE
  5
23
330
4
100
AcDbSymbolTableRecord
100
AcDbLinetypeTableRecord
  2
PHANTOM
 70
     0
  3
DXF Phantom
 72
    65
 73
     6
 40
2.5
 49
1.25
 74
     0
 49
-0.25
 74
     0
 49
0.25
 74
     0
 49
-0.25
 74
     0
 49
0.25
 74
     0
 49
-0.25
 74
     0
  0
LTYPE
  5
24
330
4
100
AcDbSymbolTableRecord
100
AcDbLinetypeTableRecord
  2
DOT
 70
     0
  3
DXF DOT
 72
    65
 73
     2
 40
0.25
 49
0.0
 74
     0
 49
-0.25
 74
     0
  0
LTYPE
  5
25
330
4
100
AcDbSymbolTableRecord
100
AcDbLinetypeTableRecord
  2
DASHDOT
 70
     0
  3
DXF Dash Dot
 72
    65
 73
     4
 40
1.0
 49
0.5
 74
     0
 49
-0.25
 74
     0
 49
0.0
 74
     0
 49
-0.25
 74
     0
  0
LTYPE
  5
26
330
4
100
AcDbSymbolTableRecord
100
AcDbLinetypeTableRecord
  2
BORDER
 70
     0
  3
DXF Border
 72
    65
 73
     6
 40
1.75
 49
0.5
 74
     0
 49
-0.25
 74
     0
 49
0.5
 74
     0
 49
-0.25
 74
     0
 49
0.0
 74
     0
 49
-0.25
 74
     0
  0
LTYPE
  5
27
330
4
100
AcDbSymbolTableRecord
100
AcDbLinetypeTableRecord
  2
DIVIDE
 70
     0
  3
DXF Divide
 72
    65
 73
     6
 40
1.25
 49
0.5
 74
     0
 49
-0.25
 74
     0
 49
0.0
 74
     0
 49
-0.25
 74
     0
 49
0.0
 74
     0
 49
-0.25
 74
     0
  0
LTYPE
  5
28
330
4
100
AcDbSymbolTableRecord
100
AcDbLinetypeTableRecord
  2
C_SOLID_L
 70
     0
  3
CADAM Solid Light
 72
    65
 73
     0
 40
0.0
  0
LTYPE
  5
29
330
4
100
AcDbSymbolTableRecord
100
AcDbLinetypeTableRecord
  2
C_SOLID_M
 70
     0
  3
CADAM Solid Medium
 72
    65
 73
     0
 40
0.0
  0
LTYPE
  5
2A
330
4
100
AcDbSymbolTableRecord
100
AcDbLinetypeTableRecord
  2
C_SOLID_H
 70
     0
  3
CADAM Solid Heavy
 72
    65
 73
     0
 40
0.0
  0
LTYPE
  5
2B
330
4
100
AcDbSymbolTableRecord
100
AcDbLinetypeTableRecord
  2
C_DASHED_L
 70
     0
  3
CADAM Dashed Light
 72
    65
 73
     2
 40
0.375
 49
0.25
 74
     0
 49
-0.125
 74
     0
  0
LTYPE
  5
2C
330
4
100
AcDbSymbolTableRecord
100
AcDbLinetypeTableRecord
  2
C_DASHED_M
 70
     0
  3
CADAM Dashed Medium
 72
    65
 73
     2
 40
0.5
 49
0.375
 74
     0
 49
-0.125
 74
     0
  0
LTYPE
  5
2D
330
4
100
AcDbSymbolTableRecord
100
AcDbLinetypeTableRecord
  2
C_CENTER_L
 70
     0
  3
CADAM Center Light
 72
    65
 73
     4
 40
2.0
 49
1.25
 74
     0
 49
-0.25
 74
     0
 49
0.25
 74
     0
 49
-0.25
 74
     0
  0
LTYPE
  5
2E
330
4
100
AcDbSymbolTableRecord
100
AcDbLinetypeTableRecord
  2
C_PHANTOM_L
 70
     0
  3
CADAM Phantom Light
 72
    65
 73
     6
 40
2.5
 49
1.25
 74
     0
 49
-0.25
 74
     0
 49
0.25
 74
     0
 49
-0.25
 74
     0
 49
0.25
 74
     0
 49
-0.25
 74
     0
  0
LTYPE
  5
2F
330
4
100
AcDbSymbolTableRecord
100
AcDbLinetypeTableRecord
  2
C_BREAK_M
 70
     0
  3
CADAM Break Medium
 72
    65
 73
     4
 40
1.0
 49
0.5
 74
     0
 49
-0.25
 74
     0
 49
0.0
 74
     0
 49
-0.25
 74
     0
  0
LTYPE
  5
30
330
4
100
AcDbSymbolTableRecord
100
AcDbLinetypeTableRecord
  2
C_NC
 70
     0
  3
CADAM NC
 72
    65
 73
     0
 40
0.0
  0
LTYPE
  5
31
330
4
100
AcDbSymbolTableRecord
100
AcDbLinetypeTableRecord
  2
DSH1
 70
     0
  3
CADAM Style2 Type 1 Dashed Line
 72
    65
 73
     2
 40
0.075
 49
0.04
 74
     0
 49
-0.035
 74
     0
  0
LTYPE
  5
32
330
4
100
AcDbSymbolTableRecord
100
AcDbLinetypeTableRecord
  2
DSH2
 70
     0
  3
CADAM Style2 Type 2 Dashed Line
 72
    65
 73
     2
 40
0.15
 49
0.11
 74
     0
 49
-0.04
 74
     0
  0
LTYPE
  5
33
330
4
100
AcDbSymbolTableRecord
100
AcDbLinetypeTableRecord
  2
DSH3
 70
     0
  3
CADAM Style2 Type 3 Dashed Line
 72
    65
 73
     2
 40
0.2
 49
0.15
 74
     0
 49
-0.05
 74
     0
  0
LTYPE
  5
34
330
4
100
AcDbSymbolTableRecord
100
AcDbLinetypeTableRecord
  2
DSH4
 70
     0
  3
CADAM Style2 Type 4 Dashed Line
 72
    65
 73
     2
 40
0.36
 49
0.28
 74
     0
 49
-0.08
 74
     0
  0
LTYPE
  5
35
330
4
100
AcDbSymbolTableRecord
100
AcDbLinetypeTableRecord
  2
DSH5
 70
     0
  3
CADAM Style2 Type 5 Dashed Line
 72
    65
 73
     2
 40
0.47
 49
0.39
 74
     0
 49
-0.08
 74
     0
  0
LTYPE
  5
36
330
4
100
AcDbSymbolTableRecord
100
AcDbLinetypeTableRecord
  2
DSH6
 70
     0
  3
CADAM Style2 Type 6 Dashed Line
 72
    65
 73
     2
 40
0.9
 49
0.81
 74
     0
 49
-0.09
 74
     0
  0
LTYPE
  5
37
330
4
100
AcDbSymbolTableRecord
100
AcDbLinetypeTableRecord
  2
PL1
 70
     0
  3
Style 2 Type 1 Phantom Line
 72
    65
 73
     6
 40
1.0
 49
0.6
 74
     0
 49
-0.08
 74
     0
 49
0.08
 74
     0
 49
-0.08
 74
     0
 49
0.08
 74
     0
 49
-0.08
 74
     0
  0
LTYPE
  5
38
330
4
100
AcDbSymbolTableRecord
100
AcDbLinetypeTableRecord
  2
PL2
 70
     0
  3
Style 2 Type 2 Phantom Line
 72
    65
 73
     6
 40
1.08
 49
0.6
 74
     0
 49
-0.08
 74
     0
 49
0.12
 74
     0
 49
-0.08
 74
     0
 49
0.12
 74
     0
 49
-0.08
 74
     0
  0
LTYPE
  5
39
330
4
100
AcDbSymbolTableRecord
100
AcDbLinetypeTableRecord
  2
PL3
 70
     0
  3
Style 2 Type 3 Phantom Line
 72
    65
 73
     6
 40
2.0
 49
1.439999999999999
 74
     0
 49
-0.08
 74
     0
 49
0.16
 74
     0
 49
-0.08
 74
     0
 49
0.16
 74
     0
 49
-0.08
 74
     0
  0
LTYPE
  5
3A
330
4
100
AcDbSymbolTableRecord
100
AcDbLinetypeTableRecord
  2
CL1
 70
     0
  3
CADAM Style 2 Type 1 Center Line
 72
    65
 73
     4
 40
0.7
 49
0.45
 74
     0
 49
-0.06
 74
     0
 49
0.13
 74
     0
 49
-0.06
 74
     0
  0
LTYPE
  5
3B
330
4
100
AcDbSymbolTableRecord
100
AcDbLinetypeTableRecord
  2
CL2
 70
     0
  3
CADAM Style 2 Type 2 Center Line
 72
    65
 73
     4
 40
1.199999999999999
 49
1.01
 74
     0
 49
-0.06
 74
     0
 49
0.11
 74
     0
 49
-0.06
 74
     0
  0
LTYPE
  5
3C
330
4
100
AcDbSymbolTableRecord
100
AcDbLinetypeTableRecord
  2
CL3
 70
     0
  3
CADAM Style 2 Type 3 Center Line
 72
    65
 73
     4
 40
1.199999999999999
 49
0.98
 74
     0
 49
-0.06
 74
     0
 49
0.1
 74
     0
 49
-0.06
 74
     0
  0
LTYPE
  5
3D
330
4
100
AcDbSymbolTableRecord
100
AcDbLinetypeTableRecord
  2
CL4
 70
     0
  3
CADAM Style 2 Type 4 Center Line
 72
    65
 73
     4
 40
2.2
 49
1.929999999999999
 74
     0
 49
-0.07
 74
     0
 49
0.13
 74
     0
 49
-0.07
 74
     0
  0
LTYPE
  5
3E
330
4
100
AcDbSymbolTableRecord
100
AcDbLinetypeTableRecord
  2
CL5
 70
     0
  3
CADAM Style 2 Type 5 Center Line
 72
    65
 73
     4
 40
2.2
 49
1.879999999999999
 74
     0
 49
-0.07
 74
     0
 49
0.18
 74
     0
 49
-0.07
 74
     0
  0
LTYPE
  5
3F
330
4
100
AcDbSymbolTableRecord
100
AcDbLinetypeTableRecord
  2
SBK1
 70
     0
  3
CADAM Style 2 Type 1 SetBack Line
 72
    65
 73
     8
 40
2.7
 49
0.1
 74
     0
 49
-0.08
 74
     0
 49
0.1
 74
     0
 49
-0.8
 74
     0
 49
0.0
 74
     0
 49
0.0
 74
     0
 49
0.0
 74
     0
 49
0.0
 74
     0
  0
LTYPE
  5
40
330
4
100
AcDbSymbolTableRecord
100
AcDbLinetypeTableRecord
  2
SBK2
 70
     0
  3
CADAM Style 2 Type 2 SetBack Line
 72
    65
 73
     8
 40
3.709999999999998
 49
0.13
 74
     0
 49
-0.08
 74
     0
 49
0.13
 74
     0
 49
-0.8
 74
     0
 49
0.0
 74
     0
 49
0.0
 74
     0
 49
0.0
 74
     0
 49
0.0
 74
     0
  0
LTYPE
  5
41
330
4
100
AcDbSymbolTableRecord
100
AcDbLinetypeTableRecord
  2
STCH
 70
     0
  3
CADAM Style2 Stitch Line
 72
    65
 73
     2
 40
0.25
 49
0.0
 74
     0
 49
-0.25
 74
     0
  0
LTYPE
  5
42
330
4
100
AcDbSymbolTableRecord
100
AcDbLinetypeTableRecord
  2
MTCH
 70
     0
  3
CADAM Style2 Match Line
 72
    65
 73
     6
 40
2.0
 49
1.439999999999999
 74
     0
 49
-0.8
 74
     0
 49
0.16
 74
     0
 49
-0.08
 74
     0
 49
0.16
 74
     0
 49
-0.08
 74
     0
  0
LTYPE
  5
43
330
4
100
AcDbSymbolTableRecord
100
AcDbLinetypeTableRecord
  2
SLD
 70
     0
  3
CADAM Solid_EXT2
 72
    65
 73
     0
 40
0.0
  0
ENDTAB
  0
TABLE
  2
LAYER
  5
2
102
{ACAD_XDICTIONARY
360
2AA
102
}
330
0
100
AcDbSymbolTable
 70
     9
  0
LAYER
  5
15
330
2
100
AcDbSymbolTableRecord
100
AcDbLayerTableRecord
  2
0
 70
     0
 62
     7
  6
CONTINUOUS
  0
LAYER
  5
44
330
2
100
AcDbSymbolTableRecord
100
AcDbLayerTableRecord
  2
MO_001_NOSHOW
 70
     1
 62
     7
  6
CONTINUOUS
  0
LAYER
  5
45
330
2
100
AcDbSymbolTableRecord
100
AcDbLayerTableRecord
  2
MO_001_VIEW_PV
 70
     0
 62
     7
  6
CONTINUOUS
  0
LAYER
  5
46
330
2
100
AcDbSymbolTableRecord
100
AcDbLayerTableRecord
  2
OVERLAY_MAP
 70
     1
 62
     7
  6
CONTINUOUS
  0
LAYER
  5
47
330
2
100
AcDbSymbolTableRecord
100
AcDbLayerTableRecord
  2
DITTOS
 70
     0
 62
     7
  6
CONTINUOUS
  0
LAYER
  5
48
330
2
100
AcDbSymbolTableRecord
100
AcDbLayerTableRecord
  2
SYMBOLS
 70
     0
 62
     7
  6
CONTINUOUS
  0
LAYER
  5
49
330
2
100
AcDbSymbolTableRecord
100
AcDbLayerTableRecord
  2
SETS
 70
     0
 62
     7
  6
CONTINUOUS
  0
LAYER
  5
DB
330
2
100
AcDbSymbolTableRecord
100
AcDbLayerTableRecord
  2
DEFPOINTS
 70
     0
 62
     7
  6
CONTINUOUS
  0
LAYER
  5
2B1
330
2
100
AcDbSymbolTableRecord
100
AcDbLayerTableRecord
  2
1
 70
     0
 62
     7
  6
CONTINUOUS
1001
ACAECLAYERSTANDARD
1000

1000

  0
ENDTAB
  0
TABLE
  2
STYLE
  5
3
330
0
100
AcDbSymbolTable
 70
     1
  0
STYLE
  5
18
330
3
100
AcDbSymbolTableRecord
100
AcDbTextStyleTableRecord
  2
STANDARD
 70
     0
 40
3.0
 41
1.0
 50
0.0
 71
     0
 42
4.1672
  3
monotxt.shx
  4
BIGFONT.shx
  0
ENDTAB
  0
TABLE
  2
VIEW
  5
5
330
0
100
AcDbSymbolTable
 70
     0
  0
ENDTAB
  0
TABLE
  2
UCS
  5
6
330
0
100
AcDbSymbolTable
 70
     0
  0
ENDTAB
  0
TABLE
  2
APPID
  5
8
330
0
100
AcDbSymbolTable
 70
     2
  0
APPID
  5
17
330
8
100
AcDbSymbolTableRecord
100
AcDbRegAppTableRecord
  2
ACAD
 70
     0
  0
APPID
  5
2B2
330
8
100
AcDbSymbolTableRecord
100
AcDbRegAppTableRecord
  2
ACAECLAYERSTANDARD
 70
     0
  0
ENDTAB
  0
TABLE
  2
DIMSTYLE
  5
9
330
0
100
AcDbSymbolTable
 70
     1
  0
DIMSTYLE
105
19
102
{ACAD_REACTORS
330
125
330
2C4
102
}
330
9
100
AcDbSymbolTableRecord
100
AcDbDimStyleTableRecord
  2
STANDARD
 70
     0
  3

  4

  5

  6

  7

 40
1.0
 41
2.0
 42
0.0625
 43
0.38
 44
0.18
 45
0.0
 46
0.0
 47
0.0
 48
0.0
140
0.18
141
0.09
142
0.0
143
25.4
144
1.0
145
0.0
146
1.0
147
0.09
 71
     0
 72
     0
 73
     0
 74
     0
 75
     0
 76
     0
 77
     1
 78
     0
170
     0
171
     2
172
     0
173
     0
174
     0
175
     0
176
     0
177
     0
178
     0
270
     2
271
     4
272
     4
273
     2
274
     2
340
18
275
     0
280
     0
281
     0
282
     0
283
     1
284
     0
285
     0
286
     0
287
     3
288
     0
  0
ENDTAB
  0
TABLE
  2
BLOCK_RECORD
  5
C
330
0
100
AcDbSymbolTable
 70
     5
  0
BLOCK_RECORD
  5
1E
102
{ACAD_XDICTIONARY
360
17E
102
}
330
C
100
AcDbSymbolTableRecord
100
AcDbBlockTableRecord
  2
*MODEL_SPACE
  0
BLOCK_RECORD
  5
1F
102
{ACAD_XDICTIONARY
360
180
102
}
330
C
100
AcDbSymbolTableRecord
100
AcDbBlockTableRecord
  2
*PAPER_SPACE
  0
BLOCK_RECORD
  5
B5
330
C
100
AcDbSymbolTableRecord
100
AcDbBlockTableRecord
  2
*D0
  0
BLOCK_RECORD
  5
DC
330
C
100
AcDbSymbolTableRecord
100
AcDbBlockTableRecord
  2
*D1
  0
BLOCK_RECORD
  5
E7
330
C
100
AcDbSymbolTableRecord
100
AcDbBlockTableRecord
  2
*D2
  0
BLOCK_RECORD
  5
126
330
C
100
AcDbSymbolTableRecord
100
AcDbBlockTableRecord
  2
*D3
  0
BLOCK_RECORD
  5
2C7
330
C
100
AcDbSymbolTableRecord
100
AcDbBlockTableRecord
  2
*D4
  0
ENDTAB
  0
ENDSEC
  0
SECTION
  2
BLOCKS
  0
BLOCK
  5
E
330
1E
100
AcDbEntity
  8
0
100
AcDbBlockBegin
  2
*MODEL_SPACE
 70
     0
 10
0.0
 20
0.0
 30
0.0
  3
*MODEL_SPACE
  1

  0
ENDBLK
  5
F
330
1E
100
AcDbEntity
  8
0
100
AcDbBlockEnd
  0
BLOCK
  5
10
330
1F
100
AcDbEntity
 67
     1
  8
0
100
AcDbBlockBegin
  2
*PAPER_SPACE
 70
     0
 10
0.0
 20
0.0
 30
0.0
  3
*PAPER_SPACE
  1

  0
ENDBLK
  5
11
330
1F
100
AcDbEntity
 67
     1
  8
0
100
AcDbBlockEnd
  0
BLOCK
  5
C9
330
B5
100
AcDbEntity
  8
0
100
AcDbBlockBegin
  2
*D0
 70
     1
 10
0.0
 20
0.0
 30
0.0
  3
*D0
  1
*D0
  0
LINE
  5
CA
330
B5
100
AcDbEntity
  8
MO_001_VIEW_PV
  6
BYBLOCK
100
AcDbLine
 10
0.0
 20
0.0
 30
0.0
 11
-28.358938
 21
7.754413999999997
 31
0.0
  0
LINE
  5
CB
330
B5
100
AcDbEntity
  8
MO_001_VIEW_PV
  6
BYBLOCK
100
AcDbLine
 10
-28.358938
 20
7.754413999999997
 30
0.0
 11
-34.484081
 21
9.429262
 31
0.0
  0
SOLID
  5
CC
330
B5
100
AcDbEntity
  8
MO_001_VIEW_PV
  6
BYBLOCK
100
AcDbTrace
 10
-31.713601
 20
8.066774
 30
0.0
 11
-28.84894899999999
 21
7.888402
 31
0.0
 12
-31.40579199999999
 22
9.192473
 32
0.0
 13
-31.40579199999999
 23
9.192473
 33
0.0
  0
LINE
  5
CD
330
B5
100
AcDbEntity
  8
MO_001_VIEW_PV
  6
BYBLOCK
100
AcDbLine
 10
-28.358938
 20
7.754413999999997
 30
0.0
 11
-45.98749699999999
 21
12.574734
 31
0.0
  0
ENDBLK
  5
CE
330
B5
100
AcDbEntity
  8
0
100
AcDbBlockEnd
  0
BLOCK
  5
E4
330
DC
100
AcDbEntity
  8
0
100
AcDbBlockBegin
  2
*D1
 70
     1
 10
0.0
 20
0.0
 30
0.0
  3
*D1
  1
*D1
  0
LINE
  5
11E
330
DC
100
AcDbEntity
  8
MO_001_VIEW_PV
  6
C_SOLID_M
 62
     0
100
AcDbLine
 10
-37.37315899333597
 20
-78.34117200346222
 30
0.0
 11
-13.51991813977427
 21
-28.34029182948235
 31
0.0
  0
MTEXT
  5
11F
330
DC
100
AcDbEntity
  8
MO_001_VIEW_PV
  6
C_SOLID_M
 62
     0
100
AcDbMText
 10
-32.41815624973193
 20
-62.90636885250967
 30
0.0
 40
4.1672
 41
0.0
 71
     5
 72
     5
  1
\A1;R29.4000
 11
0.4305705698871254
 21
0.902556914741157
 31
0.0
  0
SOLID
  5
120
330
DC
100
AcDbEntity
  8
MO_001_VIEW_PV
  6
C_SOLID_M
 62
     0
100
AcDbTrace
 10
-13.82077044468799
 20
-28.19676830618664
 30
0.0
 11
-13.21906583486055
 21
-28.48381535277805
 31
0.0
 12
-12.658777
 22
-26.53517800000003
 32
0.0
 13
-12.658777
 23
-26.53517800000003
 33
0.0
  0
LINE
  5
121
330
DC
100
AcDbEntity
  8
MO_001_VIEW_PV
  6
C_SOLID_M
 62
     0
100
AcDbLine
 10
-0.09
 20
0.0
 30
0.0
 11
0.09
 21
0.0
 31
0.0
  0
LINE
  5
122
330
DC
100
AcDbEntity
  8
MO_001_VIEW_PV
  6
C_SOLID_M
 62
     0
100
AcDbLine
 10
0.0
 20
-0.09
 30
0.0
 11
0.0
 21
0.09
 31
0.0
  0
POINT
  5
123
330
DC
100
AcDbEntity
  8
DEFPOINTS
  6
C_SOLID_M
 62
     0
100
AcDbPoint
 10
-12.658777
 20
-26.53517800000003
 30
0.0
  0
POINT
  5
124
330
DC
100
AcDbEntity
  8
DEFPOINTS
  6
C_SOLID_M
 62
     0
100
AcDbPoint
 10
0.0
 20
0.0
 30
0.0
  0
ENDBLK
  5
E5
330
DC
100
AcDbEntity
  8
0
100
AcDbBlockEnd
  0
BLOCK
  5
F3
330
E7
100
AcDbEntity
  8
0
100
AcDbBlockBegin
  2
*D2
 70
     1
 10
0.0
 20
0.0
 30
0.0
  3
*D2
  1
*D2
  0
LINE
  5
258
330
E7
100
AcDbEntity
  8
0
  6
CONTINUOUS
 62
     0
100
AcDbLine
 10
0.0
 20
47.912498
 30
0.0
 11
0.0000000000000036
 21
56.31301203442921
 31
0.0
  0
LINE
  5
259
330
E7
100
AcDbEntity
  8
0
  6
CONTINUOUS
 62
     0
100
AcDbLine
 10
-26.03803484528657
 20
23.85945637516842
 30
0.0
 11
-41.51831321174991
 21
38.0445101094428
 31
0.0
  0
ARC
  5
25A
330
E7
100
AcDbEntity
  8
0
  6
CONTINUOUS
 62
     0
100
AcDbCircle
 10
-0.0000000000000008
 20
0.0000066500610814
 30
0.0
 40
56.13300538436813
100
AcDbArc
 50
92.04153724521652
 51
135.4584786797198
  0
SOLID
  5
25B
330
E7
100
AcDbEntity
  8
0
  6
CONTINUOUS
 62
     0
100
AcDbTrace
 10
-2.005620883588228
 20
56.43066280702335
 30
0.0
 11
-1.993744329641014
 21
55.76410193815181
 31
0.0
 12
0.0000000000000036
 22
56.13301203442922
 32
0.0
 13
0.0000000000000036
 23
56.13301203442922
 33
0.0
  0
SOLID
  5
25C
330
E7
100
AcDbEntity
  8
0
  6
CONTINUOUS
 62
     0
100
AcDbTrace
 10
-39.76666039771151
 20
39.14361482003336
 30
0.0
 11
-40.2500770639854
 21
39.60269299552539
 31
0.0
 12
-41.38560325732454
 22
37.92290390895773
 32
0.0
 13
-41.38560325732454
 23
37.92290390895773
 33
0.0
  0
POINT
  5
25D
330
E7
100
AcDbEntity
  8
DEFPOINTS
  6
CONTINUOUS
 62
     0
100
AcDbPoint
 10
-29.468522063194
 20
47.77573794632226
 30
0.0
  0
POINT
  5
25E
330
E7
100
AcDbEntity
  8
DEFPOINTS
  6
CONTINUOUS
 62
     0
100
AcDbPoint
 10
0.0
 20
47.849998
 30
0.0
  0
POINT
  5
25F
330
E7
100
AcDbEntity
  8
DEFPOINTS
  6
CONTINUOUS
 62
     0
100
AcDbPoint
 10
-17.828857
 20
16.33713499999998
 30
0.0
  0
POINT
  5
260
330
E7
100
AcDbEntity
  8
DEFPOINTS
  6
CONTINUOUS
 62
     0
100
AcDbPoint
 10
-25.99195499999999
 20
23.81723199999999
 30
0.0
  0
POINT
  5
261
330
E7
100
AcDbEntity
  8
DEFPOINTS
  6
CONTINUOUS
 62
     0
100
AcDbPoint
 10
0.0
 20
-47.849998
 30
0.0
  0
ENDBLK
  5
F4
330
E7
100
AcDbEntity
  8
0
100
AcDbBlockEnd
  0
BLOCK
  5
12E
330
126
100
AcDbEntity
  8
0
100
AcDbBlockBegin
  2
*D3
 70
     1
 10
0.0
 20
0.0
 30
0.0
  3
*D3
  1
*D3
  0
LINE
  5
201
330
126
100
AcDbEntity
  8
0
  6
CONTINUOUS
 62
     0
100
AcDbLine
 10
-20.79519960908329
 20
23.49460640978384
 30
0.0
 11
-41.2153060797151
 21
46.53681490494942
 31
0.0
  0
MTEXT
  5
202
330
126
100
AcDbEntity
  8
0
  6
CONTINUOUS
 62
     0
100
AcDbMText
 10
-33.6022838776389
 20
41.71559107684364
 30
0.0
 40
3.0
 41
0.0
 71
     5
 72
     1
  1
\A2;R29.4{\H0.090000;%%p0.1}
 11
0.6632407702608837
 21
-0.7484060934170362
 31
0.0
  0
SOLID
  5
203
330
126
100
AcDbEntity
  8
0
 62
     0
100
AcDbTrace
 10
-21.04466830688897
 20
23.27352615303021
 30
0.0
 11
-20.54573091127761
 21
23.71568666653747
 31
0.0
 12
-19.46871806856152
 22
21.99779422294977
 32
0.0
 13
-19.46871806856152
 23
21.99779422294977
 33
0.0
  0
LINE
  5
204
330
126
100
AcDbEntity
  8
0
  6
CONTINUOUS
 62
     0
100
AcDbLine
 10
-0.0594361066876827
 20
-0.0053486655415682
 30
0.0
 11
0.1205638933123172
 21
-0.0053486655415682
 31
0.0
  0
LINE
  5
205
330
126
100
AcDbEntity
  8
0
  6
CONTINUOUS
 62
     0
100
AcDbLine
 10
0.0305638933123172
 20
-0.0953486655415682
 30
0.0
 11
0.0305638933123172
 21
0.0846513344584318
 31
0.0
  0
POINT
  5
206
330
126
100
AcDbEntity
  8
DEFPOINTS
 62
     0
100
AcDbPoint
 10
-19.46871806856152
 20
21.99779422294977
 30
0.0
  0
POINT
  5
207
330
126
100
AcDbEntity
  8
DEFPOINTS
 62
     0
100
AcDbPoint
 10
0.0305638933123172
 20
-0.0053486655415682
 30
0.0
  0
ENDBLK
  5
12F
330
126
100
AcDbEntity
  8
0
100
AcDbBlockEnd
  0
BLOCK
  5
2C8
330
2C7
100
AcDbEntity
  8
0
100
AcDbBlockBegin
  2
*D4
 70
     1
 10
0.0
 20
0.0
 30
0.0
  3
*D4
  1
*D4
  0
LINE
  5
2CA
330
2C7
100
AcDbEntity
  8
1
  6
CONTINUOUS
 62
     0
100
AcDbLine
 10
0.0
 20
47.912498
 30
0.0
 11
0.0
 21
56.73183633640495
 31
0.0
  0
LINE
  5
2CB
330
2C7
100
AcDbEntity
  8
1
  6
CONTINUOUS
 62
     0
100
AcDbLine
 10
-7.64386045966278
 20
34.4793305040383
 30
0.0
 11
-12.27898888590779
 21
55.38706999433253
 31
0.0
  0
ARC
  5
2CC
330
2C7
100
AcDbEntity
  8
1
  6
CONTINUOUS
 62
     0
100
AcDbCircle
 10
0.0
 20
0.0000607850201035
 30
0.0
 40
56.55177555138484
100
AcDbArc
 50
92.02641792586056
 51
100.4735668546551
  0
SOLID
  5
2CD
330
2C7
100
AcDbEntity
  8
1
 62
     0
100
AcDbTrace
 10
-1.993792986636109
 20
56.18318929986216
 30
0.0
 11
-2.00558159380479
 21
56.84975172993565
 31
0.0
 12
0.0
 22
56.55183633640495
 32
0.0
 13
0.0
 23
56.55183633640495
 33
0.0
  0
SOLID
  5
2CE
330
2C7
100
AcDbEntity
  8
1
 62
     0
100
AcDbTrace
 10
-10.34646900029007
 20
55.93627711476355
 30
0.0
 11
-10.21370782890743
 21
55.2829633189368
 31
0.0
 12
-12.24002980207899
 22
55.21133670270223
 32
0.0
 13
-12.24002980207899
 23
55.21133670270223
 33
0.0
  0
MTEXT
  5
2CF
330
2C7
100
AcDbEntity
  8
1
  6
CONTINUOUS
 62
     0
100
AcDbMText
 10
-6.329705726417955
 20
57.79626212805444
 30
0.0
 40
3.0
 41
0.0
 71
     5
 72
     1
  1
 
 11
0.9940563526814709
 21
0.1088667428263152
 31
0.0
  0
POINT
  5
2D0
330
2C7
100
AcDbEntity
  8
DEFPOINTS
 62
     0
100
AcDbPoint
 10
-4.10893225827399
 20
56.40236564671103
 30
0.0
  0
POINT
  5
2D1
330
2C7
100
AcDbEntity
  8
DEFPOINTS
 62
     0
100
AcDbPoint
 10
0.0000134756975854
 20
0.0
 30
0.0
  0
POINT
  5
2D2
330
2C7
100
AcDbEntity
  8
DEFPOINTS
 62
     0
100
AcDbPoint
 10
0.0
 20
47.849998
 30
0.0
  0
POINT
  5
2D3
330
2C7
100
AcDbEntity
  8
DEFPOINTS
 62
     0
100
AcDbPoint
 10
0.0
 20
-47.849998
 30
0.0
  0
POINT
  5
2D4
330
2C7
100
AcDbEntity
  8
DEFPOINTS
 62
     0
100
AcDbPoint
 10
-7.630333
 20
34.418312
 30
0.0
  0
ENDBLK
  5
2C9
330
2C7
100
AcDbEntity
  8
0
100
AcDbBlockEnd
  0
ENDSEC
  0
SECTION
  2
ENTITIES
  0
TEXT
  5
4B
330
1E
100
AcDbEntity
  8
OVERLAY_MAP
  6
C_SOLID_L
100
AcDbText
 10
0.0
 20
6.349999999999997
 30
0.0
 40
4.1672
  1
Model Overlay Name
100
AcDbText
  0
TEXT
  5
4C
330
1E
100
AcDbEntity
  8
OVERLAY_MAP
  6
C_SOLID_L
100
AcDbText
 10
126.999998
 20
0.0
 30
0.0
 40
4.1672
  1
Number
100
AcDbText
  0
TEXT
  5
4D
330
1E
100
AcDbEntity
  8
OVERLAY_MAP
  6
C_SOLID_L
100
AcDbText
 10
177.7999969999999
 20
0.0
 30
0.0
 40
4.1672
  1
File Text
100
AcDbText
  0
TEXT
  5
4E
330
1E
100
AcDbEntity
  8
OVERLAY_MAP
  6
C_SOLID_L
100
AcDbText
 10
0.0
 20
-6.349999999999997
 30
0.0
 40
4.1672
  1
rs 8l6 
100
AcDbText
  0
TEXT
  5
4F
330
1E
100
AcDbEntity
  8
OVERLAY_MAP
  6
C_SOLID_L
100
AcDbText
 10
126.999998
 20
-6.349999999999997
 30
0.0
 40
4.1672
  1
001
100
AcDbText
  0
TEXT
  5
50
330
1E
100
AcDbEntity
  8
OVERLAY_MAP
  6
C_SOLID_L
100
AcDbText
 10
177.7999969999999
 20
-6.349999999999997
 30
0.0
 40
4.1672
  1
                                                                   00139
100
AcDbText
  0
CIRCLE
  5
51
330
1E
100
AcDbEntity
  8
MO_001_VIEW_PV
  6
C_SOLID_M
100
AcDbCircle
 10
0.0
 20
0.0
 30
0.0
 40
37.75
  0
ARC
  5
52
330
1E
100
AcDbEntity
  8
MO_001_VIEW_PV
  6
C_SOLID_M
100
AcDbCircle
 10
0.0
 20
0.0
 30
0.0
 40
16.949997
100
AcDbArc
 50
57.196779
 51
97.80317899999999
  0
LINE
  5
53
330
1E
100
AcDbEntity
  8
1
  6
C_CENTER_L
100
AcDbLine
 10
-47.850006
 20
0.0
 30
0.0
 11
47.850006
 21
0.0
 31
0.0
  0
ARC
  5
54
330
1E
100
AcDbEntity
  8
1
  6
C_SOLID_M
100
AcDbCircle
 10
-25.461151
 20
14.700001
 30
0.0
 40
3.968999999999999
100
AcDbArc
 50
329.8939910000001
 51
150.081973
  0
ARC
  5
55
330
1E
100
AcDbEntity
  8
1
  6
C_SOLID_M
100
AcDbCircle
 10
-29.28811599999999
 20
2.562387999999998
 30
0.0
 40
3.968999999999999
100
AcDbArc
 50
174.9179650000001
 51
355.1060949999999
  0
ARC
  5
56
330
1E
100
AcDbEntity
  8
1
  6
C_SOLID_M
100
AcDbCircle
 10
0.0
 20
0.0
 30
0.0
 40
25.43099999999999
100
AcDbArc
 50
149.9834
 51
175.016535
  0
ARC
  5
57
330
1E
100
AcDbEntity
  8
1
  6
C_SOLID_M
100
AcDbCircle
 10
0.0
 20
0.0
 30
0.0
 40
33.368988
100
AcDbArc
 50
149.99023
 51
175.0097590000001
  0
CIRCLE
  5
58
330
1E
100
AcDbEntity
  8
1
  6
C_SOLID_M
100
AcDbCircle
 10
-21.675964
 20
-19.86234899999998
 30
0.0
 40
2.149999999999999
  0
LINE
  5
59
330
1E
100
AcDbEntity
  8
1
  6
C_CENTER_L
100
AcDbLine
 10
0.0
 20
47.849998
 30
0.0
 11
0.0
 21
-47.849998
 31
0.0
  0
ARC
  5
5A
330
1E
100
AcDbEntity
  8
1
  6
C_SOLID_M
100
AcDbCircle
 10
25.461151
 20
14.699982
 30
0.0
 40
3.968999999999999
100
AcDbArc
 50
209.893943
 51
30.08198700000004
  0
ARC
  5
5B
330
1E
100
AcDbEntity
  8
1
  6
C_SOLID_M
100
AcDbCircle
 10
16.863129
 20
24.083078
 30
0.0
 40
3.968999999999999
100
AcDbArc
 50
54.91798900000012
 51
235.1060840000001
  0
ARC
  5
5C
330
1E
100
AcDbEntity
  8
1
  6
C_SOLID_M
100
AcDbCircle
 10
0.0
 20
0.0
 30
0.0
 40
25.43099999999999
100
AcDbArc
 50
29.98341400000009
 51
55.01654900000001
  0
ARC
  5
5D
330
1E
100
AcDbEntity
  8
1
  6
C_SOLID_M
100
AcDbCircle
 10
0.0
 20
0.0
 30
0.0
 40
33.368988
100
AcDbArc
 50
29.99024400000028
 51
55.009773
  0
ARC
  5
5E
330
1E
100
AcDbEntity
  8
1
  6
C_SOLID_M
100
AcDbCircle
 10
0.0
 20
-29.400007
 30
0.0
 40
3.968999999999999
100
AcDbArc
 50
89.893967
 51
270.081987
  0
ARC
  5
5F
330
1E
100
AcDbEntity
  8
1
  6
C_SOLID_M
100
AcDbCircle
 10
12.424988
 20
-26.645445
 30
0.0
 40
3.968999999999999
100
AcDbArc
 50
294.917996
 51
115.106091
  0
ARC
  5
60
330
1E
100
AcDbEntity
  8
1
  6
C_SOLID_M
100
AcDbCircle
 10
0.0
 20
0.0
 30
0.0
 40
25.43099999999999
100
AcDbArc
 50
269.983414
 51
295.0165490000001
  0
ARC
  5
61
330
1E
100
AcDbEntity
  8
1
  6
C_SOLID_M
100
AcDbCircle
 10
0.0
 20
0.0
 30
0.0
 40
33.368988
100
AcDbArc
 50
269.9902440000001
 51
295.009773
  0
ARC
  5
62
330
1E
100
AcDbEntity
  8
MO_001_VIEW_PV
  6
C_SOLID_M
100
AcDbCircle
 10
13.863403
 20
-3.073437999999999
 30
0.0
 40
3.799999999999998
100
AcDbArc
 50
298.7964440000001
 51
36.20348299999999
  0
ARC
  5
63
330
1E
100
AcDbEntity
  8
MO_001_VIEW_PV
  6
C_SOLID_M
100
AcDbCircle
 10
9.593384
 20
10.469347
 30
0.0
 40
3.799999999999998
100
AcDbArc
 50
358.796479
 51
96.20352199999999
  0
ARC
  5
64
330
1E
100
AcDbEntity
  8
MO_001_VIEW_PV
  6
C_SOLID_M
100
AcDbCircle
 10
-4.270019999999997
 20
13.54278599999999
 30
0.0
 40
3.799999999999998
100
AcDbArc
 50
58.796481
 51
156.203503
  0
ARC
  5
65
330
1E
100
AcDbEntity
  8
MO_001_VIEW_PV
  6
C_SOLID_M
100
AcDbCircle
 10
-13.863403
 20
3.073437999999999
 30
0.0
 40
3.799999999999998
100
AcDbArc
 50
118.796469
 51
216.203491
  0
ARC
  5
66
330
1E
100
AcDbEntity
  8
MO_001_VIEW_PV
  6
C_SOLID_M
100
AcDbCircle
 10
-9.593384
 20
-10.469347
 30
0.0
 40
3.799999999999998
100
AcDbArc
 50
178.7964569999999
 51
276.203479
  0
ARC
  5
67
330
1E
100
AcDbEntity
  8
MO_001_VIEW_PV
  6
C_SOLID_M
100
AcDbCircle
 10
4.270019999999997
 20
-13.54278599999999
 30
0.0
 40
3.799999999999998
100
AcDbArc
 50
238.7964629999999
 51
336.203481
  0
CIRCLE
  5
68
330
1E
100
AcDbEntity
  8
MO_001_VIEW_PV
  6
C_SOLID_M
100
AcDbCircle
 10
0.0
 20
0.0
 30
0.0
 40
38.150002
  0
CIRCLE
  5
69
330
1E
100
AcDbEntity
  8
MO_001_VIEW_PV
  6
C_SOLID_M
100
AcDbCircle
 10
0.0
 20
0.0
 30
0.0
 40
38.36436099999996
  0
CIRCLE
  5
6A
330
1E
100
AcDbEntity
  8
MO_001_VIEW_PV
  6
C_SOLID_M
100
AcDbCircle
 10
0.0
 20
0.0
 30
0.0
 40
41.799999
  0
CIRCLE
  5
6B
330
1E
100
AcDbEntity
  8
MO_001_VIEW_PV
  6
C_SOLID_M
100
AcDbCircle
 10
0.0
 20
0.0
 30
0.0
 40
42.849998
  0
CIRCLE
  5
6C
330
1E
100
AcDbEntity
  8
MO_001_VIEW_PV
  6
C_SOLID_M
100
AcDbCircle
 10
0.0
 20
0.0
 30
0.0
 40
5.409408999999999
  0
CIRCLE
  5
6D
330
1E
100
AcDbEntity
  8
MO_001_VIEW_PV
  6
C_SOLID_M
100
AcDbCircle
 10
0.0
 20
0.0
 30
0.0
 40
5.554999999999997
  0
ARC
  5
6E
330
1E
100
AcDbEntity
  8
MO_001_VIEW_PV
  6
C_SOLID_M
100
AcDbCircle
 10
0.0
 20
0.0
 30
0.0
 40
16.949997
100
AcDbArc
 50
117.196784
 51
157.803229
  0
ARC
  5
6F
330
1E
100
AcDbEntity
  8
MO_001_VIEW_PV
  6
C_SOLID_M
100
AcDbCircle
 10
0.0
 20
0.0
 30
0.0
 40
16.949997
100
AcDbArc
 50
177.196827
 51
217.803231
  0
ARC
  5
70
330
1E
100
AcDbEntity
  8
MO_001_VIEW_PV
  6
C_SOLID_M
100
AcDbCircle
 10
0.0
 20
0.0
 30
0.0
 40
16.949997
100
AcDbArc
 50
237.1967779999999
 51
277.803174
  0
ARC
  5
71
330
1E
100
AcDbEntity
  8
MO_001_VIEW_PV
  6
C_SOLID_M
100
AcDbCircle
 10
0.0
 20
0.0
 30
0.0
 40
16.949997
100
AcDbArc
 50
297.1967730000001
 51
337.8032210000001
  0
ARC
  5
72
330
1E
100
AcDbEntity
  8
MO_001_VIEW_PV
  6
C_SOLID_M
100
AcDbCircle
 10
0.0
 20
0.0
 30
0.0
 40
16.949997
100
AcDbArc
 50
357.196821
 51
37.803222
  0
ARC
  5
73
330
1E
100
AcDbEntity
  8
MO_001_VIEW_PV
  6
C_SOLID_M
100
AcDbCircle
 10
13.038879
 20
14.229444
 30
0.0
 40
4.75
100
AcDbArc
 50
173.4921869999999
 51
281.507831
  0
ARC
  5
74
330
1E
100
AcDbEntity
  8
MO_001_VIEW_PV
  6
C_SOLID_M
100
AcDbCircle
 10
-5.803619
 20
18.406734
 30
0.0
 40
4.75
100
AcDbArc
 50
233.4921919999999
 51
341.5078129999999
  0
ARC
  5
75
330
1E
100
AcDbEntity
  8
MO_001_VIEW_PV
  6
C_SOLID_M
100
AcDbCircle
 10
-18.842529
 20
4.177264
 30
0.0
 40
4.75
100
AcDbArc
 50
293.492187
 51
41.50781099999996
  0
ARC
  5
76
330
1E
100
AcDbEntity
  8
MO_001_VIEW_PV
  6
C_SOLID_M
100
AcDbCircle
 10
-13.038879
 20
-14.22945
 30
0.0
 40
4.75
100
AcDbArc
 50
353.492191
 51
101.507813
  0
ARC
  5
77
330
1E
100
AcDbEntity
  8
MO_001_VIEW_PV
  6
C_SOLID_M
100
AcDbCircle
 10
5.803619
 20
-18.406738
 30
0.0
 40
4.75
100
AcDbArc
 50
53.49219100000001
 51
161.507814
  0
ARC
  5
78
330
1E
100
AcDbEntity
  8
MO_001_VIEW_PV
  6
C_SOLID_M
100
AcDbCircle
 10
18.842529
 20
-4.177266
 30
0.0
 40
4.75
100
AcDbArc
 50
113.4921919999999
 51
221.507816
  0
CIRCLE
  5
7A
330
1E
100
AcDbEntity
  8
1
  6
C_SOLID_L
100
AcDbCircle
 10
-21.675964
 20
-19.86234899999998
 30
0.0
 40
2.5
  0
CIRCLE
  5
7B
330
1E
100
AcDbEntity
  8
1
  6
C_SOLID_M
100
AcDbCircle
 10
-6.363312
 20
28.70311
 30
0.0
 40
2.149999999999999
  0
ARC
  5
7C
330
1E
100
AcDbEntity
  8
1
  6
C_CENTER_L
100
AcDbCircle
 10
0.0
 20
0.0
 30
0.0
 40
29.400005
100
AcDbArc
 50
91.39021900000004
 51
137.5000063699107
  0
LINE
  5
7D
330
1E
100
AcDbEntity
  8
1
  6
C_CENTER_L
100
AcDbLine
 10
0.0000134756975854
 20
0.0
 30
0.0
 11
-7.630333
 21
34.418312
 31
0.0
  0
CIRCLE
  5
7E
330
1E
100
AcDbEntity
  8
1
  6
C_SOLID_L
100
AcDbCircle
 10
-6.363312
 20
28.70311
 30
0.0
 40
2.5
  0
CIRCLE
  5
7F
330
1E
100
AcDbEntity
  8
1
  6
C_SOLID_M
100
AcDbCircle
 10
28.039276
 20
-8.840764999999998
 30
0.0
 40
2.149999999999999
  0
ARC
  5
80
330
1E
100
AcDbEntity
  8
1
  6
C_CENTER_L
100
AcDbCircle
 10
0.0
 20
0.0
 30
0.0
 40
29.400005
100
AcDbArc
 50
331.3902189999999
 51
352.724534
  0
LINE
  5
81
330
1E
100
AcDbEntity
  8
1
  6
C_CENTER_L
100
AcDbLine
 10
23.06279899999999
 20
-7.271691999999998
 30
0.0
 11
33.62228599999999
 21
-10.601089
 31
0.0
  0
CIRCLE
  5
82
330
1E
100
AcDbEntity
  8
1
  6
C_SOLID_L
100
AcDbCircle
 10
28.039276
 20
-8.840764999999998
 30
0.0
 40
2.5
  0
LINE
  5
83
330
1E
100
AcDbEntity
  8
MO_001_VIEW_PV
  6
C_SOLID_M
100
AcDbLine
 10
16.149994
 20
-39.690056
 30
0.0
 11
16.149994
 21
-62.850006
 31
0.0
  0
LINE
  5
84
330
1E
100
AcDbEntity
  8
MO_001_VIEW_PV
  6
C_SOLID_M
100
AcDbLine
 10
12.45001199999999
 20
-41.001469
 30
0.0
 11
12.45001199999999
 21
-62.850006
 31
0.0
  0
LINE
  5
85
330
1E
100
AcDbEntity
  8
MO_001_VIEW_PV
  6
C_SOLID_M
100
AcDbLine
 10
12.45001199999999
 20
-62.850006
 30
0.0
 11
16.149994
 21
-62.850006
 31
0.0
  0
LINE
  5
86
330
1E
100
AcDbEntity
  8
MO_001_VIEW_PV
  6
C_SOLID_M
100
AcDbLine
 10
15.335022
 20
-62.850006
 30
0.0
 11
15.335022
 21
-67.850014
 31
0.0
  0
LINE
  5
87
330
1E
100
AcDbEntity
  8
MO_001_VIEW_PV
  6
C_SOLID_M
100
AcDbLine
 10
13.26499899999999
 20
-62.850006
 30
0.0
 11
13.26499899999999
 21
-67.850014
 31
0.0
  0
ARC
  5
88
330
1E
100
AcDbEntity
  8
MO_001_VIEW_PV
  6
C_SOLID_M
100
AcDbCircle
 10
14.81750499999999
 20
-68.26061999999999
 30
0.0
 40
0.660612
100
AcDbArc
 50
38.43059599999999
 51
141.569399
  0
ARC
  5
89
330
1E
100
AcDbEntity
  8
MO_001_VIEW_PV
  6
C_SOLID_M
100
AcDbCircle
 10
13.782501
 20
-67.43939199999998
 30
0.0
 40
0.660612
100
AcDbArc
 50
218.4306009999999
 51
321.569404
  0
ARC
  5
8A
330
1E
100
AcDbEntity
  8
MO_001_VIEW_PV
  6
C_SOLID_M
100
AcDbCircle
 10
14.81750499999999
 20
-67.43939199999998
 30
0.0
 40
0.660612
100
AcDbArc
 50
218.4306009999999
 51
321.569404
  0
ARC
  5
8B
330
1E
100
AcDbEntity
  8
MO_001_VIEW_PV
  6
C_SOLID_M
100
AcDbCircle
 10
13.782501
 20
-69.26061999999999
 30
0.0
 40
0.660612
100
AcDbArc
 50
38.43059599999999
 51
141.569399
  0
ARC
  5
8C
330
1E
100
AcDbEntity
  8
MO_001_VIEW_PV
  6
C_SOLID_M
100
AcDbCircle
 10
13.782501
 20
-68.439392
 30
0.0
 40
0.660612
100
AcDbArc
 50
218.4306009999999
 51
321.569404
  0
ARC
  5
8D
330
1E
100
AcDbEntity
  8
MO_001_VIEW_PV
  6
C_SOLID_M
100
AcDbCircle
 10
14.81750499999999
 20
-69.26061999999999
 30
0.0
 40
0.660612
100
AcDbArc
 50
38.43059599999999
 51
141.569399
  0
LINE
  5
8E
330
1E
100
AcDbEntity
  8
MO_001_VIEW_PV
  6
C_SOLID_M
100
AcDbLine
 10
13.265015
 20
-68.85000600000001
 30
0.0
 11
13.265015
 21
-73.350006
 31
0.0
  0
LINE
  5
8F
330
1E
100
AcDbEntity
  8
MO_001_VIEW_PV
  6
C_SOLID_M
100
AcDbLine
 10
15.334991
 20
-68.85000600000001
 30
0.0
 11
15.334991
 21
-73.350006
 31
0.0
  0
LINE
  5
90
330
1E
100
AcDbEntity
  8
MO_001_VIEW_PV
  6
C_SOLID_M
100
AcDbLine
 10
13.265015
 20
-73.350006
 30
0.0
 11
15.334991
 21
-73.350006
 31
0.0
  0
LINE
  5
91
330
1E
100
AcDbEntity
  8
MO_001_VIEW_PV
  6
C_SOLID_M
100
AcDbLine
 10
14.799988
 20
-73.350006
 30
0.0
 11
14.799988
 21
-78.350006
 31
0.0
  0
LINE
  5
92
330
1E
100
AcDbEntity
  8
MO_001_VIEW_PV
  6
C_SOLID_M
100
AcDbLine
 10
13.800003
 20
-73.350006
 30
0.0
 11
13.800003
 21
-78.350006
 31
0.0
  0
LINE
  5
93
330
1E
100
AcDbEntity
  8
MO_001_VIEW_PV
  6
C_SOLID_M
100
AcDbLine
 10
13.800003
 20
-78.350006
 30
0.0
 11
14.799988
 21
-78.350006
 31
0.0
  0
LINE
  5
94
330
1E
100
AcDbEntity
  8
MO_001_VIEW_PV
  6
C_SOLID_M
100
AcDbLine
 10
-12.45001199999999
 20
-41.001465
 30
0.0
 11
-12.45001199999999
 21
-62.850006
 31
0.0
  0
LINE
  5
95
330
1E
100
AcDbEntity
  8
MO_001_VIEW_PV
  6
C_SOLID_M
100
AcDbLine
 10
-16.149994
 20
-39.69005999999996
 30
0.0
 11
-16.149994
 21
-62.850006
 31
0.0
  0
LINE
  5
96
330
1E
100
AcDbEntity
  8
MO_001_VIEW_PV
  6
C_SOLID_M
100
AcDbLine
 10
-16.149994
 20
-62.850006
 30
0.0
 11
-12.45001199999999
 21
-62.850006
 31
0.0
  0
LINE
  5
97
330
1E
100
AcDbEntity
  8
MO_001_VIEW_PV
  6
C_SOLID_M
100
AcDbLine
 10
-13.26499899999999
 20
-62.850006
 30
0.0
 11
-13.26499899999999
 21
-67.850014
 31
0.0
  0
LINE
  5
98
330
1E
100
AcDbEntity
  8
MO_001_VIEW_PV
  6
C_SOLID_M
100
AcDbLine
 10
-15.335007
 20
-62.850006
 30
0.0
 11
-15.335007
 21
-67.850014
 31
0.0
  0
ARC
  5
99
330
1E
100
AcDbEntity
  8
MO_001_VIEW_PV
  6
C_SOLID_M
100
AcDbCircle
 10
-13.782501
 20
-68.26061999999999
 30
0.0
 40
0.660612
100
AcDbArc
 50
38.43059599999999
 51
141.569399
  0
ARC
  5
9A
330
1E
100
AcDbEntity
  8
MO_001_VIEW_PV
  6
C_SOLID_M
100
AcDbCircle
 10
-14.81750499999999
 20
-67.43939199999998
 30
0.0
 40
0.660612
100
AcDbArc
 50
218.4306009999999
 51
321.569404
  0
ARC
  5
9B
330
1E
100
AcDbEntity
  8
MO_001_VIEW_PV
  6
C_SOLID_M
100
AcDbCircle
 10
-13.782501
 20
-67.43939199999998
 30
0.0
 40
0.660612
100
AcDbArc
 50
218.4306009999999
 51
321.569404
  0
ARC
  5
9C
330
1E
100
AcDbEntity
  8
MO_001_VIEW_PV
  6
C_SOLID_M
100
AcDbCircle
 10
-14.81750499999999
 20
-69.26061999999999
 30
0.0
 40
0.660612
100
AcDbArc
 50
38.43059599999999
 51
141.569399
  0
ARC
  5
9D
330
1E
100
AcDbEntity
  8
MO_001_VIEW_PV
  6
C_SOLID_M
100
AcDbCircle
 10
-14.81750499999999
 20
-68.439392
 30
0.0
 40
0.660612
100
AcDbArc
 50
218.4306009999999
 51
321.569404
  0
ARC
  5
9E
330
1E
100
AcDbEntity
  8
MO_001_VIEW_PV
  6
C_SOLID_M
100
AcDbCircle
 10
-13.782501
 20
-69.26061999999999
 30
0.0
 40
0.660612
100
AcDbArc
 50
38.43059599999999
 51
141.569399
  0
LINE
  5
9F
330
1E
100
AcDbEntity
  8
MO_001_VIEW_PV
  6
C_SOLID_M
100
AcDbLine
 10
-15.334991
 20
-68.85000600000001
 30
0.0
 11
-15.334991
 21
-73.350006
 31
0.0
  0
LINE
  5
A0
330
1E
100
AcDbEntity
  8
MO_001_VIEW_PV
  6
C_SOLID_M
100
AcDbLine
 10
-13.265015
 20
-68.85000600000001
 30
0.0
 11
-13.265015
 21
-73.350006
 31
0.0
  0
LINE
  5
A1
330
1E
100
AcDbEntity
  8
MO_001_VIEW_PV
  6
C_SOLID_M
100
AcDbLine
 10
-15.334991
 20
-73.350006
 30
0.0
 11
-13.265015
 21
-73.350006
 31
0.0
  0
LINE
  5
A2
330
1E
100
AcDbEntity
  8
MO_001_VIEW_PV
  6
C_SOLID_M
100
AcDbLine
 10
-13.800003
 20
-73.350006
 30
0.0
 11
-13.800003
 21
-78.350006
 31
0.0
  0
LINE
  5
A3
330
1E
100
AcDbEntity
  8
MO_001_VIEW_PV
  6
C_SOLID_M
100
AcDbLine
 10
-14.800003
 20
-73.350006
 30
0.0
 11
-14.800003
 21
-78.350006
 31
0.0
  0
LINE
  5
A4
330
1E
100
AcDbEntity
  8
MO_001_VIEW_PV
  6
C_SOLID_M
100
AcDbLine
 10
-14.800003
 20
-78.350006
 30
0.0
 11
-13.800003
 21
-78.350006
 31
0.0
  0
LINE
  5
A6
330
1E
100
AcDbEntity
  8
MO_001_VIEW_PV
  6
C_SOLID_L
100
AcDbLine
 10
-67.26310618920532
 20
-30.43575995530493
 30
0.0
 11
-38.90747218920533
 21
-30.43575995530493
 31
0.0
  0
TEXT
  5
AB
330
1E
100
AcDbEntity
  8
MO_001_VIEW_PV
  6
C_SOLID_L
100
AcDbText
 10
-34.16889879404201
 20
60.12582318725475
 30
0.0
 40
3.0
  1
※1/2回転角度(%%P3%%D)
100
AcDbText
  0
TEXT
  5
AC
330
1E
100
AcDbEntity
  8
MO_001_VIEW_PV
  6
C_SOLID_L
100
AcDbText
 10
17.82858
 20
54.014954
 30
0.0
 40
3.0
  1
※図は右回転を示し，
100
AcDbText
  0
TEXT
  5
AD
330
1E
100
AcDbEntity
  8
MO_001_VIEW_PV
  6
C_SOLID_L
100
AcDbText
 10
17.82858
 20
49.51495399999998
 30
0.0
 40
3.0
  1
 左回転の場合は反対
100
AcDbText
  0
TEXT
  5
AE
330
1E
100
AcDbEntity
  8
MO_001_VIEW_PV
  6
C_SOLID_L
100
AcDbText
 10
17.82858
 20
45.01495399999998
 30
0.0
 40
3.0
  1
 になります。
100
AcDbText
  0
TEXT
  5
AF
330
1E
100
AcDbEntity
  8
MO_001_VIEW_PV
  6
C_SOLID_L
100
AcDbText
 10
-66.24582018920533
 20
-29.45742695530493
 30
0.0
 40
3.0
  1
3-M5 P0.8
100
AcDbText
  0
TEXT
  5
B0
330
1E
100
AcDbEntity
  8
MO_001_VIEW_PV
  6
C_SOLID_L
100
AcDbText
 10
-13.596329
 20
-91.357382
 30
0.0
 40
4.167187
  1
8L X6付
100
AcDbText
  0
TEXT
  5
B3
330
1E
100
AcDbEntity
  8
MO_001_VIEW_PV
  6
C_SOLID_L
100
AcDbText
 10
34.403671
 20
-97.357382
 30
0.0
 40
4.167187
  1
単位：mm
100
AcDbText
  0
TEXT
  5
B4
330
1E
100
AcDbEntity
  8
MO_001_VIEW_PV
  6
C_SOLID_L
100
AcDbText
 10
34.403671
 20
-103.6081629999999
 30
0.0
 40
4.167187
  1
図は右回転、無励磁時を示す
100
AcDbText
  0
LINE
  5
B7
330
1E
100
AcDbEntity
  8
MO_001_VIEW_PV
  6
C_SOLID_L
100
AcDbLine
 10
-23.07922418920533
 20
-21.29731595530493
 30
0.0
 11
-38.90747318920533
 21
-30.43575995530493
 31
0.0
  0
LWPOLYLINE
  5
B8
330
1E
100
AcDbEntity
  8
MO_001_VIEW_PV
  6
C_SOLID_L
100
AcDbPolyline
 90
        3
 70
     1
 43
0.0
 10
-25.66116618920533
 20
-23.46178195530494
 10
-23.51916518920532
 20
-21.55131595530493
 10
-26.24467818920533
 20
-22.45111095530492
  0
DIMENSION
  5
125
330
1E
100
AcDbEntity
  8
0
  6
CONTINUOUS
100
AcDbDimension
  2
*D3
 10
0.0305638933123172
 20
-0.0053486655415682
 30
0.0
 11
-35.4732991111815
 21
40.05748915119143
 31
0.0
 70
   164
  3
STANDARD
100
AcDbRadialDimension
 15
-19.46871806856152
 25
21.99779422294977
 35
0.0
 40
0.0
1001
ACAD
1000
DSTYLE
1002
{
1070
   283
1070
     2
1070
   271
1070
     1
1070
   146
1040
0.5
1070
   272
1070
     1
1070
    47
1040
0.1
1070
   147
1040
1.0
1070
    48
1040
0.1
1070
    72
1070
     0
1070
    71
1070
     1
1070
   288
1070
     1
1002
}
  0
ARC
  5
2BD
330
1E
100
AcDbEntity
  8
1
  6
C_CENTER_L
100
AcDbCircle
 10
0.0
 20
0.0
 30
0.0
 40
29.400005
100
AcDbArc
 50
211.3902189999999
 51
232.7245339999999
  0
LINE
  5
2BE
330
1E
100
AcDbEntity
  8
1
  6
C_CENTER_L
100
AcDbLine
 10
-17.82886950049608
 20
-16.33712381637433
 30
0.0
 11
-25.99195538177977
 21
-23.81720930930586
 31
0.0
  0
DIMENSION
  5
2C4
330
1E
100
AcDbEntity
  8
1
  6
CONTINUOUS
100
AcDbDimension
  2
*D4
 10
-7.630333
 20
34.418312
 30
0.0
 11
-6.329705726417955
 21
57.79626212805444
 31
0.0
 70
    34
  1
 
  3
STANDARD
100
AcDb2LineAngularDimension
 13
0.0
 23
47.849998
 33
0.0
 14
0.0
 24
-47.849998
 34
0.0
 15
0.0000134756975854
 25
0.0
 35
0.0
 16
-4.10893225827399
 26
56.40236564671103
 36
0.0
1001
ACAD
1000
DSTYLE
1002
{
1070
   287
1070
     5
1070
   279
1070
     2
1002
}
  0
ENDSEC
  0
SECTION
  2
OBJECTS
  0
DICTIONARY
  5
1A
330
0
100
AcDbDictionary
  3
ACAD_DETAILVIEWSTYLE
350
2DA
  3
ACAD_GROUP
350
1B
  3
ACAD_IMAGE_VARS
350
2A9
  3
ACAD_MLINESTYLE
350
1C
  3
ACAD_SCALELIST
350
2DD
  3
ACAD_SECTIONVIEWSTYLE
350
2DB
  3
ACDBVARIABLEDICTIONARY
350
2D5
  3
APPDATA
350
2A7
  3
DWGPROPS
350
327
1001
ACAD
1000
TREAT_AS_HARD
1070
     0
1000
TREAT_AS_HARD
1070
     0
1000
TREAT_AS_HARD
1070
     0
  0
DICTIONARY
  5
2AA
330
2
100
AcDbDictionary
280
     1
  3
ACAD_LAYERSTATES
360
2AF
  3
ACLYDICTIONARY
360
2B3
  0
DICTIONARY
  5
17E
330
1E
100
AcDbDictionary
  3
ACAD_LAYOUTSELFREF
350
256
1001
ACAD
1000
TREAT_AS_HARD
1070
     0
1000
TREAT_AS_HARD
1070
     0
  0
DICTIONARY
  5
180
330
1F
100
AcDbDictionary
  3
ACAD_LAYOUTSELFREF
350
257
1001
ACAD
1000
TREAT_AS_HARD
1070
     0
1000
TREAT_AS_HARD
1070
     0
  0
DICTIONARY
  5
2DA
102
{ACAD_REACTORS
330
1A
102
}
330
1A
100
AcDbDictionary
  0
DICTIONARY
  5
1B
102
{ACAD_REACTORS
330
1A
102
}
330
1A
100
AcDbDictionary
1001
ACAD
1000
TREAT_AS_HARD
1070
     0
1000
TREAT_AS_HARD
1070
     0
1000
TREAT_AS_HARD
1070
     0
  0
RASTERVARIABLES
  5
2A9
102
{ACAD_REACTORS
330
1A
102
}
330
1A
100
AcDbRasterVariables
 90
        0
 70
     1
 71
     1
 72
     0
  0
DICTIONARY
  5
1C
102
{ACAD_REACTORS
330
1A
102
}
330
1A
100
AcDbDictionary
  3
STANDARD
350
1D
1001
ACAD
1000
TREAT_AS_HARD
1070
     0
1000
TREAT_AS_HARD
1070
     0
1000
TREAT_AS_HARD
1070
     0
  0
DICTIONARY
  5
2DD
102
{ACAD_REACTORS
330
1A
102
}
330
1A
100
AcDbDictionary
  0
DICTIONARY
  5
2DB
102
{ACAD_REACTORS
330
1A
102
}
330
1A
100
AcDbDictionary
  0
DICTIONARY
  5
2D5
102
{ACAD_REACTORS
330
1A
102
}
330
1A
100
AcDbDictionary
  0
DICTIONARY
  5
2A7
102
{ACAD_REACTORS
330
1A
102
}
330
1A
100
AcDbDictionary
  0
XRECORD
  5
327
102
{ACAD_REACTORS
330
1A
102
}
330
1A
100
AcDbXrecord
  1
DWGPROPS COOKIE
  2

  3

  4

  6

  7

  8
SMT204
  9

300
=
301
=
302
=
303
=
304
=
305
=
306
=
307
=
308
=
309
=
 40
0.0
 41
2305814.194090139
 42
2457319.433323923
  1

 90
        0
  0
DICTIONARY
  5
2AF
102
{ACAD_REACTORS
330
2AA
102
}
330
2AA
100
AcDbDictionary
  0
DICTIONARY
  5
2B3
102
{ACAD_REACTORS
330
2AA
102
}
330
2AA
100
AcDbDictionary
1001
ACAD
1000
<All
  0
XRECORD
  5
256
102
{ACAD_REACTORS
330
17E
102
}
330
17E
100
AcDbXrecord
340
1E
  0
XRECORD
  5
257
102
{ACAD_REACTORS
330
180
102
}
330
180
100
AcDbXrecord
340
1F
  0
MLINESTYLE
  5
1D
102
{ACAD_REACTORS
330
1C
102
}
330
1C
100
AcDbMlineStyle
  2
STANDARD
 70
     0
  3

 62
     0
 51
90.0
 52
90.0
 71
     2
 49
0.5
 62
   256
  6
BYLAYER
 49
-0.5
 62
   256
  6
BYLAYER
  0
ENDSEC
  0
EOF
