  0
SECTION
  2
HEADER
  9
$ACADVER
  1
AC1012
  9
$DWGCODEPAGE
  3
dos932
  9
$INSBASE
 10
0.0
 20
0.0
 30
0.0
  9
$EXTMIN
 10
-109.9258618033688
 20
-98.33471240277475
 30
-0.0015258207003583
  9
$EXTMAX
 10
145.5167940630284
 20
64.12701445206351
 30
0.0000000349246037
  9
$LIMMIN
 10
-109.9179989999999
 20
-101.4597629999999
  9
$LIMMAX
 10
147.75
 20
66.0
  9
$ORTHOMODE
 70
     0
  9
$REGENMODE
 70
     1
  9
$FILLMODE
 70
     1
  9
$QTEXTMODE
 70
     0
  9
$MIRRTEXT
 70
     1
  9
$DRAGMODE
 70
     2
  9
$LTSCALE
 40
1.0
  9
$OSMODE
 70
    37
  9
$ATTMODE
 70
     1
  9
$TEXTSIZE
 40
4.1672
  9
$TRACEWID
 40
0.05
  9
$TEXTSTYLE
  7
STANDARD
  9
$CLAYER
  8
0
  9
$CELTYPE
  6
CONTINUOUS
  9
$CECOLOR
 62
   256
  9
$CELTSCALE
 40
1.0
  9
$DELOBJ
 70
     1
  9
$DISPSILH
 70
     0
  9
$DIMSCALE
 40
1.0
  9
$DIMASZ
 40
0.18
  9
$DIMEXO
 40
0.0625
  9
$DIMDLI
 40
0.38
  9
$DIMRND
 40
0.0
  9
$DIMDLE
 40
0.0
  9
$DIMEXE
 40
0.18
  9
$DIMTP
 40
0.0
  9
$DIMTM
 40
0.0
  9
$DIMTXT
 40
0.18
  9
$DIMCEN
 40
0.09
  9
$DIMTSZ
 40
0.0
  9
$DIMTOL
 70
     0
  9
$DIMLIM
 70
     0
  9
$DIMTIH
 70
     1
  9
$DIMTOH
 70
     1
  9
$DIMSE1
 70
     0
  9
$DIMSE2
 70
     0
  9
$DIMTAD
 70
     0
  9
$DIMZIN
 70
     0
  9
$DIMBLK
  1

  9
$DIMASO
 70
     1
  9
$DIMSHO
 70
     1
  9
$DIMPOST
  1

  9
$DIMAPOST
  1

  9
$DIMALT
 70
     0
  9
$DIMALTD
 70
     2
  9
$DIMALTF
 40
25.4
  9
$DIMLFAC
 40
1.0
  9
$DIMTOFL
 70
     0
  9
$DIMTVP
 40
0.0
  9
$DIMTIX
 70
     0
  9
$DIMSOXD
 70
     0
  9
$DIMSAH
 70
     0
  9
$DIMBLK1
  1

  9
$DIMBLK2
  1

  9
$DIMSTYLE
  2
STANDARD
  9
$DIMCLRD
 70
     0
  9
$DIMCLRE
 70
     0
  9
$DIMCLRT
 70
     0
  9
$DIMTFAC
 40
1.0
  9
$DIMGAP
 40
0.09
  9
$DIMJUST
 70
     0
  9
$DIMSD1
 70
     0
  9
$DIMSD2
 70
     0
  9
$DIMTOLJ
 70
     1
  9
$DIMTZIN
 70
     0
  9
$DIMALTZ
 70
     0
  9
$DIMALTTZ
 70
     0
  9
$DIMFIT
 70
     3
  9
$DIMUPT
 70
     0
  9
$DIMUNIT
 70
     2
  9
$DIMDEC
 70
     4
  9
$DIMTDEC
 70
     4
  9
$DIMALTU
 70
     2
  9
$DIMALTTD
 70
     2
  9
$DIMTXSTY
  7
STANDARD
  9
$DIMAUNIT
 70
     0
  9
$LUNITS
 70
     2
  9
$LUPREC
 70
     6
  9
$SKETCHINC
 40
0.1
  9
$FILLETRAD
 40
0.0
  9
$AUNITS
 70
     0
  9
$AUPREC
 70
     4
  9
$MENU
  1
acad
  9
$ELEVATION
 40
0.0
  9
$PELEVATION
 40
0.0
  9
$THICKNESS
 40
0.0
  9
$LIMCHECK
 70
     0
  9
$BLIPMODE
 70
     0
  9
$CHAMFERA
 40
0.0
  9
$CHAMFERB
 40
0.0
  9
$CHAMFERC
 40
0.0
  9
$CHAMFERD
 40
0.0
  9
$SKPOLY
 70
     0
  9
$TDCREATE
 40
2376123.569089942
  9
$TDUPDATE
 40
2451687.708106481
  9
$TDINDWG
 40
0.0005848380
  9
$TDUSRTIMER
 40
0.0005841435
  9
$USRTIMER
 70
     1
  9
$ANGBASE
 50
0.0
  9
$ANGDIR
 70
     0
  9
$PDMODE
 70
     0
  9
$PDSIZE
 40
0.0
  9
$PLINEWID
 40
0.0
  9
$COORDS
 70
     1
  9
$SPLFRAME
 70
     0
  9
$SPLINETYPE
 70
     6
  9
$SPLINESEGS
 70
     8
  9
$ATTDIA
 70
     0
  9
$ATTREQ
 70
     1
  9
$HANDLING
 70
 10241
  9
$HANDSEED
  5
671
  9
$SURFTAB1
 70
     6
  9
$SURFTAB2
 70
     6
  9
$SURFTYPE
 70
     6
  9
$SURFU
 70
     6
  9
$SURFV
 70
     6
  9
$UCSNAME
  2

  9
$UCSORG
 10
0.0
 20
0.0
 30
0.0
  9
$UCSXDIR
 10
1.0
 20
0.0
 30
0.0
  9
$UCSYDIR
 10
0.0
 20
1.0
 30
0.0
  9
$PUCSNAME
  2

  9
$PUCSORG
 10
0.0
 20
0.0
 30
0.0
  9
$PUCSXDIR
 10
1.0
 20
0.0
 30
0.0
  9
$PUCSYDIR
 10
0.0
 20
1.0
 30
0.0
  9
$USERI1
 70
     0
  9
$USERI2
 70
     0
  9
$USERI3
 70
     0
  9
$USERI4
 70
     0
  9
$USERI5
 70
     0
  9
$USERR1
 40
0.0
  9
$USERR2
 40
0.0
  9
$USERR3
 40
0.0
  9
$USERR4
 40
0.0
  9
$USERR5
 40
0.0
  9
$WORLDVIEW
 70
     1
  9
$SHADEDGE
 70
     3
  9
$SHADEDIF
 70
    70
  9
$TILEMODE
 70
     1
  9
$MAXACTVP
 70
    16
  9
$PINSBASE
 10
0.0
 20
0.0
 30
0.0
  9
$PLIMCHECK
 70
     0
  9
$PEXTMIN
 10
-109.9179989999999
 20
-101.4597629999999
 30
1.000000000000000E+20
  9
$PEXTMAX
 10
147.75
 20
66.0
 30
-1.000000000000000E+20
  9
$PLIMMIN
 10
0.0
 20
0.0
  9
$PLIMMAX
 10
12.0
 20
9.0
  9
$UNITMODE
 70
     0
  9
$VISRETAIN
 70
     0
  9
$PLINEGEN
 70
     0
  9
$PSLTSCALE
 70
     1
  9
$TREEDEPTH
 70
  3020
  9
$PICKSTYLE
 70
     1
  9
$CMLSTYLE
  2
STANDARD
  9
$CMLJUST
 70
     0
  9
$CMLSCALE
 40
1.0
  9
$SAVEIMAGES
 70
     1
  0
ENDSEC
  0
SECTION
  2
CLASSES
  0
CLASS
  1
ACDBDICTIONARYWDFLT
  2
AcDbDictionaryWithDefault
  3
AutoCAD 2000
 90
    32768
280
     0
281
     0
  0
CLASS
  1
ACDBPLACEHOLDER
  2
AcDbPlaceHolder
  3
AutoCAD 2000
 90
    32768
280
     0
281
     0
  0
CLASS
  1
LAYOUT
  2
AcDbLayout
  3
AutoCAD 2000
 90
    32768
280
     0
281
     0
  0
CLASS
  1
LONG_TRANSACTION
  2
AcDbLongTransaction
  3
AutoCAD 2000
 90
    32768
280
     0
281
     0
  0
CLASS
  1
LWPOLYLINE
  2
AcDbPolyline
  3
AutoCAD 2000
 90
    32768
280
     0
281
     1
  0
CLASS
  1
HATCH
  2
AcDbHatch
  3
AutoCAD 2000
 90
    32768
280
     0
281
     1
  0
CLASS
  1
XRECORD
  2
AcDbXrecord
  3
AutoCAD 2000
 90
    32768
280
     0
281
     0
  0
ENDSEC
  0
SECTION
  2
TABLES
  0
TABLE
  2
VPORT
  5
7
330
0
100
AcDbSymbolTable
 70
     2
  0
VPORT
  5
460
330
7
100
AcDbSymbolTableRecord
100
AcDbViewportTableRecord
  2
*ACTIVE
 70
     0
 10
0.0
 20
0.0
 11
1.0
 21
1.0
 12
18.91206909831557
 22
-17.72988149999999
 13
0.0
 23
0.0
 14
6.349999999999999
 24
6.349999999999999
 15
6.349999999999999
 25
6.349999999999999
 16
0.0
 26
0.0
 36
1.0
 17
0.0
 27
0.0
 37
0.0
 40
169.192105375862
 41
1.644214162348877
 42
50.0
 43
0.0
 44
0.0
 50
0.0
 51
0.0
 71
     0
 72
   100
 73
     1
 74
     1
 75
     0
 76
     0
 77
     0
 78
     0
  0
ENDTAB
  0
TABLE
  2
LTYPE
  5
4
330
0
100
AcDbSymbolTable
 70
    37
  0
LTYPE
  5
12
330
4
100
AcDbSymbolTableRecord
100
AcDbLinetypeTableRecord
  2
BYBLOCK
 70
     0
  3

 72
    65
 73
     0
 40
0.0
  0
LTYPE
  5
13
330
4
100
AcDbSymbolTableRecord
100
AcDbLinetypeTableRecord
  2
BYLAYER
 70
     0
  3

 72
    65
 73
     0
 40
0.0
  0
LTYPE
  5
14
330
4
100
AcDbSymbolTableRecord
100
AcDbLinetypeTableRecord
  2
CONTINUOUS
 70
     0
  3
DXF Default line type
 72
    65
 73
     0
 40
0.0
  0
LTYPE
  5
20
330
4
100
AcDbSymbolTableRecord
100
AcDbLinetypeTableRecord
  2
DASHED
 70
     0
  3
DXF Dashed
 72
    65
 73
     2
 40
0.75
 49
0.5
 74
     0
 49
-0.25
 74
     0
  0
LTYPE
  5
21
330
4
100
AcDbSymbolTableRecord
100
AcDbLinetypeTableRecord
  2
HIDDEN
 70
     0
  3
DXF Hidden
 72
    65
 73
     2
 40
0.375
 49
0.25
 74
     0
 49
-0.125
 74
     0
  0
LTYPE
  5
22
330
4
100
AcDbSymbolTableRecord
100
AcDbLinetypeTableRecord
  2
CENTER
 70
     0
  3
DXF Center
 72
    65
 73
     4
 40
2.0
 49
1.25
 74
     0
 49
-0.25
 74
     0
 49
0.25
 74
     0
 49
-0.25
 74
     0
  0
LTYPE
  5
23
330
4
100
AcDbSymbolTableRecord
100
AcDbLinetypeTableRecord
  2
PHANTOM
 70
     0
  3
DXF Phantom
 72
    65
 73
     6
 40
2.5
 49
1.25
 74
     0
 49
-0.25
 74
     0
 49
0.25
 74
     0
 49
-0.25
 74
     0
 49
0.25
 74
     0
 49
-0.25
 74
     0
  0
LTYPE
  5
24
330
4
100
AcDbSymbolTableRecord
100
AcDbLinetypeTableRecord
  2
DOT
 70
     0
  3
DXF DOT
 72
    65
 73
     2
 40
0.25
 49
0.0
 74
     0
 49
-0.25
 74
     0
  0
LTYPE
  5
25
330
4
100
AcDbSymbolTableRecord
100
AcDbLinetypeTableRecord
  2
DASHDOT
 70
     0
  3
DXF Dash Dot
 72
    65
 73
     4
 40
1.0
 49
0.5
 74
     0
 49
-0.25
 74
     0
 49
0.0
 74
     0
 49
-0.25
 74
     0
  0
LTYPE
  5
26
330
4
100
AcDbSymbolTableRecord
100
AcDbLinetypeTableRecord
  2
BORDER
 70
     0
  3
DXF Border
 72
    65
 73
     6
 40
1.75
 49
0.5
 74
     0
 49
-0.25
 74
     0
 49
0.5
 74
     0
 49
-0.25
 74
     0
 49
0.0
 74
     0
 49
-0.25
 74
     0
  0
LTYPE
  5
27
330
4
100
AcDbSymbolTableRecord
100
AcDbLinetypeTableRecord
  2
DIVIDE
 70
     0
  3
DXF Divide
 72
    65
 73
     6
 40
1.25
 49
0.5
 74
     0
 49
-0.25
 74
     0
 49
0.0
 74
     0
 49
-0.25
 74
     0
 49
0.0
 74
     0
 49
-0.25
 74
     0
  0
LTYPE
  5
28
330
4
100
AcDbSymbolTableRecord
100
AcDbLinetypeTableRecord
  2
C_SOLID_L
 70
     0
  3
CADAM Solid Light
 72
    65
 73
     0
 40
0.0
  0
LTYPE
  5
29
330
4
100
AcDbSymbolTableRecord
100
AcDbLinetypeTableRecord
  2
C_SOLID_M
 70
     0
  3
CADAM Solid Medium
 72
    65
 73
     0
 40
0.0
  0
LTYPE
  5
2A
330
4
100
AcDbSymbolTableRecord
100
AcDbLinetypeTableRecord
  2
C_SOLID_H
 70
     0
  3
CADAM Solid Heavy
 72
    65
 73
     0
 40
0.0
  0
LTYPE
  5
2B
330
4
100
AcDbSymbolTableRecord
100
AcDbLinetypeTableRecord
  2
C_DASHED_L
 70
     0
  3
CADAM Dashed Light
 72
    65
 73
     2
 40
0.375
 49
0.25
 74
     0
 49
-0.125
 74
     0
  0
LTYPE
  5
2C
330
4
100
AcDbSymbolTableRecord
100
AcDbLinetypeTableRecord
  2
C_DASHED_M
 70
     0
  3
CADAM Dashed Medium
 72
    65
 73
     2
 40
0.5
 49
0.375
 74
     0
 49
-0.125
 74
     0
  0
LTYPE
  5
2D
330
4
100
AcDbSymbolTableRecord
100
AcDbLinetypeTableRecord
  2
C_CENTER_L
 70
     0
  3
CADAM Center Light
 72
    65
 73
     4
 40
2.0
 49
1.25
 74
     0
 49
-0.25
 74
     0
 49
0.25
 74
     0
 49
-0.25
 74
     0
  0
LTYPE
  5
2E
330
4
100
AcDbSymbolTableRecord
100
AcDbLinetypeTableRecord
  2
C_PHANTOM_L
 70
     0
  3
CADAM Phantom Light
 72
    65
 73
     6
 40
2.5
 49
1.25
 74
     0
 49
-0.25
 74
     0
 49
0.25
 74
     0
 49
-0.25
 74
     0
 49
0.25
 74
     0
 49
-0.25
 74
     0
  0
LTYPE
  5
2F
330
4
100
AcDbSymbolTableRecord
100
AcDbLinetypeTableRecord
  2
C_BREAK_M
 70
     0
  3
CADAM Break Medium
 72
    65
 73
     4
 40
1.0
 49
0.5
 74
     0
 49
-0.25
 74
     0
 49
0.0
 74
     0
 49
-0.25
 74
     0
  0
LTYPE
  5
30
330
4
100
AcDbSymbolTableRecord
100
AcDbLinetypeTableRecord
  2
C_NC
 70
     0
  3
CADAM NC
 72
    65
 73
     0
 40
0.0
  0
LTYPE
  5
31
330
4
100
AcDbSymbolTableRecord
100
AcDbLinetypeTableRecord
  2
DSH1
 70
     0
  3
CADAM Style2 Type 1 Dashed Line
 72
    65
 73
     2
 40
0.075
 49
0.04
 74
     0
 49
-0.035
 74
     0
  0
LTYPE
  5
32
330
4
100
AcDbSymbolTableRecord
100
AcDbLinetypeTableRecord
  2
DSH2
 70
     0
  3
CADAM Style2 Type 2 Dashed Line
 72
    65
 73
     2
 40
0.15
 49
0.11
 74
     0
 49
-0.04
 74
     0
  0
LTYPE
  5
33
330
4
100
AcDbSymbolTableRecord
100
AcDbLinetypeTableRecord
  2
DSH3
 70
     0
  3
CADAM Style2 Type 3 Dashed Line
 72
    65
 73
     2
 40
0.2
 49
0.15
 74
     0
 49
-0.05
 74
     0
  0
LTYPE
  5
34
330
4
100
AcDbSymbolTableRecord
100
AcDbLinetypeTableRecord
  2
DSH4
 70
     0
  3
CADAM Style2 Type 4 Dashed Line
 72
    65
 73
     2
 40
0.36
 49
0.28
 74
     0
 49
-0.08
 74
     0
  0
LTYPE
  5
35
330
4
100
AcDbSymbolTableRecord
100
AcDbLinetypeTableRecord
  2
DSH5
 70
     0
  3
CADAM Style2 Type 5 Dashed Line
 72
    65
 73
     2
 40
0.47
 49
0.39
 74
     0
 49
-0.08
 74
     0
  0
LTYPE
  5
36
330
4
100
AcDbSymbolTableRecord
100
AcDbLinetypeTableRecord
  2
DSH6
 70
     0
  3
CADAM Style2 Type 6 Dashed Line
 72
    65
 73
     2
 40
0.9
 49
0.8100000000000001
 74
     0
 49
-0.09
 74
     0
  0
LTYPE
  5
37
330
4
100
AcDbSymbolTableRecord
100
AcDbLinetypeTableRecord
  2
PL1
 70
     0
  3
Style 2 Type 1 Phantom Line
 72
    65
 73
     6
 40
1.0
 49
0.6
 74
     0
 49
-0.08
 74
     0
 49
0.08
 74
     0
 49
-0.08
 74
     0
 49
0.08
 74
     0
 49
-0.08
 74
     0
  0
LTYPE
  5
38
330
4
100
AcDbSymbolTableRecord
100
AcDbLinetypeTableRecord
  2
PL2
 70
     0
  3
Style 2 Type 2 Phantom Line
 72
    65
 73
     6
 40
1.08
 49
0.6
 74
     0
 49
-0.08
 74
     0
 49
0.12
 74
     0
 49
-0.08
 74
     0
 49
0.12
 74
     0
 49
-0.08
 74
     0
  0
LTYPE
  5
39
330
4
100
AcDbSymbolTableRecord
100
AcDbLinetypeTableRecord
  2
PL3
 70
     0
  3
Style 2 Type 3 Phantom Line
 72
    65
 73
     6
 40
2.0
 49
1.439999999999999
 74
     0
 49
-0.08
 74
     0
 49
0.16
 74
     0
 49
-0.08
 74
     0
 49
0.16
 74
     0
 49
-0.08
 74
     0
  0
LTYPE
  5
3A
330
4
100
AcDbSymbolTableRecord
100
AcDbLinetypeTableRecord
  2
CL1
 70
     0
  3
CADAM Style 2 Type 1 Center Line
 72
    65
 73
     4
 40
0.7
 49
0.45
 74
     0
 49
-0.06
 74
     0
 49
0.13
 74
     0
 49
-0.06
 74
     0
  0
LTYPE
  5
3B
330
4
100
AcDbSymbolTableRecord
100
AcDbLinetypeTableRecord
  2
CL2
 70
     0
  3
CADAM Style 2 Type 2 Center Line
 72
    65
 73
     4
 40
1.199999999999999
 49
1.01
 74
     0
 49
-0.06
 74
     0
 49
0.11
 74
     0
 49
-0.06
 74
     0
  0
LTYPE
  5
3C
330
4
100
AcDbSymbolTableRecord
100
AcDbLinetypeTableRecord
  2
CL3
 70
     0
  3
CADAM Style 2 Type 3 Center Line
 72
    65
 73
     4
 40
1.199999999999999
 49
0.98
 74
     0
 49
-0.06
 74
     0
 49
0.1
 74
     0
 49
-0.06
 74
     0
  0
LTYPE
  5
3D
330
4
100
AcDbSymbolTableRecord
100
AcDbLinetypeTableRecord
  2
CL4
 70
     0
  3
CADAM Style 2 Type 4 Center Line
 72
    65
 73
     4
 40
2.2
 49
1.929999999999999
 74
     0
 49
-0.07
 74
     0
 49
0.13
 74
     0
 49
-0.07
 74
     0
  0
LTYPE
  5
3E
330
4
100
AcDbSymbolTableRecord
100
AcDbLinetypeTableRecord
  2
CL5
 70
     0
  3
CADAM Style 2 Type 5 Center Line
 72
    65
 73
     4
 40
2.2
 49
1.879999999999999
 74
     0
 49
-0.07
 74
     0
 49
0.18
 74
     0
 49
-0.07
 74
     0
  0
LTYPE
  5
3F
330
4
100
AcDbSymbolTableRecord
100
AcDbLinetypeTableRecord
  2
SBK1
 70
     0
  3
CADAM Style 2 Type 1 SetBack Line
 72
    65
 73
     8
 40
2.7
 49
0.1
 74
     0
 49
-0.08
 74
     0
 49
0.1
 74
     0
 49
-0.8
 74
     0
 49
0.0
 74
     0
 49
0.0
 74
     0
 49
0.0
 74
     0
 49
0.0
 74
     0
  0
LTYPE
  5
40
330
4
100
AcDbSymbolTableRecord
100
AcDbLinetypeTableRecord
  2
SBK2
 70
     0
  3
CADAM Style 2 Type 2 SetBack Line
 72
    65
 73
     8
 40
3.709999999999999
 49
0.13
 74
     0
 49
-0.08
 74
     0
 49
0.13
 74
     0
 49
-0.8
 74
     0
 49
0.0
 74
     0
 49
0.0
 74
     0
 49
0.0
 74
     0
 49
0.0
 74
     0
  0
LTYPE
  5
41
330
4
100
AcDbSymbolTableRecord
100
AcDbLinetypeTableRecord
  2
STCH
 70
     0
  3
CADAM Style2 Stitch Line
 72
    65
 73
     2
 40
0.25
 49
0.0
 74
     0
 49
-0.25
 74
     0
  0
LTYPE
  5
42
330
4
100
AcDbSymbolTableRecord
100
AcDbLinetypeTableRecord
  2
MTCH
 70
     0
  3
CADAM Style2 Match Line
 72
    65
 73
     6
 40
2.0
 49
1.439999999999999
 74
     0
 49
-0.8
 74
     0
 49
0.16
 74
     0
 49
-0.08
 74
     0
 49
0.16
 74
     0
 49
-0.08
 74
     0
  0
LTYPE
  5
43
330
4
100
AcDbSymbolTableRecord
100
AcDbLinetypeTableRecord
  2
SLD
 70
     0
  3
CADAM Solid_EXT2
 72
    65
 73
     0
 40
0.0
  0
ENDTAB
  0
TABLE
  2
LAYER
  5
2
330
0
100
AcDbSymbolTable
 70
     7
  0
LAYER
  5
15
330
2
100
AcDbSymbolTableRecord
100
AcDbLayerTableRecord
  2
0
 70
     0
 62
     7
  6
CONTINUOUS
  0
LAYER
  5
44
330
2
100
AcDbSymbolTableRecord
100
AcDbLayerTableRecord
  2
MO_001_NOSHOW
 70
     1
 62
     7
  6
CONTINUOUS
  0
LAYER
  5
45
330
2
100
AcDbSymbolTableRecord
100
AcDbLayerTableRecord
  2
MO_001_VIEW_PV
 70
     0
 62
     7
  6
CONTINUOUS
  0
LAYER
  5
46
330
2
100
AcDbSymbolTableRecord
100
AcDbLayerTableRecord
  2
OVERLAY_MAP
 70
     1
 62
     7
  6
CONTINUOUS
  0
LAYER
  5
47
330
2
100
AcDbSymbolTableRecord
100
AcDbLayerTableRecord
  2
DITTOS
 70
     0
 62
     7
  6
CONTINUOUS
  0
LAYER
  5
48
330
2
100
AcDbSymbolTableRecord
100
AcDbLayerTableRecord
  2
SYMBOLS
 70
     0
 62
     7
  6
CONTINUOUS
  0
LAYER
  5
49
330
2
100
AcDbSymbolTableRecord
100
AcDbLayerTableRecord
  2
SETS
 70
     0
 62
     7
  6
CONTINUOUS
  0
ENDTAB
  0
TABLE
  2
STYLE
  5
3
330
0
100
AcDbSymbolTable
 70
     1
  0
STYLE
  5
18
330
3
100
AcDbSymbolTableRecord
100
AcDbTextStyleTableRecord
  2
STANDARD
 70
     0
 40
4.1672
 41
1.0
 50
0.0
 71
     0
 42
4.1672
  3
monotxt
  4
BIGFONT
  0
ENDTAB
  0
TABLE
  2
VIEW
  5
5
330
0
100
AcDbSymbolTable
 70
     0
  0
ENDTAB
  0
TABLE
  2
UCS
  5
6
330
0
100
AcDbSymbolTable
 70
     1
  0
UCS
  5
4A
330
6
100
AcDbSymbolTableRecord
100
AcDbUCSTableRecord
  2
MO_001_VIEW_PV_P
 70
     0
 10
0.0
 20
0.0
 30
0.0
 11
1.0
 21
0.0
 31
0.0
 12
-0.0000000002051034
 22
1.0
 32
0.0
  0
ENDTAB
  0
TABLE
  2
APPID
  5
8
330
0
100
AcDbSymbolTable
 70
     1
  0
APPID
  5
17
330
8
100
AcDbSymbolTableRecord
100
AcDbRegAppTableRecord
  2
ACAD
 70
     0
  0
ENDTAB
  0
TABLE
  2
DIMSTYLE
  5
9
330
0
100
AcDbSymbolTable
 70
     1
  0
DIMSTYLE
105
19
102
{ACAD_REACTORS
330
3C6
330
3C8
330
3CA
330
3CC
330
3CE
330
3D0
330
3D2
330
3D4
330
3D6
330
3D8
330
3DA
330
3DC
102
}
330
9
100
AcDbSymbolTableRecord
100
AcDbDimStyleTableRecord
  2
STANDARD
 70
     0
  3

  4

  5

  6

  7

 40
1.0
 41
0.18
 42
0.0625
 43
0.38
 44
0.18
 45
0.0
 46
0.0
 47
0.0
 48
0.0
140
0.18
141
0.09
142
0.0
143
25.4
144
1.0
145
0.0
146
1.0
147
0.09
 71
     0
 72
     0
 73
     1
 74
     1
 75
     0
 76
     0
 77
     0
 78
     0
170
     0
171
     2
172
     0
173
     0
174
     0
175
     0
176
     0
177
     0
178
     0
270
     2
271
     4
272
     4
273
     2
274
     2
340
18
275
     0
280
     0
281
     0
282
     0
283
     1
284
     0
285
     0
286
     0
287
     3
288
     0
  0
ENDTAB
  0
TABLE
  2
BLOCK_RECORD
  5
C
330
0
100
AcDbSymbolTable
 70
    12
  0
BLOCK_RECORD
  5
1E
102
{ACAD_XDICTIONARY
360
461
102
}
330
C
100
AcDbSymbolTableRecord
100
AcDbBlockTableRecord
  2
*MODEL_SPACE
  0
BLOCK_RECORD
  5
1F
102
{ACAD_XDICTIONARY
360
463
102
}
330
C
100
AcDbSymbolTableRecord
100
AcDbBlockTableRecord
  2
*PAPER_SPACE
  0
BLOCK_RECORD
  5
3C5
330
C
100
AcDbSymbolTableRecord
100
AcDbBlockTableRecord
  2
*D0
  0
BLOCK_RECORD
  5
3C7
330
C
100
AcDbSymbolTableRecord
100
AcDbBlockTableRecord
  2
*D1
  0
BLOCK_RECORD
  5
3C9
330
C
100
AcDbSymbolTableRecord
100
AcDbBlockTableRecord
  2
*D2
  0
BLOCK_RECORD
  5
3CB
330
C
100
AcDbSymbolTableRecord
100
AcDbBlockTableRecord
  2
*D3
  0
BLOCK_RECORD
  5
3CD
330
C
100
AcDbSymbolTableRecord
100
AcDbBlockTableRecord
  2
*D4
  0
BLOCK_RECORD
  5
3CF
330
C
100
AcDbSymbolTableRecord
100
AcDbBlockTableRecord
  2
*D5
  0
BLOCK_RECORD
  5
3D1
330
C
100
AcDbSymbolTableRecord
100
AcDbBlockTableRecord
  2
*D6
  0
BLOCK_RECORD
  5
3D3
330
C
100
AcDbSymbolTableRecord
100
AcDbBlockTableRecord
  2
*D7
  0
BLOCK_RECORD
  5
3D5
330
C
100
AcDbSymbolTableRecord
100
AcDbBlockTableRecord
  2
*D8
  0
BLOCK_RECORD
  5
3D7
330
C
100
AcDbSymbolTableRecord
100
AcDbBlockTableRecord
  2
*D9
  0
BLOCK_RECORD
  5
3D9
330
C
100
AcDbSymbolTableRecord
100
AcDbBlockTableRecord
  2
*D10
  0
BLOCK_RECORD
  5
3DB
330
C
100
AcDbSymbolTableRecord
100
AcDbBlockTableRecord
  2
*D11
  0
ENDTAB
  0
ENDSEC
  0
SECTION
  2
BLOCKS
  0
BLOCK
  5
E
330
1E
100
AcDbEntity
  8
0
100
AcDbBlockBegin
  2
*MODEL_SPACE
 70
     0
 10
0.0
 20
0.0
 30
0.0
  3
*MODEL_SPACE
  1

  0
ENDBLK
  5
F
330
1E
100
AcDbEntity
  8
0
100
AcDbBlockEnd
  0
BLOCK
  5
10
330
1F
100
AcDbEntity
 67
     1
  8
0
100
AcDbBlockBegin
  2
*PAPER_SPACE
 70
     0
 10
0.0
 20
0.0
 30
0.0
  3
*PAPER_SPACE
  1

  0
ENDBLK
  5
11
330
1F
100
AcDbEntity
 67
     1
  8
0
100
AcDbBlockEnd
  0
BLOCK
  5
3E3
330
3C5
100
AcDbEntity
  8
0
100
AcDbBlockBegin
  2
*D0
 70
     1
 10
0.0
 20
0.0
 30
0.0
  3
*D0
  1

  0
TEXT
  5
3E4
330
3C5
100
AcDbEntity
  8
MO_001_VIEW_PV
  6
BYBLOCK
100
AcDbText
 10
-96.561166
 20
50.625
 30
0.0
 40
1.5
  1
%%P0.3
100
AcDbText
  0
TEXT
  5
3E5
330
3C5
100
AcDbEntity
  8
MO_001_VIEW_PV
  6
BYBLOCK
100
AcDbText
 10
-105.34688
 20
48.75
 30
0.0
 40
3.0
  1
3.6
100
AcDbText
  0
LINE
  5
3E6
330
3C5
100
AcDbEntity
  8
MO_001_VIEW_PV
  6
BYBLOCK
100
AcDbLine
 10
-88.318001
 20
48.0
 30
0.0
 11
-84.718002
 21
48.0
 31
0.0
  0
LINE
  5
3E7
330
3C5
100
AcDbEntity
  8
MO_001_VIEW_PV
  6
BYBLOCK
100
AcDbLine
 10
-88.318001
 20
48.0
 30
0.0
 11
-94.668001
 21
48.0
 31
0.0
  0
SOLID
  5
3E8
330
3C5
100
AcDbEntity
  8
MO_001_VIEW_PV
  6
BYBLOCK
100
AcDbTrace
 10
-91.636261
 20
47.416488
 30
0.0
 11
-88.82600100000001
 21
48.0
 31
0.0
 12
-91.636261
 22
48.583512
 32
0.0
 13
-91.636261
 23
48.583512
 33
0.0
  0
LINE
  5
3E9
330
3C5
100
AcDbEntity
  8
MO_001_VIEW_PV
  6
BYBLOCK
100
AcDbLine
 10
-88.318001
 20
20.831345
 30
0.0
 11
-88.318001
 21
50.28599899999999
 31
0.0
  0
LINE
  5
3EA
330
3C5
100
AcDbEntity
  8
MO_001_VIEW_PV
  6
BYBLOCK
100
AcDbLine
 10
-84.718002
 20
37.75
 30
0.0
 11
-84.718002
 21
50.28599899999999
 31
0.0
  0
LINE
  5
3EB
330
3C5
100
AcDbEntity
  8
MO_001_VIEW_PV
  6
BYBLOCK
100
AcDbLine
 10
-106.3111649999999
 20
48.0
 30
0.0
 11
-88.318001
 21
48.0
 31
0.0
  0
ENDBLK
  5
3EC
330
3C5
100
AcDbEntity
  8
0
100
AcDbBlockEnd
  0
BLOCK
  5
3ED
330
3C7
100
AcDbEntity
  8
0
100
AcDbBlockBegin
  2
*D1
 70
     1
 10
0.0
 20
0.0
 30
0.0
  3
*D1
  1

  0
TEXT
  5
3EE
330
3C7
100
AcDbEntity
  8
MO_001_VIEW_PV
  6
BYBLOCK
100
AcDbText
 10
-68.25974399999999
 20
50.625
 30
0.0
 40
1.5
  1
%%P0.1
100
AcDbText
  0
TEXT
  5
3EF
330
3C7
100
AcDbEntity
  8
MO_001_VIEW_PV
  6
BYBLOCK
100
AcDbText
 10
-77.04545799999999
 20
48.75
 30
0.0
 40
3.0
  1
4.0
100
AcDbText
  0
LINE
  5
3F0
330
3C7
100
AcDbEntity
  8
MO_001_VIEW_PV
  6
BYBLOCK
100
AcDbLine
 10
-84.718002
 20
48.0
 30
0.0
 11
-80.718002
 21
48.0
 31
0.0
  0
LINE
  5
3F1
330
3C7
100
AcDbEntity
  8
MO_001_VIEW_PV
  6
BYBLOCK
100
AcDbLine
 10
-80.718002
 20
48.0
 30
0.0
 11
-74.368002
 21
48.0
 31
0.0
  0
SOLID
  5
3F2
330
3C7
100
AcDbEntity
  8
MO_001_VIEW_PV
  6
BYBLOCK
100
AcDbTrace
 10
-84.718002
 20
48.635
 30
0.0
 11
-84.718002
 21
47.365
 31
0.0
 12
-84.718002
 22
48.635
 32
0.0
 13
-84.718002
 23
48.635
 33
0.0
  0
SOLID
  5
3F3
330
3C7
100
AcDbEntity
  8
MO_001_VIEW_PV
  6
BYBLOCK
100
AcDbTrace
 10
-77.399742
 20
48.583512
 30
0.0
 11
-80.21000200000001
 21
48.0
 31
0.0
 12
-77.399742
 22
47.416488
 32
0.0
 13
-77.399742
 23
47.416488
 33
0.0
  0
LINE
  5
3F4
330
3C7
100
AcDbEntity
  8
MO_001_VIEW_PV
  6
BYBLOCK
100
AcDbLine
 10
-84.718002
 20
37.75
 30
0.0
 11
-84.718002
 21
50.28599899999999
 31
0.0
  0
LINE
  5
3F5
330
3C7
100
AcDbEntity
  8
MO_001_VIEW_PV
  6
BYBLOCK
100
AcDbLine
 10
-80.718002
 20
37.75
 30
0.0
 11
-80.718002
 21
50.28599899999999
 31
0.0
  0
LINE
  5
3F6
330
3C7
100
AcDbEntity
  8
MO_001_VIEW_PV
  6
BYBLOCK
100
AcDbLine
 10
-80.718002
 20
48.0
 30
0.0
 11
-61.938316
 21
48.0
 31
0.0
  0
ENDBLK
  5
3F7
330
3C7
100
AcDbEntity
  8
0
100
AcDbBlockEnd
  0
BLOCK
  5
3F8
330
3C9
100
AcDbEntity
  8
0
100
AcDbBlockBegin
  2
*D2
 70
     1
 10
0.0
 20
0.0
 30
0.0
  3
*D2
  1

  0
TEXT
  5
3F9
330
3C9
100
AcDbEntity
  8
MO_001_VIEW_PV
  6
BYBLOCK
100
AcDbText
 10
-49.730429
 20
54.75
 30
0.0
 40
3.0
  1
90以下
100
AcDbText
  0
LINE
  5
3FA
330
3C9
100
AcDbEntity
  8
MO_001_VIEW_PV
  6
BYBLOCK
100
AcDbLine
 10
-88.318001
 20
54.0
 30
0.0
 11
0.0
 21
54.0
 31
0.0
  0
SOLID
  5
3FB
330
3C9
100
AcDbEntity
  8
MO_001_VIEW_PV
  6
BYBLOCK
100
AcDbTrace
 10
-84.99974100000001
 20
54.583512
 30
0.0
 11
-87.81000099999999
 21
54.0
 31
0.0
 12
-84.99974100000001
 22
53.416488
 32
0.0
 13
-84.99974100000001
 23
53.416488
 33
0.0
  0
SOLID
  5
3FC
330
3C9
100
AcDbEntity
  8
MO_001_VIEW_PV
  6
BYBLOCK
100
AcDbTrace
 10
-3.318259999999999
 20
53.416488
 30
0.0
 11
-0.508
 21
54.0
 31
0.0
 12
-3.318259999999999
 22
54.583512
 32
0.0
 13
-3.318259999999999
 23
54.583512
 33
0.0
  0
LINE
  5
3FD
330
3C9
100
AcDbEntity
  8
MO_001_VIEW_PV
  6
BYBLOCK
100
AcDbLine
 10
-88.318001
 20
20.831345
 30
0.0
 11
-88.318001
 21
56.285999
 31
0.0
  0
LINE
  5
3FE
330
3C9
100
AcDbEntity
  8
MO_001_VIEW_PV
  6
BYBLOCK
100
AcDbLine
 10
0.0
 20
37.69999699999999
 30
0.0
 11
0.0
 21
56.285999
 31
0.0
  0
ENDBLK
  5
3FF
330
3C9
100
AcDbEntity
  8
0
100
AcDbBlockEnd
  0
BLOCK
  5
400
330
3CB
100
AcDbEntity
  8
0
100
AcDbBlockBegin
  2
*D3
 70
     1
 10
0.0
 20
0.0
 30
0.0
  3
*D3
  1

  0
TEXT
  5
401
330
3CB
100
AcDbEntity
  8
MO_001_VIEW_PV
  6
BYBLOCK
100
AcDbText
 10
-51.794713
 20
62.625
 30
0.0
 40
1.5
  1
%%P1.0
100
AcDbText
  0
TEXT
  5
402
330
3CB
100
AcDbEntity
  8
MO_001_VIEW_PV
  6
BYBLOCK
100
AcDbText
 10
-60.580428
 20
60.75
 30
0.0
 40
3.0
  1
107
100
AcDbText
  0
LINE
  5
403
330
3CB
100
AcDbEntity
  8
MO_001_VIEW_PV
  6
BYBLOCK
100
AcDbLine
 10
-107.017998
 20
60.0
 30
0.0
 11
0.0
 21
60.0
 31
0.0
  0
SOLID
  5
404
330
3CB
100
AcDbEntity
  8
MO_001_VIEW_PV
  6
BYBLOCK
100
AcDbTrace
 10
-103.699738
 20
60.583512
 30
0.0
 11
-106.509998
 21
60.0
 31
0.0
 12
-103.699738
 22
59.416488
 32
0.0
 13
-103.699738
 23
59.416488
 33
0.0
  0
SOLID
  5
405
330
3CB
100
AcDbEntity
  8
MO_001_VIEW_PV
  6
BYBLOCK
100
AcDbTrace
 10
-3.318259999999999
 20
59.416488
 30
0.0
 11
-0.508
 21
60.0
 31
0.0
 12
-3.318259999999999
 22
60.583512
 32
0.0
 13
-3.318259999999999
 23
60.583512
 33
0.0
  0
LINE
  5
406
330
3CB
100
AcDbEntity
  8
MO_001_VIEW_PV
  6
BYBLOCK
100
AcDbLine
 10
-107.017998
 20
5.409408999999999
 30
0.0
 11
-107.017998
 21
62.28599899999999
 31
0.0
  0
LINE
  5
407
330
3CB
100
AcDbEntity
  8
MO_001_VIEW_PV
  6
BYBLOCK
100
AcDbLine
 10
0.0
 20
37.69999699999999
 30
0.0
 11
0.0
 21
62.28599899999999
 31
0.0
  0
ENDBLK
  5
408
330
3CB
100
AcDbEntity
  8
0
100
AcDbBlockEnd
  0
BLOCK
  5
409
330
3CD
100
AcDbEntity
  8
0
100
AcDbBlockBegin
  2
*D4
 70
     1
 10
0.0
 20
0.0
 30
0.0
  3
*D4
  1

  0
TEXT
  5
40A
330
3CD
100
AcDbEntity
  8
MO_001_VIEW_PV
  6
BYBLOCK
100
AcDbText
 10
16.505285
 20
62.625
 30
0.0
 40
1.5
  1
%%P0.5
100
AcDbText
  0
TEXT
  5
40B
330
3CD
100
AcDbEntity
  8
MO_001_VIEW_PV
  6
BYBLOCK
100
AcDbText
 10
4.719571
 20
60.75
 30
0.0
 40
3.0
  1
26.6
100
AcDbText
  0
LINE
  5
40C
330
3CD
100
AcDbEntity
  8
MO_001_VIEW_PV
  6
BYBLOCK
100
AcDbLine
 10
26.581999
 20
60.0
 30
0.0
 11
0.0
 21
60.0
 31
0.0
  0
SOLID
  5
40D
330
3CD
100
AcDbEntity
  8
MO_001_VIEW_PV
  6
BYBLOCK
100
AcDbTrace
 10
23.263739
 20
59.416488
 30
0.0
 11
26.073999
 21
60.0
 31
0.0
 12
23.263739
 22
60.583512
 32
0.0
 13
23.263739
 23
60.583512
 33
0.0
  0
SOLID
  5
40E
330
3CD
100
AcDbEntity
  8
MO_001_VIEW_PV
  6
BYBLOCK
100
AcDbTrace
 10
3.318259999999999
 20
60.583512
 30
0.0
 11
0.508
 21
60.0
 31
0.0
 12
3.318259999999999
 22
59.416488
 32
0.0
 13
3.318259999999999
 23
59.416488
 33
0.0
  0
LINE
  5
40F
330
3CD
100
AcDbEntity
  8
MO_001_VIEW_PV
  6
BYBLOCK
100
AcDbLine
 10
26.581999
 20
5.255005
 30
0.0
 11
26.581999
 21
62.28599899999999
 31
0.0
  0
LINE
  5
410
330
3CD
100
AcDbEntity
  8
MO_001_VIEW_PV
  6
BYBLOCK
100
AcDbLine
 10
0.0
 20
37.69999699999999
 30
0.0
 11
0.0
 21
62.28599899999999
 31
0.0
  0
ENDBLK
  5
411
330
3CD
100
AcDbEntity
  8
0
100
AcDbBlockEnd
  0
BLOCK
  5
412
330
3CF
100
AcDbEntity
  8
0
100
AcDbBlockBegin
  2
*D5
 70
     1
 10
0.0
 20
0.0
 30
0.0
  3
*D5
  1

  0
TEXT
  5
413
330
3CF
100
AcDbEntity
  8
MO_001_VIEW_PV
  6
BYBLOCK
100
AcDbText
 10
-13.354601
 20
-50.25
 30
0.0
 40
3.0
  1
17.5以上
100
AcDbText
  0
LINE
  5
414
330
3CF
100
AcDbEntity
  8
MO_001_VIEW_PV
  6
BYBLOCK
100
AcDbLine
 10
26.581999
 20
-51.0
 30
0.0
 11
8.782
 21
-51.0
 31
0.0
  0
LINE
  5
415
330
3CF
100
AcDbEntity
  8
MO_001_VIEW_PV
  6
BYBLOCK
100
AcDbLine
 10
26.581999
 20
-51.0
 30
0.0
 11
32.93199899999999
 21
-51.0
 31
0.0
  0
LINE
  5
416
330
3CF
100
AcDbEntity
  8
MO_001_VIEW_PV
  6
BYBLOCK
100
AcDbLine
 10
8.782
 20
-51.0
 30
0.0
 11
2.431999999999999
 21
-51.0
 31
0.0
  0
SOLID
  5
417
330
3CF
100
AcDbEntity
  8
MO_001_VIEW_PV
  6
BYBLOCK
100
AcDbTrace
 10
29.900259
 20
-50.416488
 30
0.0
 11
27.089999
 21
-51.0
 31
0.0
 12
29.900259
 22
-51.583512
 32
0.0
 13
29.900259
 23
-51.583512
 33
0.0
  0
SOLID
  5
418
330
3CF
100
AcDbEntity
  8
MO_001_VIEW_PV
  6
BYBLOCK
100
AcDbTrace
 10
5.463739
 20
-51.583512
 30
0.0
 11
8.273999999999999
 21
-51.0
 31
0.0
 12
5.463739
 22
-50.416488
 32
0.0
 13
5.463739
 23
-50.416488
 33
0.0
  0
LINE
  5
419
330
3CF
100
AcDbEntity
  8
MO_001_VIEW_PV
  6
BYBLOCK
100
AcDbLine
 10
26.581999
 20
-5.255005
 30
0.0
 11
26.581999
 21
-53.285999
 31
0.0
  0
LINE
  5
41A
330
3CF
100
AcDbEntity
  8
MO_001_VIEW_PV
  6
BYBLOCK
100
AcDbLine
 10
8.782
 20
4.154999
 30
0.0
 11
8.782
 21
-53.285999
 31
0.0
  0
LINE
  5
41B
330
3CF
100
AcDbEntity
  8
MO_001_VIEW_PV
  6
BYBLOCK
100
AcDbLine
 10
8.782
 20
-51.0
 30
0.0
 11
-14.318887
 21
-51.0
 31
0.0
  0
ENDBLK
  5
41C
330
3CF
100
AcDbEntity
  8
0
100
AcDbBlockEnd
  0
BLOCK
  5
41D
330
3D1
100
AcDbEntity
  8
0
100
AcDbBlockBegin
  2
*D6
 70
     1
 10
0.0
 20
0.0
 30
0.0
  3
*D6
  1

  0
LINE
  5
41E
330
3D1
100
AcDbEntity
  8
MO_001_VIEW_PV
  6
BYBLOCK
100
AcDbLine
 10
42.0
 20
-27.0
 30
0.0
 11
42.0
 21
27.0
 31
0.0
  0
SOLID
  5
41F
330
3D1
100
AcDbEntity
  8
MO_001_VIEW_PV
  6
BYBLOCK
100
AcDbTrace
 10
41.416488
 20
-23.68173999999999
 30
0.0
 11
42.0
 21
-26.49199999999999
 31
0.0
 12
42.58351199999999
 22
-23.68173999999999
 32
0.0
 13
42.58351199999999
 23
-23.68173999999999
 33
0.0
  0
SOLID
  5
420
330
3D1
100
AcDbEntity
  8
MO_001_VIEW_PV
  6
BYBLOCK
100
AcDbTrace
 10
42.58351199999999
 20
23.68173999999999
 30
0.0
 11
42.0
 21
26.49199999999999
 31
0.0
 12
41.416488
 22
23.68173999999999
 32
0.0
 13
41.416488
 23
23.68173999999999
 33
0.0
  0
LINE
  5
421
330
3D1
100
AcDbEntity
  8
MO_001_VIEW_PV
  6
BYBLOCK
100
AcDbLine
 10
84.0
 20
-27.0
 30
0.0
 11
39.713997
 21
-27.0
 31
0.0
  0
LINE
  5
422
330
3D1
100
AcDbEntity
  8
MO_001_VIEW_PV
  6
BYBLOCK
100
AcDbLine
 10
84.0
 20
27.0
 30
0.0
 11
39.713997
 21
27.0
 31
0.0
  0
TEXT
  5
423
330
3D1
100
AcDbEntity
  8
MO_001_VIEW_PV
  6
BYBLOCK
100
AcDbText
 10
39.375
 20
0.214286
 30
0.0
 40
1.5
  1
%%P0.3
 50
90.0
100
AcDbText
  0
TEXT
  5
424
330
3D1
100
AcDbEntity
  8
MO_001_VIEW_PV
  6
BYBLOCK
100
AcDbText
 10
41.25
 20
-5.571429
 30
0.0
 40
3.0
  1
54
 50
90.0
100
AcDbText
  0
ENDBLK
  5
425
330
3D1
100
AcDbEntity
  8
0
100
AcDbBlockEnd
  0
BLOCK
  5
426
330
3D3
100
AcDbEntity
  8
0
100
AcDbBlockBegin
  2
*D7
 70
     1
 10
0.0
 20
0.0
 30
0.0
  3
*D7
  1

  0
TEXT
  5
427
330
3D3
100
AcDbEntity
  8
MO_001_VIEW_PV
  6
BYBLOCK
100
AcDbText
 10
82.92857099999999
 20
60.75
 30
0.0
 40
3.0
  1
%%C87以下
100
AcDbText
  0
LINE
  5
428
330
3D3
100
AcDbEntity
  8
MO_001_VIEW_PV
  6
BYBLOCK
100
AcDbLine
 10
47.150002
 20
60.0
 30
0.0
 11
132.850006
 21
60.0
 31
0.0
  0
SOLID
  5
429
330
3D3
100
AcDbEntity
  8
MO_001_VIEW_PV
  6
BYBLOCK
100
AcDbTrace
 10
50.468262
 20
60.583512
 30
0.0
 11
47.658002
 21
60.0
 31
0.0
 12
50.468262
 22
59.416488
 32
0.0
 13
50.468262
 23
59.416488
 33
0.0
  0
SOLID
  5
42A
330
3D3
100
AcDbEntity
  8
MO_001_VIEW_PV
  6
BYBLOCK
100
AcDbTrace
 10
129.5317459999999
 20
59.416488
 30
0.0
 11
132.3420059999999
 21
60.0
 31
0.0
 12
129.5317459999999
 22
60.583512
 32
0.0
 13
129.5317459999999
 23
60.583512
 33
0.0
  0
LINE
  5
42B
330
3D3
100
AcDbEntity
  8
MO_001_VIEW_PV
  6
BYBLOCK
100
AcDbLine
 10
47.150002
 20
0.0
 30
0.0
 11
47.150002
 21
62.28599899999999
 31
0.0
  0
LINE
  5
42C
330
3D3
100
AcDbEntity
  8
MO_001_VIEW_PV
  6
BYBLOCK
100
AcDbLine
 10
132.850006
 20
0.0
 30
0.0
 11
132.850006
 21
62.28599899999999
 31
0.0
  0
ENDBLK
  5
42D
330
3D3
100
AcDbEntity
  8
0
100
AcDbBlockEnd
  0
BLOCK
  5
42E
330
3D5
100
AcDbEntity
  8
0
100
AcDbBlockBegin
  2
*D8
 70
     1
 10
0.0
 20
0.0
 30
0.0
  3
*D8
  1

  0
TEXT
  5
42F
330
3D5
100
AcDbEntity
  8
MO_001_VIEW_PV
  6
BYBLOCK
100
AcDbText
 10
82.92857099999999
 20
54.75
 30
0.0
 40
3.0
  1
%%C37以下
100
AcDbText
  0
LINE
  5
430
330
3D5
100
AcDbEntity
  8
MO_001_VIEW_PV
  6
BYBLOCK
100
AcDbLine
 10
73.09999799999999
 20
54.0
 30
0.0
 11
106.8999939999999
 21
54.0
 31
0.0
  0
SOLID
  5
431
330
3D5
100
AcDbEntity
  8
MO_001_VIEW_PV
  6
BYBLOCK
100
AcDbTrace
 10
76.41825899999999
 20
54.583512
 30
0.0
 11
73.60799799999999
 21
54.0
 31
0.0
 12
76.41825899999999
 22
53.416488
 32
0.0
 13
76.41825899999999
 23
53.416488
 33
0.0
  0
SOLID
  5
432
330
3D5
100
AcDbEntity
  8
MO_001_VIEW_PV
  6
BYBLOCK
100
AcDbTrace
 10
103.5817339999999
 20
53.416488
 30
0.0
 11
106.3919939999999
 21
54.0
 31
0.0
 12
103.5817339999999
 22
54.583512
 32
0.0
 13
103.5817339999999
 23
54.583512
 33
0.0
  0
LINE
  5
433
330
3D5
100
AcDbEntity
  8
MO_001_VIEW_PV
  6
BYBLOCK
100
AcDbLine
 10
73.09999799999999
 20
0.0
 30
0.0
 11
73.09999799999999
 21
56.285999
 31
0.0
  0
LINE
  5
434
330
3D5
100
AcDbEntity
  8
MO_001_VIEW_PV
  6
BYBLOCK
100
AcDbLine
 10
106.8999939999999
 20
0.0
 30
0.0
 11
106.8999939999999
 21
56.285999
 31
0.0
  0
ENDBLK
  5
435
330
3D5
100
AcDbEntity
  8
0
100
AcDbBlockEnd
  0
BLOCK
  5
436
330
3D7
100
AcDbEntity
  8
0
100
AcDbBlockBegin
  2
*D9
 70
     1
 10
0.0
 20
0.0
 30
0.0
  3
*D9
  1

  0
LINE
  5
437
330
3D7
100
AcDbEntity
  8
MO_001_VIEW_PV
  6
BYBLOCK
100
AcDbLine
 10
63.0
 20
48.0
 30
0.0
 11
117.0
 21
48.0
 31
0.0
  0
SOLID
  5
438
330
3D7
100
AcDbEntity
  8
MO_001_VIEW_PV
  6
BYBLOCK
100
AcDbTrace
 10
66.31826
 20
48.583512
 30
0.0
 11
63.508
 21
48.0
 31
0.0
 12
66.31826
 22
47.416488
 32
0.0
 13
66.31826
 23
47.416488
 33
0.0
  0
SOLID
  5
439
330
3D7
100
AcDbEntity
  8
MO_001_VIEW_PV
  6
BYBLOCK
100
AcDbTrace
 10
113.6817399999999
 20
47.416488
 30
0.0
 11
116.492
 21
48.0
 31
0.0
 12
113.6817399999999
 22
48.583512
 32
0.0
 13
113.6817399999999
 23
48.583512
 33
0.0
  0
LINE
  5
43A
330
3D7
100
AcDbEntity
  8
MO_001_VIEW_PV
  6
BYBLOCK
100
AcDbLine
 10
63.0
 20
6.0
 30
0.0
 11
63.0
 21
50.28599899999999
 31
0.0
  0
LINE
  5
43B
330
3D7
100
AcDbEntity
  8
MO_001_VIEW_PV
  6
BYBLOCK
100
AcDbLine
 10
117.0
 20
6.0
 30
0.0
 11
117.0
 21
50.28599899999999
 31
0.0
  0
TEXT
  5
43C
330
3D7
100
AcDbEntity
  8
MO_001_VIEW_PV
  6
BYBLOCK
100
AcDbText
 10
90.214286
 20
50.625
 30
0.0
 40
1.5
  1
%%P0.2
100
AcDbText
  0
TEXT
  5
43D
330
3D7
100
AcDbEntity
  8
MO_001_VIEW_PV
  6
BYBLOCK
100
AcDbText
 10
84.42857099999999
 20
48.75
 30
0.0
 40
3.0
  1
54
100
AcDbText
  0
ENDBLK
  5
43E
330
3D7
100
AcDbEntity
  8
0
100
AcDbBlockEnd
  0
BLOCK
  5
43F
330
3D9
100
AcDbEntity
  8
0
100
AcDbBlockBegin
  2
*D10
 70
     1
 10
0.0
 20
0.0
 30
0.0
  3
*D10
  1

  0
TEXT
  5
440
330
3D9
100
AcDbEntity
  8
MO_001_VIEW_PV
  6
BYBLOCK
100
AcDbText
 10
30.375
 20
28.9206
 30
0.0
 40
1.5
  1
%%P0.03
 50
90.0
100
AcDbText
  0
TEXT
  5
441
330
3D9
100
AcDbEntity
  8
MO_001_VIEW_PV
  6
BYBLOCK
100
AcDbText
 10
32.25
 20
11.134885
 30
0.0
 40
3.0
  1
%%C11.11
 50
90.0
100
AcDbText
  0
LINE
  5
442
330
3D9
100
AcDbEntity
  8
MO_001_VIEW_PV
  6
BYBLOCK
100
AcDbLine
 10
33.0
 20
-5.554992999999999
 30
0.0
 11
33.0
 21
5.554992999999999
 31
0.0
  0
LINE
  5
443
330
3D9
100
AcDbEntity
  8
MO_001_VIEW_PV
  6
BYBLOCK
100
AcDbLine
 10
33.0
 20
-5.554992999999999
 30
0.0
 11
33.0
 21
-11.90499299999999
 31
0.0
  0
LINE
  5
444
330
3D9
100
AcDbEntity
  8
MO_001_VIEW_PV
  6
BYBLOCK
100
AcDbLine
 10
33.0
 20
5.554992999999999
 30
0.0
 11
33.0
 21
11.90499299999999
 31
0.0
  0
SOLID
  5
445
330
3D9
100
AcDbEntity
  8
MO_001_VIEW_PV
  6
BYBLOCK
100
AcDbTrace
 10
33.58351199999999
 20
-8.873253
 30
0.0
 11
33.0
 21
-6.062992999999999
 31
0.0
 12
32.416488
 22
-8.873253
 32
0.0
 13
32.416488
 23
-8.873253
 33
0.0
  0
SOLID
  5
446
330
3D9
100
AcDbEntity
  8
MO_001_VIEW_PV
  6
BYBLOCK
100
AcDbTrace
 10
32.416488
 20
8.873253
 30
0.0
 11
33.0
 21
6.062992999999999
 31
0.0
 12
33.58351199999999
 22
8.873253
 32
0.0
 13
33.58351199999999
 23
8.873253
 33
0.0
  0
LINE
  5
447
330
3D9
100
AcDbEntity
  8
MO_001_VIEW_PV
  6
BYBLOCK
100
AcDbLine
 10
26.28199999999999
 20
-5.554992999999999
 30
0.0
 11
35.28599899999999
 21
-5.554992999999999
 31
0.0
  0
LINE
  5
448
330
3D9
100
AcDbEntity
  8
MO_001_VIEW_PV
  6
BYBLOCK
100
AcDbLine
 10
26.28199999999999
 20
5.554992999999999
 30
0.0
 11
35.28599899999999
 21
5.554992999999999
 31
0.0
  0
LINE
  5
449
330
3D9
100
AcDbEntity
  8
MO_001_VIEW_PV
  6
BYBLOCK
100
AcDbLine
 10
33.0
 20
5.554992999999999
 30
0.0
 11
33.0
 21
36.742027
 31
0.0
  0
ENDBLK
  5
44A
330
3D9
100
AcDbEntity
  8
0
100
AcDbBlockEnd
  0
BLOCK
  5
44B
330
3DB
100
AcDbEntity
  8
0
100
AcDbBlockBegin
  2
*D11
 70
     1
 10
0.0
 20
0.0
 30
0.0
  3
*D11
  1

  0
TEXT
  5
44C
330
3DB
100
AcDbEntity
  8
MO_001_VIEW_PV
  6
BYBLOCK
100
AcDbText
 10
140.25
 20
-19.071429
 30
0.0
 40
3.0
  1
長さ250以上
 50
90.0
100
AcDbText
  0
LINE
  5
44D
330
3DB
100
AcDbEntity
  8
MO_001_VIEW_PV
  6
BYBLOCK
100
AcDbLine
 10
141.0
 20
-78.350006
 30
0.0
 11
141.0
 21
-39.690056
 31
0.0
  0
SOLID
  5
44E
330
3DB
100
AcDbEntity
  8
MO_001_VIEW_PV
  6
BYBLOCK
100
AcDbTrace
 10
140.4164879999999
 20
-75.031746
 30
0.0
 11
141.0
 21
-77.84200600000001
 31
0.0
 12
141.583512
 22
-75.031746
 32
0.0
 13
141.583512
 23
-75.031746
 33
0.0
  0
SOLID
  5
44F
330
3DB
100
AcDbEntity
  8
MO_001_VIEW_PV
  6
BYBLOCK
100
AcDbTrace
 10
141.583512
 20
-43.008316
 30
0.0
 11
141.0
 21
-40.198056
 31
0.0
 12
140.4164879999999
 22
-43.008316
 32
0.0
 13
140.4164879999999
 23
-43.008316
 33
0.0
  0
LINE
  5
450
330
3DB
100
AcDbEntity
  8
MO_001_VIEW_PV
  6
BYBLOCK
100
AcDbLine
 10
104.799988
 20
-78.350006
 30
0.0
 11
143.2859949999999
 21
-78.350006
 31
0.0
  0
LINE
  5
451
330
3DB
100
AcDbEntity
  8
MO_001_VIEW_PV
  6
BYBLOCK
100
AcDbLine
 10
106.149994
 20
-39.690056
 30
0.0
 11
143.2859949999999
 21
-39.690056
 31
0.0
  0
LINE
  5
452
330
3DB
100
AcDbEntity
  8
MO_001_VIEW_PV
  6
BYBLOCK
100
AcDbLine
 10
141.0
 20
-39.690056
 30
0.0
 11
141.0
 21
2.035721
 31
0.0
  0
ENDBLK
  5
453
330
3DB
100
AcDbEntity
  8
0
100
AcDbBlockEnd
  0
ENDSEC
  0
SECTION
  2
ENTITIES
  0
TEXT
  5
4B
330
1E
100
AcDbEntity
  8
OVERLAY_MAP
  6
C_SOLID_L
100
AcDbText
 10
0.0
 20
6.349999999999999
 30
0.0
 40
4.1672
  1
Model Overlay Name
100
AcDbText
  0
TEXT
  5
4C
330
1E
100
AcDbEntity
  8
OVERLAY_MAP
  6
C_SOLID_L
100
AcDbText
 10
126.999998
 20
0.0
 30
0.0
 40
4.1672
  1
Number
100
AcDbText
  0
TEXT
  5
4D
330
1E
100
AcDbEntity
  8
OVERLAY_MAP
  6
C_SOLID_L
100
AcDbText
 10
177.7999969999999
 20
0.0
 30
0.0
 40
4.1672
  1
File Text
100
AcDbText
  0
TEXT
  5
4E
330
1E
100
AcDbEntity
  8
OVERLAY_MAP
  6
C_SOLID_L
100
AcDbText
 10
0.0
 20
-6.349999999999999
 30
0.0
 40
4.1672
  1
ro 8l349 
100
AcDbText
  0
TEXT
  5
4F
330
1E
100
AcDbEntity
  8
OVERLAY_MAP
  6
C_SOLID_L
100
AcDbText
 10
126.999998
 20
-6.349999999999999
 30
0.0
 40
4.1672
  1
001
100
AcDbText
  0
TEXT
  5
50
330
1E
100
AcDbEntity
  8
OVERLAY_MAP
  6
C_SOLID_L
100
AcDbText
 10
177.7999969999999
 20
-6.349999999999999
 30
0.0
 40
4.1672
  1
                                                                   00143
100
AcDbText
  0
CIRCLE
  5
51
330
1E
100
AcDbEntity
  8
MO_001_VIEW_PV
  6
C_SOLID_M
100
AcDbCircle
 10
90.0
 20
0.0
 30
0.0
 40
42.849998
  0
CIRCLE
  5
52
330
1E
100
AcDbEntity
  8
MO_001_VIEW_PV
  6
C_SOLID_M
100
AcDbCircle
 10
90.0
 20
0.0
 30
0.0
 40
42.04999899999999
  0
LINE
  5
53
330
1E
100
AcDbEntity
  8
MO_001_VIEW_PV
  6
C_CENTER_L
100
AcDbLine
 10
90.0
 20
45.0
 30
0.0
 11
90.0
 21
-45.849998
 31
0.0
  0
LINE
  5
54
330
1E
100
AcDbEntity
  8
MO_001_VIEW_PV
  6
C_CENTER_L
100
AcDbLine
 10
45.0
 20
0.0
 30
0.0
 11
135.850006
 21
0.0
 31
0.0
  0
CIRCLE
  5
55
330
1E
100
AcDbEntity
  8
MO_001_VIEW_PV
  6
C_SOLID_M
100
AcDbCircle
 10
90.0
 20
0.0
 30
0.0
 40
38.25
  0
CIRCLE
  5
56
330
1E
100
AcDbEntity
  8
MO_001_VIEW_PV
  6
C_SOLID_M
100
AcDbCircle
 10
90.0
 20
0.0
 30
0.0
 40
37.849998
  0
CIRCLE
  5
57
330
1E
100
AcDbEntity
  8
MO_001_VIEW_PV
  6
C_SOLID_M
100
AcDbCircle
 10
90.0
 20
0.0
 30
0.0
 40
5.255001999999999
  0
CIRCLE
  5
58
330
1E
100
AcDbEntity
  8
MO_001_VIEW_PV
  6
C_SOLID_M
100
AcDbCircle
 10
90.0
 20
0.0
 30
0.0
 40
5.554999999999999
  0
CIRCLE
  5
59
330
1E
100
AcDbEntity
  8
MO_001_VIEW_PV
  6
C_SOLID_M
100
AcDbCircle
 10
90.0
 20
0.0
 30
0.0
 40
37.700001
  0
CIRCLE
  5
5A
330
1E
100
AcDbEntity
  8
MO_001_VIEW_PV
  6
C_SOLID_M
100
AcDbCircle
 10
90.0
 20
27.0
 30
0.0
 40
4.0
  0
CIRCLE
  5
5B
330
1E
100
AcDbEntity
  8
MO_001_VIEW_PV
  6
C_SOLID_M
100
AcDbCircle
 10
63.0
 20
0.0
 30
0.0
 40
4.0
  0
CIRCLE
  5
5C
330
1E
100
AcDbEntity
  8
MO_001_VIEW_PV
  6
C_SOLID_M
100
AcDbCircle
 10
90.0
 20
-27.0
 30
0.0
 40
4.0
  0
CIRCLE
  5
5D
330
1E
100
AcDbEntity
  8
MO_001_VIEW_PV
  6
C_SOLID_M
100
AcDbCircle
 10
117.0
 20
0.0
 30
0.0
 40
4.0
  0
ARC
  5
5E
330
1E
100
AcDbEntity
  8
MO_001_VIEW_PV
  6
C_SOLID_M
100
AcDbCircle
 10
80.61530299999999
 20
11.184249
 30
0.0
 40
3.299999999999999
100
AcDbArc
 50
57.472757
 51
202.63461
  0
ARC
  5
5F
330
1E
100
AcDbEntity
  8
MO_001_VIEW_PV
  6
C_SOLID_M
100
AcDbCircle
 10
90.0
 20
0.0
 30
0.0
 40
15.9
100
AcDbArc
 50
101.4114249999999
 51
118.588558
  0
ARC
  5
60
330
1E
100
AcDbEntity
  8
MO_001_VIEW_PV
  6
C_SOLID_M
100
AcDbCircle
 10
90.0
 20
0.0
 30
0.0
 40
16.89999999999999
100
AcDbArc
 50
101.9231219999999
 51
118.076854
  0
LINE
  5
61
330
1E
100
AcDbEntity
  8
MO_001_VIEW_PV
  6
C_SOLID_M
100
AcDbLine
 10
86.508487
 20
16.5354
 30
0.0
 11
86.85415400000001
 21
15.585687
 31
0.0
  0
LINE
  5
62
330
1E
100
AcDbEntity
  8
MO_001_VIEW_PV
  6
C_SOLID_M
100
AcDbLine
 10
82.04593499999999
 20
14.911167
 30
0.0
 11
82.39160299999999
 21
13.961454
 31
0.0
  0
LINE
  5
63
330
1E
100
AcDbEntity
  8
MO_001_VIEW_PV
  6
C_SOLID_M
100
AcDbLine
 10
86.50848000000001
 20
16.535392
 30
0.0
 11
87.461224
 21
16.708217
 31
0.0
  0
LINE
  5
64
330
1E
100
AcDbEntity
  8
MO_001_VIEW_PV
  6
C_SOLID_M
100
AcDbLine
 10
82.04593499999999
 20
14.91116099999999
 30
0.0
 11
81.20500099999999
 21
14.431141
 31
0.0
  0
ARC
  5
65
330
1E
100
AcDbEntity
  8
MO_001_VIEW_PV
  6
C_SOLID_M
100
AcDbCircle
 10
75.621811
 20
2.535265
 30
0.0
 40
3.299999999999999
100
AcDbArc
 50
97.472755
 51
242.6346019999999
  0
ARC
  5
66
330
1E
100
AcDbEntity
  8
MO_001_VIEW_PV
  6
C_SOLID_M
100
AcDbCircle
 10
90.0
 20
0.0
 30
0.0
 40
15.9
100
AcDbArc
 50
141.4114309999999
 51
158.5885639999999
  0
ARC
  5
67
330
1E
100
AcDbEntity
  8
MO_001_VIEW_PV
  6
C_SOLID_M
100
AcDbCircle
 10
90.0
 20
0.0
 30
0.0
 40
16.89999999999999
100
AcDbArc
 50
141.923121
 51
158.07686
  0
LINE
  5
68
330
1E
100
AcDbEntity
  8
MO_001_VIEW_PV
  6
C_SOLID_M
100
AcDbLine
 10
76.696602
 20
10.422524
 30
0.0
 11
77.57185699999999
 21
9.917194999999999
 31
0.0
  0
LINE
  5
69
330
1E
100
AcDbEntity
  8
MO_001_VIEW_PV
  6
C_SOLID_M
100
AcDbLine
 10
74.32212199999999
 20
6.309817999999999
 30
0.0
 11
75.19738499999999
 21
5.804484999999999
 31
0.0
  0
LINE
  5
6A
330
1E
100
AcDbEntity
  8
MO_001_VIEW_PV
  6
C_SOLID_M
100
AcDbLine
 10
76.696591
 20
10.42253399999999
 30
0.0
 11
77.31534599999999
 21
11.167338
 31
0.0
  0
LINE
  5
6B
330
1E
100
AcDbEntity
  8
MO_001_VIEW_PV
  6
C_SOLID_M
100
AcDbLine
 10
74.322105
 20
6.309798999999999
 30
0.0
 11
73.986464
 21
5.401539999999999
 31
0.0
  0
ARC
  5
6C
330
1E
100
AcDbEntity
  8
MO_001_VIEW_PV
  6
C_SOLID_M
100
AcDbCircle
 10
77.356033
 20
-7.299996000000001
 30
0.0
 40
3.299999999999999
100
AcDbArc
 50
137.472761
 51
282.6345939999999
  0
ARC
  5
6D
330
1E
100
AcDbEntity
  8
MO_001_VIEW_PV
  6
C_SOLID_M
100
AcDbCircle
 10
90.0
 20
0.0
 30
0.0
 40
15.9
100
AcDbArc
 50
181.41144
 51
198.5885729999999
  0
ARC
  5
6E
330
1E
100
AcDbEntity
  8
MO_001_VIEW_PV
  6
C_SOLID_M
100
AcDbCircle
 10
90.0
 20
0.0
 30
0.0
 40
16.89999999999999
100
AcDbArc
 50
181.92313
 51
198.0768689999999
  0
LINE
  5
6F
330
1E
100
AcDbEntity
  8
MO_001_VIEW_PV
  6
C_SOLID_M
100
AcDbLine
 10
73.10953000000001
 20
-0.567144
 30
0.0
 11
74.104834
 21
-0.391645
 31
0.0
  0
LINE
  5
70
330
1E
100
AcDbEntity
  8
MO_001_VIEW_PV
  6
C_SOLID_M
100
AcDbLine
 10
73.93416999999999
 20
-5.243945
 30
0.0
 11
74.92948100000001
 21
-5.068444999999999
 31
0.0
  0
LINE
  5
71
330
1E
100
AcDbEntity
  8
MO_001_VIEW_PV
  6
C_SOLID_M
100
AcDbLine
 10
73.109551
 20
-0.5671390000000001
 30
0.0
 11
73.104794
 21
0.4011420000000001
 31
0.0
  0
LINE
  5
72
330
1E
100
AcDbEntity
  8
MO_001_VIEW_PV
  6
C_SOLID_M
100
AcDbLine
 10
73.934153
 20
-5.243958
 30
0.0
 11
74.26085400000001
 21
-6.155470999999999
 31
0.0
  0
ARC
  5
73
330
1E
100
AcDbEntity
  8
MO_001_VIEW_PV
  6
C_SOLID_M
100
AcDbCircle
 10
85.006508
 20
-13.719507
 30
0.0
 40
3.299999999999999
100
AcDbArc
 50
177.472767
 51
322.634586
  0
ARC
  5
74
330
1E
100
AcDbEntity
  8
MO_001_VIEW_PV
  6
C_SOLID_M
100
AcDbCircle
 10
90.0
 20
0.0
 30
0.0
 40
15.9
100
AcDbArc
 50
221.4114459999999
 51
238.588579
  0
ARC
  5
75
330
1E
100
AcDbEntity
  8
MO_001_VIEW_PV
  6
C_SOLID_M
100
AcDbCircle
 10
90.0
 20
0.0
 30
0.0
 40
16.89999999999999
100
AcDbArc
 50
221.923136
 51
238.0768749999999
  0
LINE
  5
76
330
1E
100
AcDbEntity
  8
MO_001_VIEW_PV
  6
C_SOLID_M
100
AcDbLine
 10
77.425698
 20
-11.291444
 30
0.0
 11
78.07533599999999
 21
-10.517235
 31
0.0
  0
LINE
  5
77
330
1E
100
AcDbEntity
  8
MO_001_VIEW_PV
  6
C_SOLID_M
100
AcDbLine
 10
81.06359799999999
 20
-14.344014
 30
0.0
 11
81.71324099999999
 21
-13.569798
 31
0.0
  0
LINE
  5
78
330
1E
100
AcDbEntity
  8
MO_001_VIEW_PV
  6
C_SOLID_M
100
AcDbLine
 10
77.42570500000001
 20
-11.291449
 30
0.0
 11
76.79966199999999
 21
-10.552761
 31
0.0
  0
LINE
  5
79
330
1E
100
AcDbEntity
  8
MO_001_VIEW_PV
  6
C_SOLID_M
100
AcDbLine
 10
81.063615
 20
-14.34402
 30
0.0
 11
81.89979200000001
 21
-14.832279
 31
0.0
  0
ARC
  5
7A
330
1E
100
AcDbEntity
  8
MO_001_VIEW_PV
  6
C_SOLID_M
100
AcDbCircle
 10
94.99349200000001
 20
-13.719507
 30
0.0
 40
3.299999999999999
100
AcDbArc
 50
217.4727759999999
 51
343.095297
  0
ARC
  5
7B
330
1E
100
AcDbEntity
  8
MO_001_VIEW_PV
  6
C_SOLID_M
100
AcDbCircle
 10
90.0
 20
0.0
 30
0.0
 40
15.9
100
AcDbArc
 50
261.411444
 51
278.588578
  0
ARC
  5
7C
330
1E
100
AcDbEntity
  8
MO_001_VIEW_PV
  6
C_SOLID_M
100
AcDbCircle
 10
90.0
 20
0.0
 30
0.0
 40
16.89999999999999
100
AcDbArc
 50
261.923135
 51
278.076874
  0
LINE
  5
7D
330
1E
100
AcDbEntity
  8
MO_001_VIEW_PV
  6
C_SOLID_M
100
AcDbLine
 10
87.62553
 20
-16.73235599999999
 30
0.0
 11
87.62552900000001
 21
-15.721704
 31
0.0
  0
LINE
  5
7E
330
1E
100
AcDbEntity
  8
MO_001_VIEW_PV
  6
C_SOLID_M
100
AcDbLine
 10
92.374477
 20
-16.73236199999999
 30
0.0
 11
92.374477
 21
-15.72170299999999
 31
0.0
  0
LINE
  5
7F
330
1E
100
AcDbEntity
  8
MO_001_VIEW_PV
  6
C_SOLID_M
100
AcDbLine
 10
87.625522
 20
-16.73235899999999
 30
0.0
 11
86.67112499999999
 21
-16.56890399999999
 31
0.0
  0
LINE
  5
80
330
1E
100
AcDbEntity
  8
MO_001_VIEW_PV
  6
C_SOLID_M
100
AcDbLine
 10
92.374486
 20
-16.73236499999999
 30
0.0
 11
93.32888199999999
 21
-16.56890899999999
 31
0.0
  0
ARC
  5
81
330
1E
100
AcDbEntity
  8
MO_001_VIEW_PV
  6
C_SOLID_M
100
AcDbCircle
 10
102.643967
 20
-7.299997
 30
0.0
 40
3.299999999999999
100
AcDbArc
 50
257.472775
 51
42.634577
  0
ARC
  5
82
330
1E
100
AcDbEntity
  8
MO_001_VIEW_PV
  6
C_SOLID_M
100
AcDbCircle
 10
90.0
 20
0.0
 30
0.0
 40
15.9
100
AcDbArc
 50
301.411443
 51
318.588577
  0
ARC
  5
83
330
1E
100
AcDbEntity
  8
MO_001_VIEW_PV
  6
C_SOLID_M
100
AcDbCircle
 10
90.0
 20
0.0
 30
0.0
 40
16.89999999999999
100
AcDbArc
 50
301.923134
 51
318.076873
  0
LINE
  5
84
330
1E
100
AcDbEntity
  8
MO_001_VIEW_PV
  6
C_SOLID_M
100
AcDbLine
 10
98.93639100000001
 20
-14.34401499999999
 30
0.0
 11
98.28675200000001
 21
-13.56980599999999
 31
0.0
  0
LINE
  5
85
330
1E
100
AcDbEntity
  8
MO_001_VIEW_PV
  6
C_SOLID_M
100
AcDbLine
 10
102.5742999999999
 20
-11.291455
 30
0.0
 11
101.924656
 21
-10.51723999999999
 31
0.0
  0
LINE
  5
86
330
1E
100
AcDbEntity
  8
MO_001_VIEW_PV
  6
C_SOLID_M
100
AcDbLine
 10
98.299134
 20
-14.716141
 30
0.0
 11
98.10022899999999
 21
-14.83228599999999
 31
0.0
  0
LINE
  5
87
330
1E
100
AcDbEntity
  8
MO_001_VIEW_PV
  6
C_SOLID_M
100
AcDbLine
 10
102.574334
 20
-11.29143999999999
 30
0.0
 11
103.2003769999999
 21
-10.552751
 31
0.0
  0
ARC
  5
88
330
1E
100
AcDbEntity
  8
MO_001_VIEW_PV
  6
C_SOLID_M
100
AcDbCircle
 10
104.3781889999999
 20
2.535263
 30
0.0
 40
3.299999999999999
100
AcDbArc
 50
297.472774
 51
82.634579
  0
ARC
  5
89
330
1E
100
AcDbEntity
  8
MO_001_VIEW_PV
  6
C_SOLID_M
100
AcDbCircle
 10
90.0
 20
0.0
 30
0.0
 40
15.9
100
AcDbArc
 50
341.411444
 51
358.5885769999999
  0
ARC
  5
8A
330
1E
100
AcDbEntity
  8
MO_001_VIEW_PV
  6
C_SOLID_M
100
AcDbCircle
 10
90.0
 20
0.0
 30
0.0
 40
16.89999999999999
100
AcDbArc
 50
341.923134
 51
358.0768729999999
  0
LINE
  5
8B
330
1E
100
AcDbEntity
  8
MO_001_VIEW_PV
  6
C_SOLID_M
100
AcDbLine
 10
106.065857
 20
-5.243943999999999
 30
0.0
 11
105.0705449999999
 21
-5.068444
 31
0.0
  0
LINE
  5
8C
330
1E
100
AcDbEntity
  8
MO_001_VIEW_PV
  6
C_SOLID_M
100
AcDbLine
 10
106.890503
 20
-0.5671400000000001
 30
0.0
 11
105.8951909999999
 21
-0.39164
 31
0.0
  0
LINE
  5
8D
330
1E
100
AcDbEntity
  8
MO_001_VIEW_PV
  6
C_SOLID_M
100
AcDbLine
 10
106.065808
 20
-5.243954
 30
0.0
 11
105.7391069999999
 21
-6.155466
 31
0.0
  0
LINE
  5
8E
330
1E
100
AcDbEntity
  8
MO_001_VIEW_PV
  6
C_SOLID_M
100
AcDbLine
 10
106.8905199999999
 20
-0.567125
 30
0.0
 11
106.895277
 21
0.4011560000000001
 31
0.0
  0
ARC
  5
8F
330
1E
100
AcDbEntity
  8
MO_001_VIEW_PV
  6
C_SOLID_M
100
AcDbCircle
 10
99.38470500000001
 20
11.18424599999999
 30
0.0
 40
3.299999999999999
100
AcDbArc
 50
337.472774
 51
122.634585
  0
ARC
  5
90
330
1E
100
AcDbEntity
  8
MO_001_VIEW_PV
  6
C_SOLID_M
100
AcDbCircle
 10
90.0
 20
0.0
 30
0.0
 40
15.9
100
AcDbArc
 50
21.411444
 51
38.588578
  0
ARC
  5
91
330
1E
100
AcDbEntity
  8
MO_001_VIEW_PV
  6
C_SOLID_M
100
AcDbCircle
 10
90.0
 20
0.0
 30
0.0
 40
16.89999999999999
100
AcDbArc
 50
21.923135
 51
38.07687399999999
  0
LINE
  5
92
330
1E
100
AcDbEntity
  8
MO_001_VIEW_PV
  6
C_SOLID_M
100
AcDbLine
 10
105.677897
 20
6.309825
 30
0.0
 11
104.802641
 21
5.804496
 31
0.0
  0
LINE
  5
93
330
1E
100
AcDbEntity
  8
MO_001_VIEW_PV
  6
C_SOLID_M
100
AcDbLine
 10
103.303429
 20
10.422538
 30
0.0
 11
102.428167
 21
9.917203999999999
 31
0.0
  0
LINE
  5
94
330
1E
100
AcDbEntity
  8
MO_001_VIEW_PV
  6
C_SOLID_M
100
AcDbLine
 10
105.6778909999999
 20
6.309817999999999
 30
0.0
 11
106.0135309999999
 21
5.401562999999999
 31
0.0
  0
LINE
  5
95
330
1E
100
AcDbEntity
  8
MO_001_VIEW_PV
  6
C_SOLID_M
100
AcDbLine
 10
103.303398
 20
10.42254
 30
0.0
 11
102.684643
 21
11.167344
 31
0.0
  0
ARC
  5
96
330
1E
100
AcDbEntity
  8
MO_001_VIEW_PV
  6
C_SOLID_M
100
AcDbCircle
 10
90.0
 20
14.599997
 30
0.0
 40
3.299999999999999
100
AcDbArc
 50
17.472775
 51
162.6345909999999
  0
ARC
  5
97
330
1E
100
AcDbEntity
  8
MO_001_VIEW_PV
  6
C_SOLID_M
100
AcDbCircle
 10
90.0
 20
0.0
 30
0.0
 40
15.9
100
AcDbArc
 50
61.41144699999999
 51
78.58858000000001
  0
ARC
  5
98
330
1E
100
AcDbEntity
  8
MO_001_VIEW_PV
  6
C_SOLID_M
100
AcDbCircle
 10
90.0
 20
0.0
 30
0.0
 40
16.89999999999999
100
AcDbArc
 50
61.923137
 51
78.076876
  0
LINE
  5
99
330
1E
100
AcDbEntity
  8
MO_001_VIEW_PV
  6
C_SOLID_M
100
AcDbLine
 10
97.954091
 20
14.911152
 30
0.0
 11
97.608425
 21
13.961444
 31
0.0
  0
LINE
  5
9A
330
1E
100
AcDbEntity
  8
MO_001_VIEW_PV
  6
C_SOLID_M
100
AcDbLine
 10
93.491542
 20
16.535394
 30
0.0
 11
93.14587399999998
 21
15.585678
 31
0.0
  0
LINE
  5
9B
330
1E
100
AcDbEntity
  8
MO_001_VIEW_PV
  6
C_SOLID_M
100
AcDbLine
 10
97.95408600000001
 20
14.911167
 30
0.0
 11
98.795014
 21
14.431151
 31
0.0
  0
LINE
  5
9C
330
1E
100
AcDbEntity
  8
MO_001_VIEW_PV
  6
C_SOLID_M
100
AcDbLine
 10
93.49150999999999
 20
16.535387
 30
0.0
 11
92.538765
 21
16.70821199999999
 31
0.0
  0
ARC
  5
9D
330
1E
100
AcDbEntity
  8
MO_001_VIEW_PV
  6
C_SOLID_M
100
AcDbCircle
 10
90.0
 20
0.0
 30
0.0
 40
15.9
100
AcDbArc
 50
273.7990779999999
 51
90.000002
  0
ARC
  5
9E
330
1E
100
AcDbEntity
  8
MO_001_VIEW_PV
  6
C_SOLID_M
100
AcDbCircle
 10
90.0
 20
0.0
 30
0.0
 40
5.554999999999999
100
AcDbArc
 50
269.999998
 51
342.736598
  0
ARC
  5
9F
330
1E
100
AcDbEntity
  8
MO_001_VIEW_PV
  6
C_SOLID_M
100
AcDbCircle
 10
90.0
 20
0.0
 30
0.0
 40
17.1
100
AcDbArc
 50
304.007342
 51
311.84482
  0
ARC
  5
A0
330
1E
100
AcDbEntity
  8
MO_001_VIEW_PV
  6
C_SOLID_M
100
AcDbCircle
 10
90.0
 20
0.0
 30
0.0
 40
15.4
100
AcDbArc
 50
269.999998
 51
90.000002
  0
ARC
  5
A1
330
1E
100
AcDbEntity
  8
MO_001_VIEW_PV
  6
C_SOLID_M
100
AcDbCircle
 10
90.0
 20
0.0
 30
0.0
 40
17.6
100
AcDbArc
 50
304.007342
 51
311.84482
  0
LINE
  5
A2
330
1E
100
AcDbEntity
  8
MO_001_VIEW_PV
  6
C_SOLID_M
100
AcDbLine
 10
101.74122
 20
-13.111188
 30
0.0
 11
101.407668
 21
-12.73871699999999
 31
0.0
  0
ARC
  5
A3
330
1E
100
AcDbEntity
  8
MO_001_VIEW_PV
  6
C_SOLID_M
100
AcDbCircle
 10
99.00471500000001
 20
-13.346351
 30
0.0
 40
1.5
100
AcDbArc
 50
255.9664109999999
 51
304.007342
  0
ARC
  5
A4
330
1E
100
AcDbEntity
  8
MO_001_VIEW_PV
  6
C_SOLID_M
100
AcDbCircle
 10
97.031921
 20
-16.46092399999999
 30
0.0
 40
2.0
100
AcDbArc
 50
75.96640900000001
 51
113.131633
  0
LINE
  5
A5
330
1E
100
AcDbEntity
  8
MO_001_VIEW_PV
  6
C_SOLID_M
100
AcDbLine
 10
97.51690600000001
 20
-14.520613
 30
0.0
 11
98.640986
 21
-14.80157699999999
 31
0.0
  0
ARC
  5
A6
330
1E
100
AcDbEntity
  8
MO_001_VIEW_PV
  6
C_SOLID_M
100
AcDbCircle
 10
99.00471500000001
 20
-13.346351
 30
0.0
 40
1.0
100
AcDbArc
 50
255.9664109999999
 51
304.007342
  0
LINE
  5
A7
330
1E
100
AcDbEntity
  8
MO_001_VIEW_PV
  6
C_SOLID_M
100
AcDbLine
 10
97.63815200000001
 20
-14.03553599999999
 30
0.0
 11
98.762231
 21
-14.3165
 31
0.0
  0
ARC
  5
A8
330
1E
100
AcDbEntity
  8
MO_001_VIEW_PV
  6
C_SOLID_M
100
AcDbCircle
 10
97.031921
 20
-16.46092399999999
 30
0.0
 40
2.5
100
AcDbArc
 50
75.96640900000001
 51
78.734268
  0
LINE
  5
A9
330
1E
100
AcDbEntity
  8
MO_001_VIEW_PV
  6
C_SOLID_M
100
AcDbLine
 10
91.053522
 20
-15.865066
 30
0.0
 11
91.02039299999999
 21
-15.366165
 31
0.0
  0
ARC
  5
AA
330
1E
100
AcDbEntity
  8
MO_001_VIEW_PV
  6
C_SOLID_M
100
AcDbCircle
 10
90.0
 20
0.25
 30
0.0
 40
15.65
100
AcDbArc
 50
90.000002
 51
270.000001
  0
ARC
  5
AB
330
1E
100
AcDbEntity
  8
MO_001_VIEW_PV
  6
C_SOLID_M
100
AcDbCircle
 10
90.0
 20
0.25
 30
0.0
 40
15.15
100
AcDbArc
 50
90.000002
 51
270.000001
  0
ARC
  5
AC
330
1E
100
AcDbEntity
  8
MO_001_VIEW_PV
  6
C_SOLID_M
100
AcDbCircle
 10
90.0
 20
0.0
 30
0.0
 40
14.9
100
AcDbArc
 50
269.999998
 51
90.000002
  0
ARC
  5
AD
330
1E
100
AcDbEntity
  8
MO_001_VIEW_PV
  6
C_SOLID_M
100
AcDbCircle
 10
90.0
 20
0.25
 30
0.0
 40
14.65
100
AcDbArc
 50
90.000002
 51
270.000001
  0
ARC
  5
AE
330
1E
100
AcDbEntity
  8
MO_001_VIEW_PV
  6
C_SOLID_M
100
AcDbCircle
 10
93.394852
 20
-1.054999999999999
 30
0.0
 40
2.5
100
AcDbArc
 50
342.736598
 51
30.405328
  0
ARC
  5
AF
330
1E
100
AcDbEntity
  8
MO_001_VIEW_PV
  6
C_SOLID_M
100
AcDbCircle
 10
90.0
 20
0.0
 30
0.0
 40
6.054999999999999
100
AcDbArc
 50
269.999998
 51
90.000002
  0
ARC
  5
B0
330
1E
100
AcDbEntity
  8
MO_001_VIEW_PV
  6
C_SOLID_M
100
AcDbCircle
 10
90.0
 20
0.25
 30
0.0
 40
5.804999999999999
100
AcDbArc
 50
90.000002
 51
270.000001
  0
ARC
  5
B1
330
1E
100
AcDbEntity
  8
MO_001_VIEW_PV
  6
C_SOLID_M
100
AcDbCircle
 10
90.0
 20
0.25
 30
0.0
 40
6.304999999999999
100
AcDbArc
 50
90.000002
 51
270.000001
  0
ARC
  5
B2
330
1E
100
AcDbEntity
  8
MO_001_VIEW_PV
  6
C_SOLID_M
100
AcDbCircle
 10
90.0
 20
0.0
 30
0.0
 40
6.554999999999999
100
AcDbArc
 50
269.999998
 51
90.000002
  0
ARC
  5
B3
330
1E
100
AcDbEntity
  8
MO_001_VIEW_PV
  6
C_SOLID_M
100
AcDbCircle
 10
90.0
 20
0.25
 30
0.0
 40
6.804999999999999
100
AcDbArc
 50
90.000002
 51
270.000001
  0
ARC
  5
B4
330
1E
100
AcDbEntity
  8
MO_001_VIEW_PV
  6
C_SOLID_M
100
AcDbCircle
 10
90.0
 20
0.0
 30
0.0
 40
7.054999999999999
100
AcDbArc
 50
269.999998
 51
90.000002
  0
ARC
  5
B5
330
1E
100
AcDbEntity
  8
MO_001_VIEW_PV
  6
C_SOLID_M
100
AcDbCircle
 10
90.0
 20
-0.8345
 30
0.0
 40
14.0655
100
AcDbArc
 50
269.999998
 51
90.000002
  0
ARC
  5
B6
330
1E
100
AcDbEntity
  8
MO_001_VIEW_PV
  6
C_SOLID_M
100
AcDbCircle
 10
90.0
 20
0.146125
 30
0.0
 40
13.084875
100
AcDbArc
 50
90.000002
 51
270.000001
  0
ARC
  5
B7
330
1E
100
AcDbEntity
  8
MO_001_VIEW_PV
  6
C_SOLID_M
100
AcDbCircle
 10
90.0
 20
-0.688375
 30
0.0
 40
12.250374
100
AcDbArc
 50
269.999998
 51
90.000002
  0
ARC
  5
B8
330
1E
100
AcDbEntity
  8
MO_001_VIEW_PV
  6
C_SOLID_M
100
AcDbCircle
 10
90.0
 20
0.29225
 30
0.0
 40
11.26975
100
AcDbArc
 50
90.000002
 51
270.000001
  0
ARC
  5
B9
330
1E
100
AcDbEntity
  8
MO_001_VIEW_PV
  6
C_SOLID_M
100
AcDbCircle
 10
90.0
 20
-0.5422500000000001
 30
0.0
 40
10.435249
100
AcDbArc
 50
269.999998
 51
90.000002
  0
ARC
  5
BA
330
1E
100
AcDbEntity
  8
MO_001_VIEW_PV
  6
C_SOLID_M
100
AcDbCircle
 10
90.0
 20
0.438375
 30
0.0
 40
9.454624
100
AcDbArc
 50
90.000002
 51
270.000001
  0
ARC
  5
BB
330
1E
100
AcDbEntity
  8
MO_001_VIEW_PV
  6
C_SOLID_M
100
AcDbCircle
 10
90.0
 20
-0.396125
 30
0.0
 40
8.620124999999999
100
AcDbArc
 50
269.999998
 51
90.000002
  0
ARC
  5
BC
330
1E
100
AcDbEntity
  8
MO_001_VIEW_PV
  6
C_SOLID_M
100
AcDbCircle
 10
90.0
 20
0.5845000000000001
 30
0.0
 40
7.639499999999999
100
AcDbArc
 50
90.000002
 51
270.000001
  0
ARC
  5
BD
330
1E
100
AcDbEntity
  8
MO_001_VIEW_PV
  6
C_SOLID_M
100
AcDbCircle
 10
90.0
 20
0.5845000000000001
 30
0.0
 40
7.139499999999999
100
AcDbArc
 50
90.000002
 51
270.000001
  0
ARC
  5
BE
330
1E
100
AcDbEntity
  8
MO_001_VIEW_PV
  6
C_SOLID_M
100
AcDbCircle
 10
90.0
 20
-0.396125
 30
0.0
 40
8.120124999999999
100
AcDbArc
 50
269.999998
 51
90.000002
  0
ARC
  5
BF
330
1E
100
AcDbEntity
  8
MO_001_VIEW_PV
  6
C_SOLID_M
100
AcDbCircle
 10
90.0
 20
0.438375
 30
0.0
 40
8.954624
100
AcDbArc
 50
90.000002
 51
270.000001
  0
ARC
  5
C0
330
1E
100
AcDbEntity
  8
MO_001_VIEW_PV
  6
C_SOLID_M
100
AcDbCircle
 10
90.0
 20
-0.5422500000000001
 30
0.0
 40
9.935249
100
AcDbArc
 50
269.999998
 51
90.000002
  0
ARC
  5
C1
330
1E
100
AcDbEntity
  8
MO_001_VIEW_PV
  6
C_SOLID_M
100
AcDbCircle
 10
90.0
 20
0.29225
 30
0.0
 40
10.76975
100
AcDbArc
 50
90.000002
 51
270.000001
  0
ARC
  5
C2
330
1E
100
AcDbEntity
  8
MO_001_VIEW_PV
  6
C_SOLID_M
100
AcDbCircle
 10
90.0
 20
-0.688375
 30
0.0
 40
11.750374
100
AcDbArc
 50
269.999998
 51
90.000002
  0
ARC
  5
C3
330
1E
100
AcDbEntity
  8
MO_001_VIEW_PV
  6
C_SOLID_M
100
AcDbCircle
 10
90.0
 20
0.146125
 30
0.0
 40
12.584875
100
AcDbArc
 50
90.000002
 51
270.000001
  0
ARC
  5
C4
330
1E
100
AcDbEntity
  8
MO_001_VIEW_PV
  6
C_SOLID_M
100
AcDbCircle
 10
90.0
 20
-0.8345
 30
0.0
 40
13.5655
100
AcDbArc
 50
269.999998
 51
90.000002
  0
ARC
  5
C5
330
1E
100
AcDbEntity
  8
MO_001_VIEW_PV
  6
C_SOLID_M
100
AcDbCircle
 10
94.99349200000001
 20
-13.719507
 30
0.0
 40
3.299999999999999
100
AcDbArc
 50
351.787688
 51
2.634577999999999
  0
CIRCLE
  5
C6
330
1E
100
AcDbEntity
  8
MO_001_VIEW_PV
  6
C_SOLID_M
100
AcDbCircle
 10
109.0918879999999
 20
19.091883
 30
0.0
 40
3.25
  0
LINE
  5
C7
330
1E
100
AcDbEntity
  8
MO_001_VIEW_PV
  6
C_SOLID_M
100
AcDbLine
 10
-1.449995
 20
42.050003
 30
0.0
 11
-1.449995
 21
-42.050003
 31
0.0
  0
LINE
  5
C8
330
1E
100
AcDbEntity
  8
MO_001_VIEW_PV
  6
C_SOLID_M
100
AcDbLine
 10
-73.150002
 20
42.850006
 30
0.0
 11
-2.249995
 21
42.850006
 31
0.0
  0
LINE
  5
C9
330
1E
100
AcDbEntity
  8
MO_001_VIEW_PV
  6
C_SOLID_M
100
AcDbLine
 10
-65.900002
 20
-42.849998
 30
0.0
 11
-2.249995
 21
-42.849998
 31
0.0
  0
LINE
  5
CA
330
1E
100
AcDbEntity
  8
MO_001_VIEW_PV
  6
C_SOLID_M
100
AcDbLine
 10
-82.24999999999999
 20
26.63118
 30
0.0
 11
-82.24999999999999
 21
-40.59999799999999
 31
0.0
  0
LINE
  5
CB
330
1E
100
AcDbEntity
  8
MO_001_VIEW_PV
  6
C_SOLID_M
100
AcDbLine
 10
-1.449989999999999
 20
42.04999599999999
 30
0.0
 11
-2.249995
 21
42.850001
 31
0.0
  0
LINE
  5
CC
330
1E
100
AcDbEntity
  8
MO_001_VIEW_PV
  6
C_SOLID_M
100
AcDbLine
 10
-1.449997999999999
 20
-42.050001
 30
0.0
 11
-2.249998
 21
-42.850001
 31
0.0
  0
LINE
  5
CD
330
1E
100
AcDbEntity
  8
MO_001_VIEW_PV
  6
C_SOLID_M
100
AcDbLine
 10
-2.249995
 20
42.850006
 30
0.0
 11
-2.249995
 21
-42.849998
 31
0.0
  0
LINE
  5
CE
330
1E
100
AcDbEntity
  8
MO_001_VIEW_PV
  6
C_SOLID_M
100
AcDbLine
 10
-73.150002
 20
27.76699799999999
 30
0.0
 11
-73.150002
 21
-42.849998
 31
0.0
  0
LINE
  5
CF
330
1E
100
AcDbEntity
  8
MO_001_VIEW_PV
  6
C_SOLID_M
100
AcDbLine
 10
-81.050003
 20
41.800003
 30
0.0
 11
-73.349998
 21
41.800003
 31
0.0
  0
LINE
  5
D0
330
1E
100
AcDbEntity
  8
MO_001_VIEW_PV
  6
C_SOLID_M
100
AcDbLine
 10
-81.050003
 20
-41.800003
 30
0.0
 11
-73.349998
 21
-41.800003
 31
0.0
  0
ARC
  5
D1
330
1E
100
AcDbEntity
  8
MO_001_VIEW_PV
  6
C_SOLID_M
100
AcDbCircle
 10
-81.050003
 20
40.600006
 30
0.0
 40
1.199999999999999
100
AcDbArc
 50
90.000002
 51
180.000005
  0
ARC
  5
D2
330
1E
100
AcDbEntity
  8
MO_001_VIEW_PV
  6
C_SOLID_M
100
AcDbCircle
 10
-81.050003
 20
-40.59999799999999
 30
0.0
 40
1.199999999999999
100
AcDbArc
 50
180.000009
 51
269.999998
  0
ARC
  5
D3
330
1E
100
AcDbEntity
  8
MO_001_VIEW_PV
  6
C_SOLID_M
100
AcDbCircle
 10
-73.349998
 20
42.0
 30
0.0
 40
0.2
100
AcDbArc
 50
269.999998
 51
0.0
  0
ARC
  5
D4
330
1E
100
AcDbEntity
  8
MO_001_VIEW_PV
  6
C_SOLID_M
100
AcDbCircle
 10
-73.349998
 20
-42.0
 30
0.0
 40
0.2
100
AcDbArc
 50
0.0
 51
89.99998900000001
  0
LINE
  5
D5
330
1E
100
AcDbEntity
  8
MO_001_VIEW_PV
  6
C_SOLID_M
100
AcDbLine
 10
-1.0
 20
37.850006
 30
0.0
 11
-1.0
 21
-37.849998
 31
0.0
  0
LINE
  5
D6
330
1E
100
AcDbEntity
  8
MO_001_VIEW_PV
  6
C_SOLID_M
100
AcDbLine
 10
-1.449995
 20
38.25
 30
0.0
 11
-1.399999999999999
 21
38.25
 31
0.0
  0
LINE
  5
D7
330
1E
100
AcDbEntity
  8
MO_001_VIEW_PV
  6
C_SOLID_M
100
AcDbLine
 10
-1.449995
 20
-38.25
 30
0.0
 11
-1.399999999999999
 21
-38.25
 31
0.0
  0
LINE
  5
D8
330
1E
100
AcDbEntity
  8
MO_001_VIEW_PV
  6
C_SOLID_M
100
AcDbLine
 10
-1.399999
 20
38.249989
 30
0.0
 11
-1.000008
 21
37.84999699999999
 31
0.0
  0
LINE
  5
D9
330
1E
100
AcDbEntity
  8
MO_001_VIEW_PV
  6
C_SOLID_M
100
AcDbLine
 10
-1.399999
 20
-38.250005
 30
0.0
 11
-0.9999969999999999
 21
-37.850002
 31
0.0
  0
LINE
  5
DA
330
1E
100
AcDbEntity
  8
MO_001_VIEW_PV
  6
C_SOLID_M
100
AcDbLine
 10
-1.399999999999999
 20
38.25
 30
0.0
 11
-1.399999999999999
 21
-38.25
 31
0.0
  0
LINE
  5
DB
330
1E
100
AcDbEntity
  8
MO_001_VIEW_PV
  6
C_CENTER_L
100
AcDbLine
 10
-109.9179989999999
 20
0.0
 30
0.0
 11
29.581999
 21
0.0
 31
0.0
  0
LINE
  5
DC
330
1E
100
AcDbEntity
  8
MO_001_VIEW_PV
  6
C_SOLID_M
100
AcDbLine
 10
-81.44999699999999
 20
38.14999399999999
 30
0.0
 11
-65.739479
 21
38.14999399999999
 31
0.0
  0
LINE
  5
DD
330
1E
100
AcDbEntity
  8
MO_001_VIEW_PV
  6
C_SOLID_M
100
AcDbLine
 10
-81.45000899999999
 20
38.150016
 30
0.0
 11
-82.250005
 21
38.364373
 31
0.0
  0
LINE
  5
DE
330
1E
100
AcDbEntity
  8
MO_001_VIEW_PV
  6
C_SOLID_M
100
AcDbLine
 10
-81.44999699999999
 20
38.14999399999999
 30
0.0
 11
-81.44999699999999
 21
37.75
 31
0.0
  0
LINE
  5
DF
330
1E
100
AcDbEntity
  8
MO_001_VIEW_PV
  6
C_SOLID_M
100
AcDbLine
 10
-73.150002
 20
42.850006
 30
0.0
 11
-73.150002
 21
42.0
 31
0.0
  0
LINE
  5
E0
330
1E
100
AcDbEntity
  8
MO_001_VIEW_PV
  6
C_SOLID_M
100
AcDbLine
 10
-77.75
 20
38.14999399999999
 30
0.0
 11
-77.75
 21
27.36576799999999
 31
0.0
  0
LINE
  5
E1
330
1E
100
AcDbEntity
  8
MO_001_VIEW_PV
  6
C_SOLID_M
100
AcDbLine
 10
-72.75
 20
38.14999399999999
 30
0.0
 11
-72.75
 21
27.841812
 31
0.0
  0
LINE
  5
E2
330
1E
100
AcDbEntity
  8
MO_001_VIEW_PV
  6
C_SOLID_M
100
AcDbLine
 10
-84.718002
 20
-37.75
 30
0.0
 11
-84.718002
 21
37.75
 31
0.0
  0
LINE
  5
E3
330
1E
100
AcDbEntity
  8
MO_001_VIEW_PV
  6
C_SOLID_M
100
AcDbLine
 10
-84.718002
 20
37.75
 30
0.0
 11
-80.718002
 21
37.75
 31
0.0
  0
ARC
  5
E4
330
1E
100
AcDbEntity
  8
MO_001_VIEW_PV
  6
C_SOLID_M
100
AcDbCircle
 10
-85.31800099999999
 20
20.831345
 30
0.0
 40
3.0
100
AcDbArc
 50
90.000002
 51
183.606632
  0
ARC
  5
E5
330
1E
100
AcDbEntity
  8
MO_001_VIEW_PV
  6
C_SOLID_M
100
AcDbCircle
 10
-84.84010299999999
 20
6.871749999999999
 30
0.0
 40
2.0
100
AcDbArc
 50
186.0662279999999
 51
269.999998
  0
ARC
  5
E6
330
1E
100
AcDbEntity
  8
MO_001_VIEW_PV
  6
C_SOLID_M
100
AcDbCircle
 10
-84.349007
 20
-28.699905
 30
0.0
 40
3.968994
100
AcDbArc
 50
95.33446899999999
 51
180.0000189999999
  0
ARC
  5
E7
330
1E
100
AcDbEntity
  8
MO_001_VIEW_PV
  6
C_SOLID_M
100
AcDbCircle
 10
-84.349007
 20
-29.39999399999999
 30
0.0
 40
3.968994
100
AcDbArc
 50
179.999978
 51
264.665541
  0
LINE
  5
E8
330
1E
100
AcDbEntity
  8
MO_001_VIEW_PV
  6
C_SOLID_M
100
AcDbLine
 10
-88.318001
 20
-28.699905
 30
0.0
 11
-88.318001
 21
-29.39999399999999
 31
0.0
  0
POLYLINE
  5
E9
330
1E
100
AcDbEntity
  8
MO_001_VIEW_PV
  6
C_SOLID_M
100
AcDb2dPolyline
 66
     1
 10
0.0
 20
0.0
 30
0.0
  0
VERTEX
  5
465
330
E9
100
AcDbEntity
  8
MO_001_VIEW_PV
  6
C_SOLID_M
100
AcDbVertex
100
AcDb2dVertex
 10
-62.68259399999999
 20
45.47004699999999
 30
0.0
  0
VERTEX
  5
466
330
E9
100
AcDbEntity
  8
MO_001_VIEW_PV
  6
C_SOLID_M
100
AcDbVertex
100
AcDb2dVertex
 10
-63.15538899999999
 20
44.783114
 30
0.0
  0
VERTEX
  5
467
330
E9
100
AcDbEntity
  8
MO_001_VIEW_PV
  6
C_SOLID_M
100
AcDbVertex
100
AcDb2dVertex
 10
-63.50348100000001
 20
44.258964
 30
0.0
  0
VERTEX
  5
468
330
E9
100
AcDbEntity
  8
MO_001_VIEW_PV
  6
C_SOLID_M
100
AcDbVertex
100
AcDb2dVertex
 10
-64.00491600000001
 20
43.456834
 30
0.0
  0
VERTEX
  5
469
330
E9
100
AcDbEntity
  8
MO_001_VIEW_PV
  6
C_SOLID_M
100
AcDbVertex
100
AcDb2dVertex
 10
-64.242405
 20
43.048032
 30
0.0
  0
VERTEX
  5
46A
330
E9
100
AcDbEntity
  8
MO_001_VIEW_PV
  6
C_SOLID_M
100
AcDbVertex
100
AcDb2dVertex
 10
-64.46866800000001
 20
42.633715
 30
0.0
  0
VERTEX
  5
46B
330
E9
100
AcDbEntity
  8
MO_001_VIEW_PV
  6
C_SOLID_M
100
AcDbVertex
100
AcDb2dVertex
 10
-64.658907
 20
42.26058599999999
 30
0.0
  0
VERTEX
  5
46C
330
E9
100
AcDbEntity
  8
MO_001_VIEW_PV
  6
C_SOLID_M
100
AcDbVertex
100
AcDb2dVertex
 10
-64.81592299999999
 20
41.930203
 30
0.0
  0
VERTEX
  5
46D
330
E9
100
AcDbEntity
  8
MO_001_VIEW_PV
  6
C_SOLID_M
100
AcDbVertex
100
AcDb2dVertex
 10
-65.06684200000001
 20
41.342889
 30
0.0
  0
VERTEX
  5
46E
330
E9
100
AcDbEntity
  8
MO_001_VIEW_PV
  6
C_SOLID_M
100
AcDbVertex
100
AcDb2dVertex
 10
-65.23279200000001
 20
40.89442499999999
 30
0.0
  0
VERTEX
  5
46F
330
E9
100
AcDbEntity
  8
MO_001_VIEW_PV
  6
C_SOLID_M
100
AcDbVertex
100
AcDb2dVertex
 10
-65.34344899999999
 20
40.55339599999999
 30
0.0
  0
VERTEX
  5
470
330
E9
100
AcDbEntity
  8
MO_001_VIEW_PV
  6
C_SOLID_M
100
AcDbVertex
100
AcDb2dVertex
 10
-65.48530600000001
 20
40.03404399999999
 30
0.0
  0
VERTEX
  5
471
330
E9
100
AcDbEntity
  8
MO_001_VIEW_PV
  6
C_SOLID_M
100
AcDbVertex
100
AcDb2dVertex
 10
-65.595779
 20
39.50495899999999
 30
0.0
  0
VERTEX
  5
472
330
E9
100
AcDbEntity
  8
MO_001_VIEW_PV
  6
C_SOLID_M
100
AcDbVertex
100
AcDb2dVertex
 10
-65.665751
 20
39.032262
 30
0.0
  0
VERTEX
  5
473
330
E9
100
AcDbEntity
  8
MO_001_VIEW_PV
  6
C_SOLID_M
100
AcDbVertex
100
AcDb2dVertex
 10
-65.70865600000001
 20
38.613407
 30
0.0
  0
VERTEX
  5
474
330
E9
100
AcDbEntity
  8
MO_001_VIEW_PV
  6
C_SOLID_M
100
AcDbVertex
100
AcDb2dVertex
 10
-65.75128199999999
 20
37.87173699999999
 30
0.0
  0
VERTEX
  5
475
330
E9
100
AcDbEntity
  8
MO_001_VIEW_PV
  6
C_SOLID_M
100
AcDbVertex
100
AcDb2dVertex
 10
-65.76639
 20
36.748777
 30
0.0
  0
VERTEX
  5
476
330
E9
100
AcDbEntity
  8
MO_001_VIEW_PV
  6
C_SOLID_M
100
AcDbVertex
100
AcDb2dVertex
 10
-65.76763800000001
 20
35.629272
 30
0.0
  0
VERTEX
  5
477
330
E9
100
AcDbEntity
  8
MO_001_VIEW_PV
  6
C_SOLID_M
100
AcDbVertex
100
AcDb2dVertex
 10
-65.776616
 20
35.147515
 30
0.0
  0
VERTEX
  5
478
330
E9
100
AcDbEntity
  8
MO_001_VIEW_PV
  6
C_SOLID_M
100
AcDbVertex
100
AcDb2dVertex
 10
-65.793406
 20
34.730482
 30
0.0
  0
VERTEX
  5
479
330
E9
100
AcDbEntity
  8
MO_001_VIEW_PV
  6
C_SOLID_M
100
AcDbVertex
100
AcDb2dVertex
 10
-65.81723499999999
 20
34.369849
 30
0.0
  0
VERTEX
  5
47A
330
E9
100
AcDbEntity
  8
MO_001_VIEW_PV
  6
C_SOLID_M
100
AcDbVertex
100
AcDb2dVertex
 10
-65.84661800000001
 20
34.058115
 30
0.0
  0
VERTEX
  5
47B
330
E9
100
AcDbEntity
  8
MO_001_VIEW_PV
  6
C_SOLID_M
100
AcDbVertex
100
AcDb2dVertex
 10
-65.921103
 20
33.522553
 30
0.0
  0
VERTEX
  5
47C
330
E9
100
AcDbEntity
  8
MO_001_VIEW_PV
  6
C_SOLID_M
100
AcDbVertex
100
AcDb2dVertex
 10
-65.999628
 20
33.130427
 30
0.0
  0
VERTEX
  5
47D
330
E9
100
AcDbEntity
  8
MO_001_VIEW_PV
  6
C_SOLID_M
100
AcDbVertex
100
AcDb2dVertex
 10
-66.07317399999999
 20
32.842384
 30
0.0
  0
VERTEX
  5
47E
330
E9
100
AcDbEntity
  8
MO_001_VIEW_PV
  6
C_SOLID_M
100
AcDbVertex
100
AcDb2dVertex
 10
-66.20989300000001
 20
32.421064
 30
0.0
  0
VERTEX
  5
47F
330
E9
100
AcDbEntity
  8
MO_001_VIEW_PV
  6
C_SOLID_M
100
AcDbVertex
100
AcDb2dVertex
 10
-66.29122199999999
 20
32.215628
 30
0.0
  0
VERTEX
  5
480
330
E9
100
AcDbEntity
  8
MO_001_VIEW_PV
  6
C_SOLID_M
100
AcDbVertex
100
AcDb2dVertex
 10
-66.381866
 20
32.01391599999999
 30
0.0
  0
VERTEX
  5
481
330
E9
100
AcDbEntity
  8
MO_001_VIEW_PV
  6
C_SOLID_M
100
AcDbVertex
100
AcDb2dVertex
 10
-66.56340199999999
 20
31.670744
 30
0.0
  0
VERTEX
  5
482
330
E9
100
AcDbEntity
  8
MO_001_VIEW_PV
  6
C_SOLID_M
100
AcDbVertex
100
AcDb2dVertex
 10
-66.74536899999999
 20
31.380451
 30
0.0
  0
VERTEX
  5
483
330
E9
100
AcDbEntity
  8
MO_001_VIEW_PV
  6
C_SOLID_M
100
AcDbVertex
100
AcDb2dVertex
 10
-66.921255
 20
31.13422899999999
 30
0.0
  0
VERTEX
  5
484
330
E9
100
AcDbEntity
  8
MO_001_VIEW_PV
  6
C_SOLID_M
100
AcDbVertex
100
AcDb2dVertex
 10
-67.08721899999999
 20
30.924843
 30
0.0
  0
VERTEX
  5
485
330
E9
100
AcDbEntity
  8
MO_001_VIEW_PV
  6
C_SOLID_M
100
AcDbVertex
100
AcDb2dVertex
 10
-67.40298199999999
 20
30.57226099999999
 30
0.0
  0
VERTEX
  5
486
330
E9
100
AcDbEntity
  8
MO_001_VIEW_PV
  6
C_SOLID_M
100
AcDbVertex
100
AcDb2dVertex
 10
-67.65941999999999
 20
30.319601
 30
0.0
  0
VERTEX
  5
487
330
E9
100
AcDbEntity
  8
MO_001_VIEW_PV
  6
C_SOLID_M
100
AcDbVertex
100
AcDb2dVertex
 10
-67.861921
 20
30.13684899999999
 30
0.0
  0
VERTEX
  5
488
330
E9
100
AcDbEntity
  8
MO_001_VIEW_PV
  6
C_SOLID_M
100
AcDbVertex
100
AcDb2dVertex
 10
-68.180729
 20
29.873734
 30
0.0
  0
VERTEX
  5
489
330
E9
100
AcDbEntity
  8
MO_001_VIEW_PV
  6
C_SOLID_M
100
AcDbVertex
100
AcDb2dVertex
 10
-68.515987
 20
29.62405999999999
 30
0.0
  0
VERTEX
  5
48A
330
E9
100
AcDbEntity
  8
MO_001_VIEW_PV
  6
C_SOLID_M
100
AcDbVertex
100
AcDb2dVertex
 10
-68.869777
 20
29.38557199999999
 30
0.0
  0
VERTEX
  5
48B
330
E9
100
AcDbEntity
  8
MO_001_VIEW_PV
  6
C_SOLID_M
100
AcDbVertex
100
AcDb2dVertex
 10
-69.19013199999999
 20
29.188576
 30
0.0
  0
VERTEX
  5
48C
330
E9
100
AcDbEntity
  8
MO_001_VIEW_PV
  6
C_SOLID_M
100
AcDbVertex
100
AcDb2dVertex
 10
-69.47766300000001
 20
29.02529099999999
 30
0.0
  0
VERTEX
  5
48D
330
E9
100
AcDbEntity
  8
MO_001_VIEW_PV
  6
C_SOLID_M
100
AcDbVertex
100
AcDb2dVertex
 10
-69.994426
 20
28.76031199999999
 30
0.0
  0
VERTEX
  5
48E
330
E9
100
AcDbEntity
  8
MO_001_VIEW_PV
  6
C_SOLID_M
100
AcDbVertex
100
AcDb2dVertex
 10
-70.391046
 20
28.57924
 30
0.0
  0
VERTEX
  5
48F
330
E9
100
AcDbEntity
  8
MO_001_VIEW_PV
  6
C_SOLID_M
100
AcDbVertex
100
AcDb2dVertex
 10
-70.99595100000001
 20
28.336651
 30
0.0
  0
VERTEX
  5
490
330
E9
100
AcDbEntity
  8
MO_001_VIEW_PV
  6
C_SOLID_M
100
AcDbVertex
100
AcDb2dVertex
 10
-71.607101
 20
28.129669
 30
0.0
  0
VERTEX
  5
491
330
E9
100
AcDbEntity
  8
MO_001_VIEW_PV
  6
C_SOLID_M
100
AcDbVertex
100
AcDb2dVertex
 10
-72.071758
 20
27.996479
 30
0.0
  0
VERTEX
  5
492
330
E9
100
AcDbEntity
  8
MO_001_VIEW_PV
  6
C_SOLID_M
100
AcDbVertex
100
AcDb2dVertex
 10
-72.478216
 20
27.89572199999999
 30
0.0
  0
VERTEX
  5
493
330
E9
100
AcDbEntity
  8
MO_001_VIEW_PV
  6
C_SOLID_M
100
AcDbVertex
100
AcDb2dVertex
 10
-73.18918599999999
 20
27.750935
 30
0.0
  0
VERTEX
  5
494
330
E9
100
AcDbEntity
  8
MO_001_VIEW_PV
  6
C_SOLID_M
100
AcDbVertex
100
AcDb2dVertex
 10
-73.722075
 20
27.665277
 30
0.0
  0
VERTEX
  5
495
330
E9
100
AcDbEntity
  8
MO_001_VIEW_PV
  6
C_SOLID_M
100
AcDbVertex
100
AcDb2dVertex
 10
-74.52074399999999
 20
27.566857
 30
0.0
  0
VERTEX
  5
496
330
E9
100
AcDbEntity
  8
MO_001_VIEW_PV
  6
C_SOLID_M
100
AcDbVertex
100
AcDb2dVertex
 10
-75.31846299999999
 20
27.49602199999999
 30
0.0
  0
VERTEX
  5
497
330
E9
100
AcDbEntity
  8
MO_001_VIEW_PV
  6
C_SOLID_M
100
AcDbVertex
100
AcDb2dVertex
 10
-77.16615199999999
 20
27.384812
 30
0.0
  0
VERTEX
  5
498
330
E9
100
AcDbEntity
  8
MO_001_VIEW_PV
  6
C_SOLID_M
100
AcDbVertex
100
AcDb2dVertex
 10
-78.087062
 20
27.328249
 30
0.0
  0
VERTEX
  5
499
330
E9
100
AcDbEntity
  8
MO_001_VIEW_PV
  6
C_SOLID_M
100
AcDbVertex
100
AcDb2dVertex
 10
-79.005661
 20
27.251099
 30
0.0
  0
VERTEX
  5
49A
330
E9
100
AcDbEntity
  8
MO_001_VIEW_PV
  6
C_SOLID_M
100
AcDbVertex
100
AcDb2dVertex
 10
-79.949363
 20
27.13735999999999
 30
0.0
  0
VERTEX
  5
49B
330
E9
100
AcDbEntity
  8
MO_001_VIEW_PV
  6
C_SOLID_M
100
AcDbVertex
100
AcDb2dVertex
 10
-80.772601
 20
27.008564
 30
0.0
  0
VERTEX
  5
49C
330
E9
100
AcDbEntity
  8
MO_001_VIEW_PV
  6
C_SOLID_M
100
AcDbVertex
100
AcDb2dVertex
 10
-81.49084
 20
26.874634
 30
0.0
  0
VERTEX
  5
49D
330
E9
100
AcDbEntity
  8
MO_001_VIEW_PV
  6
C_SOLID_M
100
AcDbVertex
100
AcDb2dVertex
 10
-82.117576
 20
26.741977
 30
0.0
  0
VERTEX
  5
49E
330
E9
100
AcDbEntity
  8
MO_001_VIEW_PV
  6
C_SOLID_M
100
AcDbVertex
100
AcDb2dVertex
 10
-82.664571
 20
26.61459
 30
0.0
  0
VERTEX
  5
49F
330
E9
100
AcDbEntity
  8
MO_001_VIEW_PV
  6
C_SOLID_M
100
AcDbVertex
100
AcDb2dVertex
 10
-83.61846400000001
 20
26.36759699999999
 30
0.0
  0
VERTEX
  5
4A0
330
E9
100
AcDbEntity
  8
MO_001_VIEW_PV
  6
C_SOLID_M
100
AcDbVertex
100
AcDb2dVertex
 10
-84.33091000000001
 20
26.163421
 30
0.0
  0
VERTEX
  5
4A1
330
E9
100
AcDbEntity
  8
MO_001_VIEW_PV
  6
C_SOLID_M
100
AcDbVertex
100
AcDb2dVertex
 10
-85.39444600000001
 20
25.829061
 30
0.0
  0
VERTEX
  5
4A2
330
E9
100
AcDbEntity
  8
MO_001_VIEW_PV
  6
C_SOLID_M
100
AcDbVertex
100
AcDb2dVertex
 10
-86.45138000000001
 20
25.46389899999999
 30
0.0
  0
VERTEX
  5
4A3
330
E9
100
AcDbEntity
  8
MO_001_VIEW_PV
  6
C_SOLID_M
100
AcDbVertex
100
AcDb2dVertex
 10
-87.36150699999999
 20
25.12510499999999
 30
0.0
  0
VERTEX
  5
4A4
330
E9
100
AcDbEntity
  8
MO_001_VIEW_PV
  6
C_SOLID_M
100
AcDbVertex
100
AcDb2dVertex
 10
-88.15324
 20
24.81338599999999
 30
0.0
  0
VERTEX
  5
4A5
330
E9
100
AcDbEntity
  8
MO_001_VIEW_PV
  6
C_SOLID_M
100
AcDbVertex
100
AcDb2dVertex
 10
-89.52769999999999
 20
24.23803299999999
 30
0.0
  0
VERTEX
  5
4A6
330
E9
100
AcDbEntity
  8
MO_001_VIEW_PV
  6
C_SOLID_M
100
AcDbVertex
100
AcDb2dVertex
 10
-90.548707
 20
23.78548299999999
 30
0.0
  0
VERTEX
  5
4A7
330
E9
100
AcDbEntity
  8
MO_001_VIEW_PV
  6
C_SOLID_M
100
AcDbVertex
100
AcDb2dVertex
 10
-92.063226
 20
23.080591
 30
0.0
  0
VERTEX
  5
4A8
330
E9
100
AcDbEntity
  8
MO_001_VIEW_PV
  6
C_SOLID_M
100
AcDbVertex
100
AcDb2dVertex
 10
-93.55588500000001
 20
22.354113
 30
0.0
  0
SEQEND
  5
4A9
330
E9
100
AcDbEntity
  8
MO_001_VIEW_PV
  6
C_SOLID_M
  0
LINE
  5
12F
330
1E
100
AcDbEntity
  8
MO_001_VIEW_PV
  6
C_SOLID_M
100
AcDbLine
 10
-80.718002
 20
26.999115
 30
0.0
 11
-80.718002
 21
37.75
 31
0.0
  0
LINE
  5
130
330
1E
100
AcDbEntity
  8
MO_001_VIEW_PV
  6
C_SOLID_M
100
AcDbLine
 10
-86.218002
 20
-16.899994
 30
0.0
 11
-86.218002
 21
5.422133999999999
 31
0.0
  0
LINE
  5
131
330
1E
100
AcDbEntity
  8
MO_001_VIEW_PV
  6
C_SOLID_M
100
AcDbLine
 10
-86.218002
 20
-16.899994
 30
0.0
 11
-84.718002
 21
-16.899994
 31
0.0
  0
LINE
  5
132
330
1E
100
AcDbEntity
  8
MO_001_VIEW_PV
  6
C_SOLID_M
100
AcDbLine
 10
26.581999
 20
-5.255005
 30
0.0
 11
26.581999
 21
5.255005
 31
0.0
  0
LINE
  5
133
330
1E
100
AcDbEntity
  8
MO_001_VIEW_PV
  6
C_SOLID_M
100
AcDbLine
 10
8.782
 20
5.554992999999999
 30
0.0
 11
26.28199999999999
 21
5.554992999999999
 31
0.0
  0
LINE
  5
134
330
1E
100
AcDbEntity
  8
MO_001_VIEW_PV
  6
C_SOLID_M
100
AcDbLine
 10
8.581998
 20
-5.554992999999999
 30
0.0
 11
26.28199999999999
 21
-5.554992999999999
 31
0.0
  0
LINE
  5
135
330
1E
100
AcDbEntity
  8
MO_001_VIEW_PV
  6
C_SOLID_M
100
AcDbLine
 10
26.28199699999999
 20
5.554986
 30
0.0
 11
26.58199699999999
 21
5.254987999999999
 31
0.0
  0
LINE
  5
136
330
1E
100
AcDbEntity
  8
MO_001_VIEW_PV
  6
C_SOLID_M
100
AcDbLine
 10
26.28199699999999
 20
-5.555003
 30
0.0
 11
26.58199699999999
 21
-5.255004
 31
0.0
  0
LINE
  5
137
330
1E
100
AcDbEntity
  8
MO_001_VIEW_PV
  6
C_SOLID_M
100
AcDbLine
 10
-107.017998
 20
-5.409408999999999
 30
0.0
 11
-107.017998
 21
5.409408999999999
 31
0.0
  0
LINE
  5
138
330
1E
100
AcDbEntity
  8
MO_001_VIEW_PV
  6
C_SOLID_M
100
AcDbLine
 10
-106.618006
 20
5.555005
 30
0.0
 11
-107.018008
 21
5.409412999999999
 31
0.0
  0
LINE
  5
139
330
1E
100
AcDbEntity
  8
MO_001_VIEW_PV
  6
C_SOLID_M
100
AcDbLine
 10
-106.6179959999999
 20
-5.555000999999999
 30
0.0
 11
-107.017998
 21
-5.409408999999999
 31
0.0
  0
LINE
  5
13A
330
1E
100
AcDbEntity
  8
MO_001_VIEW_PV
  6
C_SOLID_M
100
AcDbLine
 10
-106.6179959999999
 20
-5.554992999999999
 30
0.0
 11
-106.6179959999999
 21
5.554992999999999
 31
0.0
  0
LINE
  5
13B
330
1E
100
AcDbEntity
  8
MO_001_VIEW_PV
  6
C_SOLID_M
100
AcDbLine
 10
26.28199999999999
 20
-5.554992999999999
 30
0.0
 11
26.28199999999999
 21
5.554992999999999
 31
0.0
  0
LINE
  5
13C
330
1E
100
AcDbEntity
  8
MO_001_VIEW_PV
  6
C_SOLID_M
100
AcDbLine
 10
-106.6179959999999
 20
5.554992999999999
 30
0.0
 11
-86.34548199999999
 21
5.554992999999999
 31
0.0
  0
LINE
  5
13D
330
1E
100
AcDbEntity
  8
MO_001_VIEW_PV
  6
C_SOLID_M
100
AcDbLine
 10
-106.6179959999999
 20
-5.554992999999999
 30
0.0
 11
-86.218002
 21
-5.554992999999999
 31
0.0
  0
LINE
  5
13E
330
1E
100
AcDbEntity
  8
MO_001_VIEW_PV
  6
C_SOLID_M
100
AcDbLine
 10
8.782
 20
4.154999
 30
0.0
 11
8.782
 21
5.554992999999999
 31
0.0
  0
LINE
  5
13F
330
1E
100
AcDbEntity
  8
MO_001_VIEW_PV
  6
C_SOLID_M
100
AcDbLine
 10
8.581998
 20
4.154999
 30
0.0
 11
8.782
 21
4.154999
 31
0.0
  0
LINE
  5
140
330
1E
100
AcDbEntity
  8
MO_001_VIEW_PV
  6
C_SOLID_M
100
AcDbLine
 10
-1.0
 20
37.69999699999999
 30
0.0
 11
-1.0
 21
-37.69999699999999
 31
0.0
  0
LINE
  5
141
330
1E
100
AcDbEntity
  8
MO_001_VIEW_PV
  6
C_SOLID_M
100
AcDbLine
 10
0.0
 20
37.69999699999999
 30
0.0
 11
0.0
 21
-37.69999699999999
 31
0.0
  0
LINE
  5
142
330
1E
100
AcDbEntity
  8
MO_001_VIEW_PV
  6
C_SOLID_M
100
AcDbLine
 10
-1.0
 20
37.69999699999999
 30
0.0
 11
0.0
 21
37.69999699999999
 31
0.0
  0
LINE
  5
143
330
1E
100
AcDbEntity
  8
MO_001_VIEW_PV
  6
C_SOLID_M
100
AcDbLine
 10
-1.0
 20
-37.69999699999999
 30
0.0
 11
0.0
 21
-37.69999699999999
 31
0.0
  0
LINE
  5
144
330
1E
100
AcDbEntity
  8
MO_001_VIEW_PV
  6
C_SOLID_M
100
AcDbLine
 10
5.300003
 20
15.082169
 30
0.0
 11
5.300003
 21
14.132462
 31
0.0
  0
LINE
  5
145
330
1E
100
AcDbEntity
  8
MO_001_VIEW_PV
  6
C_SOLID_M
100
AcDbLine
 10
0.7999990000000001
 20
-16.899994
 30
0.0
 11
5.300003
 21
-16.899994
 31
0.0
  0
LINE
  5
146
330
1E
100
AcDbEntity
  8
MO_001_VIEW_PV
  6
C_SOLID_M
100
AcDbLine
 10
0.7999990000000001
 20
-16.73236099999999
 30
0.0
 11
5.300003
 21
-16.73236099999999
 31
0.0
  0
LINE
  5
147
330
1E
100
AcDbEntity
  8
MO_001_VIEW_PV
  6
C_SOLID_M
100
AcDbLine
 10
0.7999990000000001
 20
-15.721695
 30
0.0
 11
5.300003
 21
-15.721695
 31
0.0
  0
POLYLINE
  5
148
330
1E
100
AcDbEntity
  8
MO_001_VIEW_PV
  6
C_SOLID_M
100
AcDb2dPolyline
 66
     1
 10
0.0
 20
0.0
 30
0.0
  0
VERTEX
  5
4AA
330
148
100
AcDbEntity
  8
MO_001_VIEW_PV
  6
C_SOLID_M
100
AcDbVertex
100
AcDb2dVertex
 10
-0.000005
 20
-10.889761
 30
0.0
  0
VERTEX
  5
4AB
330
148
100
AcDbEntity
  8
MO_001_VIEW_PV
  6
C_SOLID_M
100
AcDbVertex
100
AcDb2dVertex
 10
0.202396
 20
-11.045271
 30
0.0
  0
VERTEX
  5
4AC
330
148
100
AcDbEntity
  8
MO_001_VIEW_PV
  6
C_SOLID_M
100
AcDbVertex
100
AcDb2dVertex
 10
0.397754
 20
-11.17061499999999
 30
0.0
  0
VERTEX
  5
4AD
330
148
100
AcDbEntity
  8
MO_001_VIEW_PV
  6
C_SOLID_M
100
AcDbVertex
100
AcDb2dVertex
 10
0.581549
 20
-11.271352
 30
0.0
  0
VERTEX
  5
4AE
330
148
100
AcDbEntity
  8
MO_001_VIEW_PV
  6
C_SOLID_M
100
AcDbVertex
100
AcDb2dVertex
 10
0.751404
 20
-11.352203
 30
0.0
  0
VERTEX
  5
4AF
330
148
100
AcDbEntity
  8
MO_001_VIEW_PV
  6
C_SOLID_M
100
AcDbVertex
100
AcDb2dVertex
 10
1.06675
 20
-11.47629299999999
 30
0.0
  0
VERTEX
  5
4B0
330
148
100
AcDbEntity
  8
MO_001_VIEW_PV
  6
C_SOLID_M
100
AcDbVertex
100
AcDb2dVertex
 10
1.316359
 20
-11.554043
 30
0.0
  0
VERTEX
  5
4B1
330
148
100
AcDbEntity
  8
MO_001_VIEW_PV
  6
C_SOLID_M
100
AcDbVertex
100
AcDb2dVertex
 10
1.707594999999999
 20
-11.644744
 30
0.0
  0
VERTEX
  5
4B2
330
148
100
AcDbEntity
  8
MO_001_VIEW_PV
  6
C_SOLID_M
100
AcDbVertex
100
AcDb2dVertex
 10
2.113472999999999
 20
-11.70309299999999
 30
0.0
  0
VERTEX
  5
4B3
330
148
100
AcDbEntity
  8
MO_001_VIEW_PV
  6
C_SOLID_M
100
AcDbVertex
100
AcDb2dVertex
 10
2.427024
 20
-11.725181
 30
0.0
  0
VERTEX
  5
4B4
330
148
100
AcDbEntity
  8
MO_001_VIEW_PV
  6
C_SOLID_M
100
AcDbVertex
100
AcDb2dVertex
 10
2.702995999999999
 20
-11.728643
 30
0.0
  0
VERTEX
  5
4B5
330
148
100
AcDbEntity
  8
MO_001_VIEW_PV
  6
C_SOLID_M
100
AcDbVertex
100
AcDb2dVertex
 10
2.944115
 20
-11.7195
 30
0.0
  0
VERTEX
  5
4B6
330
148
100
AcDbEntity
  8
MO_001_VIEW_PV
  6
C_SOLID_M
100
AcDbVertex
100
AcDb2dVertex
 10
3.361244
 20
-11.676344
 30
0.0
  0
VERTEX
  5
4B7
330
148
100
AcDbEntity
  8
MO_001_VIEW_PV
  6
C_SOLID_M
100
AcDbVertex
100
AcDb2dVertex
 10
3.666584999999999
 20
-11.62166699999999
 30
0.0
  0
VERTEX
  5
4B8
330
148
100
AcDbEntity
  8
MO_001_VIEW_PV
  6
C_SOLID_M
100
AcDbVertex
100
AcDb2dVertex
 10
3.889462
 20
-11.568433
 30
0.0
  0
VERTEX
  5
4B9
330
148
100
AcDbEntity
  8
MO_001_VIEW_PV
  6
C_SOLID_M
100
AcDbVertex
100
AcDb2dVertex
 10
4.211158999999999
 20
-11.469602
 30
0.0
  0
VERTEX
  5
4BA
330
148
100
AcDbEntity
  8
MO_001_VIEW_PV
  6
C_SOLID_M
100
AcDbVertex
100
AcDb2dVertex
 10
4.514391
 20
-11.34903699999999
 30
0.0
  0
SEQEND
  5
4BB
330
148
100
AcDbEntity
  8
MO_001_VIEW_PV
  6
C_SOLID_M
  0
POLYLINE
  5
15B
330
1E
100
AcDbEntity
  8
MO_001_VIEW_PV
  6
C_SOLID_M
100
AcDb2dPolyline
 66
     1
 10
0.0
 20
0.0
 30
0.0
  0
VERTEX
  5
4BC
330
15B
100
AcDbEntity
  8
MO_001_VIEW_PV
  6
C_SOLID_M
100
AcDbVertex
100
AcDb2dVertex
 10
4.514383999999999
 20
-14.286427
 30
0.0
  0
VERTEX
  5
4BD
330
15B
100
AcDbEntity
  8
MO_001_VIEW_PV
  6
C_SOLID_M
100
AcDbVertex
100
AcDb2dVertex
 10
4.247167
 20
-14.178695
 30
0.0
  0
VERTEX
  5
4BE
330
15B
100
AcDbEntity
  8
MO_001_VIEW_PV
  6
C_SOLID_M
100
AcDbVertex
100
AcDb2dVertex
 10
4.00114
 20
-14.098256
 30
0.0
  0
VERTEX
  5
4BF
330
15B
100
AcDbEntity
  8
MO_001_VIEW_PV
  6
C_SOLID_M
100
AcDbVertex
100
AcDb2dVertex
 10
3.777933999999999
 20
-14.038927
 30
0.0
  0
VERTEX
  5
4C0
330
15B
100
AcDbEntity
  8
MO_001_VIEW_PV
  6
C_SOLID_M
100
AcDbVertex
100
AcDb2dVertex
 10
3.373254
 20
-13.960895
 30
0.0
  0
VERTEX
  5
4C1
330
15B
100
AcDbEntity
  8
MO_001_VIEW_PV
  6
C_SOLID_M
100
AcDbVertex
100
AcDb2dVertex
 10
3.06137
 20
-13.92455199999999
 30
0.0
  0
VERTEX
  5
4C2
330
15B
100
AcDbEntity
  8
MO_001_VIEW_PV
  6
C_SOLID_M
100
AcDbVertex
100
AcDb2dVertex
 10
2.824683
 20
-13.91001499999999
 30
0.0
  0
VERTEX
  5
4C3
330
15B
100
AcDbEntity
  8
MO_001_VIEW_PV
  6
C_SOLID_M
100
AcDbVertex
100
AcDb2dVertex
 10
2.468137
 20
-13.90882799999999
 30
0.0
  0
VERTEX
  5
4C4
330
15B
100
AcDbEntity
  8
MO_001_VIEW_PV
  6
C_SOLID_M
100
AcDbVertex
100
AcDb2dVertex
 10
2.113472
 20
-13.932375
 30
0.0
  0
VERTEX
  5
4C5
330
15B
100
AcDbEntity
  8
MO_001_VIEW_PV
  6
C_SOLID_M
100
AcDbVertex
100
AcDb2dVertex
 10
1.804634999999999
 20
-13.973606
 30
0.0
  0
VERTEX
  5
4C6
330
15B
100
AcDbEntity
  8
MO_001_VIEW_PV
  6
C_SOLID_M
100
AcDbVertex
100
AcDb2dVertex
 10
1.540488999999999
 20
-14.025093
 30
0.0
  0
VERTEX
  5
4C7
330
15B
100
AcDbEntity
  8
MO_001_VIEW_PV
  6
C_SOLID_M
100
AcDbVertex
100
AcDb2dVertex
 10
1.315547999999999
 20
-14.081651
 30
0.0
  0
VERTEX
  5
4C8
330
15B
100
AcDbEntity
  8
MO_001_VIEW_PV
  6
C_SOLID_M
100
AcDbVertex
100
AcDb2dVertex
 10
0.939541
 20
-14.205497
 30
0.0
  0
VERTEX
  5
4C9
330
15B
100
AcDbEntity
  8
MO_001_VIEW_PV
  6
C_SOLID_M
100
AcDbVertex
100
AcDb2dVertex
 10
0.675392
 20
-14.318111
 30
0.0
  0
VERTEX
  5
4CA
330
15B
100
AcDbEntity
  8
MO_001_VIEW_PV
  6
C_SOLID_M
100
AcDbVertex
100
AcDb2dVertex
 10
0.488983
 20
-14.41298299999999
 30
0.0
  0
VERTEX
  5
4CB
330
15B
100
AcDbEntity
  8
MO_001_VIEW_PV
  6
C_SOLID_M
100
AcDbVertex
100
AcDb2dVertex
 10
0.230489
 20
-14.57084
 30
0.0
  0
VERTEX
  5
4CC
330
15B
100
AcDbEntity
  8
MO_001_VIEW_PV
  6
C_SOLID_M
100
AcDbVertex
100
AcDb2dVertex
 10
0.0
 20
-14.745702
 30
0.0
  0
SEQEND
  5
4CD
330
15B
100
AcDbEntity
  8
MO_001_VIEW_PV
  6
C_SOLID_M
  0
POLYLINE
  5
16E
330
1E
100
AcDbEntity
  8
MO_001_VIEW_PV
  6
C_SOLID_M
100
AcDb2dPolyline
 66
     1
 10
0.0
 20
0.0
 30
0.0
  0
VERTEX
  5
4CE
330
16E
100
AcDbEntity
  8
MO_001_VIEW_PV
  6
C_SOLID_M
100
AcDbVertex
100
AcDb2dVertex
 10
5.293537
 20
-11.664333
 30
0.0
  0
VERTEX
  5
4CF
330
16E
100
AcDbEntity
  8
MO_001_VIEW_PV
  6
C_SOLID_M
100
AcDbVertex
100
AcDb2dVertex
 10
5.230319999999999
 20
-11.951047
 30
0.0
  0
VERTEX
  5
4D0
330
16E
100
AcDbEntity
  8
MO_001_VIEW_PV
  6
C_SOLID_M
100
AcDbVertex
100
AcDb2dVertex
 10
5.194708
 20
-12.167028
 30
0.0
  0
VERTEX
  5
4D1
330
16E
100
AcDbEntity
  8
MO_001_VIEW_PV
  6
C_SOLID_M
100
AcDbVertex
100
AcDb2dVertex
 10
5.160330999999999
 20
-12.492048
 30
0.0
  0
VERTEX
  5
4D2
330
16E
100
AcDbEntity
  8
MO_001_VIEW_PV
  6
C_SOLID_M
100
AcDbVertex
100
AcDb2dVertex
 10
5.148864999999999
 20
-12.817736
 30
0.0
  0
VERTEX
  5
4D3
330
16E
100
AcDbEntity
  8
MO_001_VIEW_PV
  6
C_SOLID_M
100
AcDbVertex
100
AcDb2dVertex
 10
5.157924999999999
 20
-13.107256
 30
0.0
  0
VERTEX
  5
4D4
330
16E
100
AcDbEntity
  8
MO_001_VIEW_PV
  6
C_SOLID_M
100
AcDbVertex
100
AcDb2dVertex
 10
5.176605
 20
-13.324115
 30
0.0
  0
VERTEX
  5
4D5
330
16E
100
AcDbEntity
  8
MO_001_VIEW_PV
  6
C_SOLID_M
100
AcDbVertex
100
AcDb2dVertex
 10
5.223682
 20
-13.64847799999999
 30
0.0
  0
VERTEX
  5
4D6
330
16E
100
AcDbEntity
  8
MO_001_VIEW_PV
  6
C_SOLID_M
100
AcDbVertex
100
AcDb2dVertex
 10
5.293537999999999
 20
-13.971139
 30
0.0
  0
SEQEND
  5
4D7
330
16E
100
AcDbEntity
  8
MO_001_VIEW_PV
  6
C_SOLID_M
  0
POLYLINE
  5
179
330
1E
100
AcDbEntity
  8
MO_001_VIEW_PV
  6
C_SOLID_M
100
AcDb2dPolyline
 66
     1
 10
0.0
 20
0.0
 30
0.0
  0
VERTEX
  5
4D8
330
179
100
AcDbEntity
  8
MO_001_VIEW_PV
  6
C_SOLID_M
100
AcDbVertex
100
AcDb2dVertex
 10
4.514393
 20
-14.286414
 30
0.0
  0
VERTEX
  5
4D9
330
179
100
AcDbEntity
  8
MO_001_VIEW_PV
  6
C_SOLID_M
100
AcDbVertex
100
AcDb2dVertex
 10
4.644842999999999
 20
-14.32814299999999
 30
0.0
  0
VERTEX
  5
4DA
330
179
100
AcDbEntity
  8
MO_001_VIEW_PV
  6
C_SOLID_M
100
AcDbVertex
100
AcDb2dVertex
 10
4.751984999999999
 20
-14.342524
 30
0.0
  0
VERTEX
  5
4DB
330
179
100
AcDbEntity
  8
MO_001_VIEW_PV
  6
C_SOLID_M
100
AcDbVertex
100
AcDb2dVertex
 10
4.915370999999999
 20
-14.33533699999999
 30
0.0
  0
VERTEX
  5
4DC
330
179
100
AcDbEntity
  8
MO_001_VIEW_PV
  6
C_SOLID_M
100
AcDbVertex
100
AcDb2dVertex
 10
5.066380999999999
 20
-14.294601
 30
0.0
  0
VERTEX
  5
4DD
330
179
100
AcDbEntity
  8
MO_001_VIEW_PV
  6
C_SOLID_M
100
AcDbVertex
100
AcDb2dVertex
 10
5.177063999999999
 20
-14.233685
 30
0.0
  0
VERTEX
  5
4DE
330
179
100
AcDbEntity
  8
MO_001_VIEW_PV
  6
C_SOLID_M
100
AcDbVertex
100
AcDb2dVertex
 10
5.239479
 20
-14.17588999999999
 30
0.0
  0
VERTEX
  5
4DF
330
179
100
AcDbEntity
  8
MO_001_VIEW_PV
  6
C_SOLID_M
100
AcDbVertex
100
AcDb2dVertex
 10
5.272597
 20
-14.127557
 30
0.0
  0
VERTEX
  5
4E0
330
179
100
AcDbEntity
  8
MO_001_VIEW_PV
  6
C_SOLID_M
100
AcDbVertex
100
AcDb2dVertex
 10
5.298161
 20
-14.050175
 30
0.0
  0
VERTEX
  5
4E1
330
179
100
AcDbEntity
  8
MO_001_VIEW_PV
  6
C_SOLID_M
100
AcDbVertex
100
AcDb2dVertex
 10
5.293543999999999
 20
-13.971122
 30
0.0
  0
SEQEND
  5
4E2
330
179
100
AcDbEntity
  8
MO_001_VIEW_PV
  6
C_SOLID_M
  0
POLYLINE
  5
185
330
1E
100
AcDbEntity
  8
MO_001_VIEW_PV
  6
C_SOLID_M
100
AcDb2dPolyline
 66
     1
 10
0.0
 20
0.0
 30
0.0
  0
VERTEX
  5
4E3
330
185
100
AcDbEntity
  8
MO_001_VIEW_PV
  6
C_SOLID_M
100
AcDbVertex
100
AcDb2dVertex
 10
5.293543999999999
 20
-11.66433
 30
0.0
  0
VERTEX
  5
4E4
330
185
100
AcDbEntity
  8
MO_001_VIEW_PV
  6
C_SOLID_M
100
AcDbVertex
100
AcDb2dVertex
 10
5.299948999999999
 20
-11.61755499999999
 30
0.0
  0
VERTEX
  5
4E5
330
185
100
AcDbEntity
  8
MO_001_VIEW_PV
  6
C_SOLID_M
100
AcDbVertex
100
AcDb2dVertex
 10
5.285524999999999
 20
-11.536058
 30
0.0
  0
VERTEX
  5
4E6
330
185
100
AcDbEntity
  8
MO_001_VIEW_PV
  6
C_SOLID_M
100
AcDbVertex
100
AcDb2dVertex
 10
5.253824999999999
 20
-11.47793599999999
 30
0.0
  0
VERTEX
  5
4E7
330
185
100
AcDbEntity
  8
MO_001_VIEW_PV
  6
C_SOLID_M
100
AcDbVertex
100
AcDb2dVertex
 10
5.175558999999999
 20
-11.400661
 30
0.0
  0
VERTEX
  5
4E8
330
185
100
AcDbEntity
  8
MO_001_VIEW_PV
  6
C_SOLID_M
100
AcDbVertex
100
AcDb2dVertex
 10
5.066380999999999
 20
-11.34085099999999
 30
0.0
  0
VERTEX
  5
4E9
330
185
100
AcDbEntity
  8
MO_001_VIEW_PV
  6
C_SOLID_M
100
AcDbVertex
100
AcDb2dVertex
 10
4.933074999999999
 20
-11.303035
 30
0.0
  0
VERTEX
  5
4EA
330
185
100
AcDbEntity
  8
MO_001_VIEW_PV
  6
C_SOLID_M
100
AcDbVertex
100
AcDb2dVertex
 10
4.825015
 20
-11.291845
 30
0.0
  0
VERTEX
  5
4EB
330
185
100
AcDbEntity
  8
MO_001_VIEW_PV
  6
C_SOLID_M
100
AcDbVertex
100
AcDb2dVertex
 10
4.662317999999999
 20
-11.303869
 30
0.0
  0
VERTEX
  5
4EC
330
185
100
AcDbEntity
  8
MO_001_VIEW_PV
  6
C_SOLID_M
100
AcDbVertex
100
AcDb2dVertex
 10
4.514391999999999
 20
-11.349039
 30
0.0
  0
SEQEND
  5
4ED
330
185
100
AcDbEntity
  8
MO_001_VIEW_PV
  6
C_SOLID_M
  0
POLYLINE
  5
191
330
1E
100
AcDbEntity
  8
MO_001_VIEW_PV
  6
C_SOLID_M
100
AcDb2dPolyline
 66
     1
 10
0.0
 20
0.0
 30
0.0
  0
VERTEX
  5
4EE
330
191
100
AcDbEntity
  8
MO_001_VIEW_PV
  6
C_SOLID_M
100
AcDbVertex
100
AcDb2dVertex
 10
0.0
 20
0.048277
 30
0.0
  0
VERTEX
  5
4EF
330
191
100
AcDbEntity
  8
MO_001_VIEW_PV
  6
C_SOLID_M
100
AcDbVertex
100
AcDb2dVertex
 10
0.2024
 20
-0.189975
 30
0.0
  0
VERTEX
  5
4F0
330
191
100
AcDbEntity
  8
MO_001_VIEW_PV
  6
C_SOLID_M
100
AcDbVertex
100
AcDb2dVertex
 10
0.397758
 20
-0.382012
 30
0.0
  0
VERTEX
  5
4F1
330
191
100
AcDbEntity
  8
MO_001_VIEW_PV
  6
C_SOLID_M
100
AcDbVertex
100
AcDb2dVertex
 10
0.581553
 20
-0.5363470000000001
 30
0.0
  0
VERTEX
  5
4F2
330
191
100
AcDbEntity
  8
MO_001_VIEW_PV
  6
C_SOLID_M
100
AcDbVertex
100
AcDb2dVertex
 10
0.751407
 20
-0.6602180000000001
 30
0.0
  0
VERTEX
  5
4F3
330
191
100
AcDbEntity
  8
MO_001_VIEW_PV
  6
C_SOLID_M
100
AcDbVertex
100
AcDb2dVertex
 10
0.9063739999999999
 20
-0.7596280000000001
 30
0.0
  0
VERTEX
  5
4F4
330
191
100
AcDbEntity
  8
MO_001_VIEW_PV
  6
C_SOLID_M
100
AcDbVertex
100
AcDb2dVertex
 10
1.190285
 20
-0.912476
 30
0.0
  0
VERTEX
  5
4F5
330
191
100
AcDbEntity
  8
MO_001_VIEW_PV
  6
C_SOLID_M
100
AcDbVertex
100
AcDb2dVertex
 10
1.412452
 20
-1.008731
 30
0.0
  0
VERTEX
  5
4F6
330
191
100
AcDbEntity
  8
MO_001_VIEW_PV
  6
C_SOLID_M
100
AcDbVertex
100
AcDb2dVertex
 10
1.757659999999999
 20
-1.122333999999999
 30
0.0
  0
VERTEX
  5
4F7
330
191
100
AcDbEntity
  8
MO_001_VIEW_PV
  6
C_SOLID_M
100
AcDbVertex
100
AcDb2dVertex
 10
2.113472
 20
-1.197807
 30
0.0
  0
VERTEX
  5
4F8
330
191
100
AcDbEntity
  8
MO_001_VIEW_PV
  6
C_SOLID_M
100
AcDbVertex
100
AcDb2dVertex
 10
2.427022
 20
-1.231647999999999
 30
0.0
  0
VERTEX
  5
4F9
330
191
100
AcDbEntity
  8
MO_001_VIEW_PV
  6
C_SOLID_M
100
AcDbVertex
100
AcDb2dVertex
 10
2.702993999999999
 20
-1.236952999999999
 30
0.0
  0
VERTEX
  5
4FA
330
191
100
AcDbEntity
  8
MO_001_VIEW_PV
  6
C_SOLID_M
100
AcDbVertex
100
AcDb2dVertex
 10
2.944112
 20
-1.222945
 30
0.0
  0
VERTEX
  5
4FB
330
191
100
AcDbEntity
  8
MO_001_VIEW_PV
  6
C_SOLID_M
100
AcDbVertex
100
AcDb2dVertex
 10
3.153750999999999
 20
-1.196466999999999
 30
0.0
  0
VERTEX
  5
4FC
330
191
100
AcDbEntity
  8
MO_001_VIEW_PV
  6
C_SOLID_M
100
AcDbVertex
100
AcDb2dVertex
 10
3.335449999999999
 20
-1.162495999999999
 30
0.0
  0
VERTEX
  5
4FD
330
191
100
AcDbEntity
  8
MO_001_VIEW_PV
  6
C_SOLID_M
100
AcDbVertex
100
AcDb2dVertex
 10
3.647747
 20
-1.079137
 30
0.0
  0
VERTEX
  5
4FE
330
191
100
AcDbEntity
  8
MO_001_VIEW_PV
  6
C_SOLID_M
100
AcDbVertex
100
AcDb2dVertex
 10
3.875705
 20
-0.9970600000000001
 30
0.0
  0
VERTEX
  5
4FF
330
191
100
AcDbEntity
  8
MO_001_VIEW_PV
  6
C_SOLID_M
100
AcDbVertex
100
AcDb2dVertex
 10
4.204625
 20
-0.843585
 30
0.0
  0
VERTEX
  5
500
330
191
100
AcDbEntity
  8
MO_001_VIEW_PV
  6
C_SOLID_M
100
AcDbVertex
100
AcDb2dVertex
 10
4.514383
 20
-0.65537
 30
0.0
  0
SEQEND
  5
501
330
191
100
AcDbEntity
  8
MO_001_VIEW_PV
  6
C_SOLID_M
  0
POLYLINE
  5
1A6
330
1E
100
AcDbEntity
  8
MO_001_VIEW_PV
  6
C_SOLID_M
100
AcDb2dPolyline
 66
     1
 10
0.0
 20
0.0
 30
0.0
  0
VERTEX
  5
502
330
1A6
100
AcDbEntity
  8
MO_001_VIEW_PV
  6
C_SOLID_M
100
AcDbVertex
100
AcDb2dVertex
 10
4.514383999999999
 20
-5.155711
 30
0.0
  0
VERTEX
  5
503
330
1A6
100
AcDbEntity
  8
MO_001_VIEW_PV
  6
C_SOLID_M
100
AcDbVertex
100
AcDb2dVertex
 10
4.247167
 20
-4.990656999999999
 30
0.0
  0
VERTEX
  5
504
330
1A6
100
AcDbEntity
  8
MO_001_VIEW_PV
  6
C_SOLID_M
100
AcDbVertex
100
AcDb2dVertex
 10
4.00114
 20
-4.867417999999999
 30
0.0
  0
VERTEX
  5
505
330
1A6
100
AcDbEntity
  8
MO_001_VIEW_PV
  6
C_SOLID_M
100
AcDbVertex
100
AcDb2dVertex
 10
3.777932999999999
 20
-4.776520999999999
 30
0.0
  0
VERTEX
  5
506
330
1A6
100
AcDbEntity
  8
MO_001_VIEW_PV
  6
C_SOLID_M
100
AcDbVertex
100
AcDb2dVertex
 10
3.577537999999999
 20
-4.710359999999999
 30
0.0
  0
VERTEX
  5
507
330
1A6
100
AcDbEntity
  8
MO_001_VIEW_PV
  6
C_SOLID_M
100
AcDbVertex
100
AcDb2dVertex
 10
3.398973
 20
-4.662937
 30
0.0
  0
VERTEX
  5
508
330
1A6
100
AcDbEntity
  8
MO_001_VIEW_PV
  6
C_SOLID_M
100
AcDbVertex
100
AcDb2dVertex
 10
3.081008999999999
 20
-4.603901999999999
 30
0.0
  0
VERTEX
  5
509
330
1A6
100
AcDbEntity
  8
MO_001_VIEW_PV
  6
C_SOLID_M
100
AcDbVertex
100
AcDb2dVertex
 10
2.839517999999999
 20
-4.579916
 30
0.0
  0
VERTEX
  5
50A
330
1A6
100
AcDbEntity
  8
MO_001_VIEW_PV
  6
C_SOLID_M
100
AcDbVertex
100
AcDb2dVertex
 10
2.475559999999999
 20
-4.576849
 30
0.0
  0
VERTEX
  5
50B
330
1A6
100
AcDbEntity
  8
MO_001_VIEW_PV
  6
C_SOLID_M
100
AcDbVertex
100
AcDb2dVertex
 10
2.113472
 20
-4.613273999999999
 30
0.0
  0
VERTEX
  5
50C
330
1A6
100
AcDbEntity
  8
MO_001_VIEW_PV
  6
C_SOLID_M
100
AcDbVertex
100
AcDb2dVertex
 10
1.804634999999999
 20
-4.676442999999999
 30
0.0
  0
VERTEX
  5
50D
330
1A6
100
AcDbEntity
  8
MO_001_VIEW_PV
  6
C_SOLID_M
100
AcDbVertex
100
AcDb2dVertex
 10
1.540488999999999
 20
-4.755325
 30
0.0
  0
VERTEX
  5
50E
330
1A6
100
AcDbEntity
  8
MO_001_VIEW_PV
  6
C_SOLID_M
100
AcDbVertex
100
AcDb2dVertex
 10
1.315547999999999
 20
-4.841976999999999
 30
0.0
  0
VERTEX
  5
50F
330
1A6
100
AcDbEntity
  8
MO_001_VIEW_PV
  6
C_SOLID_M
100
AcDbVertex
100
AcDb2dVertex
 10
1.124457999999999
 20
-4.930916
 30
0.0
  0
VERTEX
  5
510
330
1A6
100
AcDbEntity
  8
MO_001_VIEW_PV
  6
C_SOLID_M
100
AcDbVertex
100
AcDb2dVertex
 10
0.962292
 20
-5.018483999999999
 30
0.0
  0
VERTEX
  5
511
330
1A6
100
AcDbEntity
  8
MO_001_VIEW_PV
  6
C_SOLID_M
100
AcDbVertex
100
AcDb2dVertex
 10
0.6913970000000001
 20
-5.192744999999999
 30
0.0
  0
VERTEX
  5
512
330
1A6
100
AcDbEntity
  8
MO_001_VIEW_PV
  6
C_SOLID_M
100
AcDbVertex
100
AcDb2dVertex
 10
0.5003180000000001
 20
-5.340136
 30
0.0
  0
VERTEX
  5
513
330
1A6
100
AcDbEntity
  8
MO_001_VIEW_PV
  6
C_SOLID_M
100
AcDbVertex
100
AcDb2dVertex
 10
0.235599
 20
-5.586141
 30
0.0
  0
VERTEX
  5
514
330
1A6
100
AcDbEntity
  8
MO_001_VIEW_PV
  6
C_SOLID_M
100
AcDbVertex
100
AcDb2dVertex
 10
0.0
 20
-5.859358999999999
 30
0.0
  0
SEQEND
  5
515
330
1A6
100
AcDbEntity
  8
MO_001_VIEW_PV
  6
C_SOLID_M
  0
POLYLINE
  5
1BB
330
1E
100
AcDbEntity
  8
MO_001_VIEW_PV
  6
C_SOLID_M
100
AcDb2dPolyline
 66
     1
 10
0.0
 20
0.0
 30
0.0
  0
VERTEX
  5
516
330
1BB
100
AcDbEntity
  8
MO_001_VIEW_PV
  6
C_SOLID_M
100
AcDbVertex
100
AcDb2dVertex
 10
5.293537
 20
-1.138437999999999
 30
0.0
  0
VERTEX
  5
517
330
1BB
100
AcDbEntity
  8
MO_001_VIEW_PV
  6
C_SOLID_M
100
AcDbVertex
100
AcDb2dVertex
 10
5.230319999999999
 20
-1.577709
 30
0.0
  0
VERTEX
  5
518
330
1BB
100
AcDbEntity
  8
MO_001_VIEW_PV
  6
C_SOLID_M
100
AcDbVertex
100
AcDb2dVertex
 10
5.194708
 20
-1.908609999999999
 30
0.0
  0
VERTEX
  5
519
330
1BB
100
AcDbEntity
  8
MO_001_VIEW_PV
  6
C_SOLID_M
100
AcDbVertex
100
AcDb2dVertex
 10
5.160330999999999
 20
-2.406569999999999
 30
0.0
  0
VERTEX
  5
51A
330
1BB
100
AcDbEntity
  8
MO_001_VIEW_PV
  6
C_SOLID_M
100
AcDbVertex
100
AcDb2dVertex
 10
5.148864999999999
 20
-2.905550999999999
 30
0.0
  0
VERTEX
  5
51B
330
1BB
100
AcDbEntity
  8
MO_001_VIEW_PV
  6
C_SOLID_M
100
AcDbVertex
100
AcDb2dVertex
 10
5.157924999999999
 20
-3.349121999999999
 30
0.0
  0
VERTEX
  5
51C
330
1BB
100
AcDbEntity
  8
MO_001_VIEW_PV
  6
C_SOLID_M
100
AcDbVertex
100
AcDb2dVertex
 10
5.176605
 20
-3.681367999999999
 30
0.0
  0
VERTEX
  5
51D
330
1BB
100
AcDbEntity
  8
MO_001_VIEW_PV
  6
C_SOLID_M
100
AcDbVertex
100
AcDb2dVertex
 10
5.223681
 20
-4.178319
 30
0.0
  0
VERTEX
  5
51E
330
1BB
100
AcDbEntity
  8
MO_001_VIEW_PV
  6
C_SOLID_M
100
AcDbVertex
100
AcDb2dVertex
 10
5.293537999999999
 20
-4.672664
 30
0.0
  0
SEQEND
  5
51F
330
1BB
100
AcDbEntity
  8
MO_001_VIEW_PV
  6
C_SOLID_M
  0
POLYLINE
  5
1C6
330
1E
100
AcDbEntity
  8
MO_001_VIEW_PV
  6
C_SOLID_M
100
AcDb2dPolyline
 66
     1
 10
0.0
 20
0.0
 30
0.0
  0
VERTEX
  5
520
330
1C6
100
AcDbEntity
  8
MO_001_VIEW_PV
  6
C_SOLID_M
100
AcDbVertex
100
AcDb2dVertex
 10
4.514387
 20
-5.155711
 30
0.0
  0
VERTEX
  5
521
330
1C6
100
AcDbEntity
  8
MO_001_VIEW_PV
  6
C_SOLID_M
100
AcDbVertex
100
AcDb2dVertex
 10
4.577233999999999
 20
-5.192383
 30
0.0
  0
VERTEX
  5
522
330
1C6
100
AcDbEntity
  8
MO_001_VIEW_PV
  6
C_SOLID_M
100
AcDbVertex
100
AcDb2dVertex
 10
4.697794
 20
-5.233558999999999
 30
0.0
  0
VERTEX
  5
523
330
1C6
100
AcDbEntity
  8
MO_001_VIEW_PV
  6
C_SOLID_M
100
AcDbVertex
100
AcDb2dVertex
 10
4.793033
 20
-5.243909999999999
 30
0.0
  0
VERTEX
  5
524
330
1C6
100
AcDbEntity
  8
MO_001_VIEW_PV
  6
C_SOLID_M
100
AcDbVertex
100
AcDb2dVertex
 10
4.864823
 20
-5.239802
 30
0.0
  0
VERTEX
  5
525
330
1C6
100
AcDbEntity
  8
MO_001_VIEW_PV
  6
C_SOLID_M
100
AcDbVertex
100
AcDb2dVertex
 10
4.969536999999999
 20
-5.214787999999999
 30
0.0
  0
VERTEX
  5
526
330
1C6
100
AcDbEntity
  8
MO_001_VIEW_PV
  6
C_SOLID_M
100
AcDbVertex
100
AcDb2dVertex
 10
5.066378
 20
-5.16826
 30
0.0
  0
VERTEX
  5
527
330
1C6
100
AcDbEntity
  8
MO_001_VIEW_PV
  6
C_SOLID_M
100
AcDbVertex
100
AcDb2dVertex
 10
5.125189999999999
 20
-5.125587
 30
0.0
  0
VERTEX
  5
528
330
1C6
100
AcDbEntity
  8
MO_001_VIEW_PV
  6
C_SOLID_M
100
AcDbVertex
100
AcDb2dVertex
 10
5.210738
 20
-5.032343
 30
0.0
  0
VERTEX
  5
529
330
1C6
100
AcDbEntity
  8
MO_001_VIEW_PV
  6
C_SOLID_M
100
AcDbVertex
100
AcDb2dVertex
 10
5.257583999999999
 20
-4.950026999999999
 30
0.0
  0
VERTEX
  5
52A
330
1C6
100
AcDbEntity
  8
MO_001_VIEW_PV
  6
C_SOLID_M
100
AcDbVertex
100
AcDb2dVertex
 10
5.281762999999999
 20
-4.883328999999999
 30
0.0
  0
VERTEX
  5
52B
330
1C6
100
AcDbEntity
  8
MO_001_VIEW_PV
  6
C_SOLID_M
100
AcDbVertex
100
AcDb2dVertex
 10
5.299246
 20
-4.778618999999999
 30
0.0
  0
VERTEX
  5
52C
330
1C6
100
AcDbEntity
  8
MO_001_VIEW_PV
  6
C_SOLID_M
100
AcDbVertex
100
AcDb2dVertex
 10
5.293544999999999
 20
-4.672651999999999
 30
0.0
  0
SEQEND
  5
52D
330
1C6
100
AcDbEntity
  8
MO_001_VIEW_PV
  6
C_SOLID_M
  0
POLYLINE
  5
1D5
330
1E
100
AcDbEntity
  8
MO_001_VIEW_PV
  6
C_SOLID_M
100
AcDb2dPolyline
 66
     1
 10
0.0
 20
0.0
 30
0.0
  0
VERTEX
  5
52E
330
1D5
100
AcDbEntity
  8
MO_001_VIEW_PV
  6
C_SOLID_M
100
AcDbVertex
100
AcDb2dVertex
 10
5.293544999999999
 20
-1.138444
 30
0.0
  0
VERTEX
  5
52F
330
1D5
100
AcDbEntity
  8
MO_001_VIEW_PV
  6
C_SOLID_M
100
AcDbVertex
100
AcDb2dVertex
 10
5.299948999999999
 20
-1.066778
 30
0.0
  0
VERTEX
  5
530
330
1D5
100
AcDbEntity
  8
MO_001_VIEW_PV
  6
C_SOLID_M
100
AcDbVertex
100
AcDb2dVertex
 10
5.285524999999999
 20
-0.9419159999999999
 30
0.0
  0
VERTEX
  5
531
330
1D5
100
AcDbEntity
  8
MO_001_VIEW_PV
  6
C_SOLID_M
100
AcDbVertex
100
AcDb2dVertex
 10
5.253824999999999
 20
-0.8528669999999999
 30
0.0
  0
VERTEX
  5
532
330
1D5
100
AcDbEntity
  8
MO_001_VIEW_PV
  6
C_SOLID_M
100
AcDbVertex
100
AcDb2dVertex
 10
5.219025
 20
-0.7908910000000001
 30
0.0
  0
VERTEX
  5
533
330
1D5
100
AcDbEntity
  8
MO_001_VIEW_PV
  6
C_SOLID_M
100
AcDbVertex
100
AcDb2dVertex
 10
5.150849
 20
-0.7087180000000001
 30
0.0
  0
VERTEX
  5
534
330
1D5
100
AcDbEntity
  8
MO_001_VIEW_PV
  6
C_SOLID_M
100
AcDbVertex
100
AcDb2dVertex
 10
5.06638
 20
-0.6428370000000001
 30
0.0
  0
VERTEX
  5
535
330
1D5
100
AcDbEntity
  8
MO_001_VIEW_PV
  6
C_SOLID_M
100
AcDbVertex
100
AcDb2dVertex
 10
5.001881
 20
-0.6090600000000001
 30
0.0
  0
VERTEX
  5
536
330
1D5
100
AcDbEntity
  8
MO_001_VIEW_PV
  6
C_SOLID_M
100
AcDbVertex
100
AcDb2dVertex
 10
4.879521999999999
 20
-0.5734060000000002
 30
0.0
  0
VERTEX
  5
537
330
1D5
100
AcDbEntity
  8
MO_001_VIEW_PV
  6
C_SOLID_M
100
AcDbVertex
100
AcDb2dVertex
 10
4.7839
 20
-0.567394
 30
0.0
  0
VERTEX
  5
538
330
1D5
100
AcDbEntity
  8
MO_001_VIEW_PV
  6
C_SOLID_M
100
AcDbVertex
100
AcDb2dVertex
 10
4.712379
 20
-0.5747590000000001
 30
0.0
  0
VERTEX
  5
539
330
1D5
100
AcDbEntity
  8
MO_001_VIEW_PV
  6
C_SOLID_M
100
AcDbVertex
100
AcDb2dVertex
 10
4.608948999999999
 20
-0.6045050000000001
 30
0.0
  0
VERTEX
  5
53A
330
1D5
100
AcDbEntity
  8
MO_001_VIEW_PV
  6
C_SOLID_M
100
AcDbVertex
100
AcDb2dVertex
 10
4.514391
 20
-0.655383
 30
0.0
  0
SEQEND
  5
53B
330
1D5
100
AcDbEntity
  8
MO_001_VIEW_PV
  6
C_SOLID_M
  0
POLYLINE
  5
1E4
330
1E
100
AcDbEntity
  8
MO_001_VIEW_PV
  6
C_SOLID_M
100
AcDb2dPolyline
 66
     1
 10
0.0
 20
0.0
 30
0.0
  0
VERTEX
  5
53C
330
1E4
100
AcDbEntity
  8
MO_001_VIEW_PV
  6
C_SOLID_M
100
AcDbVertex
100
AcDb2dVertex
 10
-0.000001
 20
10.963719
 30
0.0
  0
VERTEX
  5
53D
330
1E4
100
AcDbEntity
  8
MO_001_VIEW_PV
  6
C_SOLID_M
100
AcDbVertex
100
AcDb2dVertex
 10
0.2024
 20
10.754204
 30
0.0
  0
VERTEX
  5
53E
330
1E4
100
AcDbEntity
  8
MO_001_VIEW_PV
  6
C_SOLID_M
100
AcDbVertex
100
AcDb2dVertex
 10
0.397757
 20
10.585329
 30
0.0
  0
VERTEX
  5
53F
330
1E4
100
AcDbEntity
  8
MO_001_VIEW_PV
  6
C_SOLID_M
100
AcDbVertex
100
AcDb2dVertex
 10
0.5815520000000002
 20
10.44960899999999
 30
0.0
  0
VERTEX
  5
540
330
1E4
100
AcDbEntity
  8
MO_001_VIEW_PV
  6
C_SOLID_M
100
AcDbVertex
100
AcDb2dVertex
 10
0.751407
 20
10.34067899999999
 30
0.0
  0
VERTEX
  5
541
330
1E4
100
AcDbEntity
  8
MO_001_VIEW_PV
  6
C_SOLID_M
100
AcDbVertex
100
AcDb2dVertex
 10
1.066752
 20
10.173494
 30
0.0
  0
VERTEX
  5
542
330
1E4
100
AcDbEntity
  8
MO_001_VIEW_PV
  6
C_SOLID_M
100
AcDbVertex
100
AcDb2dVertex
 10
1.316359999999999
 20
10.06874299999999
 30
0.0
  0
VERTEX
  5
543
330
1E4
100
AcDbEntity
  8
MO_001_VIEW_PV
  6
C_SOLID_M
100
AcDbVertex
100
AcDb2dVertex
 10
1.509751999999999
 20
10.00229999999999
 30
0.0
  0
VERTEX
  5
544
330
1E4
100
AcDbEntity
  8
MO_001_VIEW_PV
  6
C_SOLID_M
100
AcDbVertex
100
AcDb2dVertex
 10
1.80794
 20
9.922742999999998
 30
0.0
  0
VERTEX
  5
545
330
1E4
100
AcDbEntity
  8
MO_001_VIEW_PV
  6
C_SOLID_M
100
AcDbVertex
100
AcDb2dVertex
 10
2.113471
 20
9.867931
 30
0.0
  0
VERTEX
  5
546
330
1E4
100
AcDbEntity
  8
MO_001_VIEW_PV
  6
C_SOLID_M
100
AcDbVertex
100
AcDb2dVertex
 10
2.427022
 20
9.838171
 30
0.0
  0
VERTEX
  5
547
330
1E4
100
AcDbEntity
  8
MO_001_VIEW_PV
  6
C_SOLID_M
100
AcDbVertex
100
AcDb2dVertex
 10
2.702993
 20
9.833505999999999
 30
0.0
  0
VERTEX
  5
548
330
1E4
100
AcDbEntity
  8
MO_001_VIEW_PV
  6
C_SOLID_M
100
AcDbVertex
100
AcDb2dVertex
 10
2.944110999999999
 20
9.845824
 30
0.0
  0
VERTEX
  5
549
330
1E4
100
AcDbEntity
  8
MO_001_VIEW_PV
  6
C_SOLID_M
100
AcDbVertex
100
AcDb2dVertex
 10
3.15375
 20
9.869108999999999
 30
0.0
  0
VERTEX
  5
54A
330
1E4
100
AcDbEntity
  8
MO_001_VIEW_PV
  6
C_SOLID_M
100
AcDbVertex
100
AcDb2dVertex
 10
3.51493
 20
9.937624000000001
 30
0.0
  0
VERTEX
  5
54B
330
1E4
100
AcDbEntity
  8
MO_001_VIEW_PV
  6
C_SOLID_M
100
AcDbVertex
100
AcDb2dVertex
 10
3.778762999999999
 20
10.01175399999999
 30
0.0
  0
VERTEX
  5
54C
330
1E4
100
AcDbEntity
  8
MO_001_VIEW_PV
  6
C_SOLID_M
100
AcDbVertex
100
AcDb2dVertex
 10
3.971408
 20
10.079806
 30
0.0
  0
VERTEX
  5
54D
330
1E4
100
AcDbEntity
  8
MO_001_VIEW_PV
  6
C_SOLID_M
100
AcDbVertex
100
AcDb2dVertex
 10
4.25014
 20
10.201246
 30
0.0
  0
VERTEX
  5
54E
330
1E4
100
AcDbEntity
  8
MO_001_VIEW_PV
  6
C_SOLID_M
100
AcDbVertex
100
AcDb2dVertex
 10
4.514383
 20
10.344941
 30
0.0
  0
SEQEND
  5
54F
330
1E4
100
AcDbEntity
  8
MO_001_VIEW_PV
  6
C_SOLID_M
  0
POLYLINE
  5
1F9
330
1E
100
AcDbEntity
  8
MO_001_VIEW_PV
  6
C_SOLID_M
100
AcDb2dPolyline
 66
     1
 10
0.0
 20
0.0
 30
0.0
  0
VERTEX
  5
550
330
1F9
100
AcDbEntity
  8
MO_001_VIEW_PV
  6
C_SOLID_M
100
AcDbVertex
100
AcDb2dVertex
 10
4.514383
 20
6.387419
 30
0.0
  0
VERTEX
  5
551
330
1F9
100
AcDbEntity
  8
MO_001_VIEW_PV
  6
C_SOLID_M
100
AcDbVertex
100
AcDb2dVertex
 10
4.247167
 20
6.532564999999999
 30
0.0
  0
VERTEX
  5
552
330
1F9
100
AcDbEntity
  8
MO_001_VIEW_PV
  6
C_SOLID_M
100
AcDbVertex
100
AcDb2dVertex
 10
4.00114
 20
6.640939999999999
 30
0.0
  0
VERTEX
  5
553
330
1F9
100
AcDbEntity
  8
MO_001_VIEW_PV
  6
C_SOLID_M
100
AcDbVertex
100
AcDb2dVertex
 10
3.777932999999999
 20
6.720874
 30
0.0
  0
VERTEX
  5
554
330
1F9
100
AcDbEntity
  8
MO_001_VIEW_PV
  6
C_SOLID_M
100
AcDbVertex
100
AcDb2dVertex
 10
3.577537999999999
 20
6.779053999999999
 30
0.0
  0
VERTEX
  5
555
330
1F9
100
AcDbEntity
  8
MO_001_VIEW_PV
  6
C_SOLID_M
100
AcDbVertex
100
AcDb2dVertex
 10
3.217991
 20
6.853733
 30
0.0
  0
VERTEX
  5
556
330
1F9
100
AcDbEntity
  8
MO_001_VIEW_PV
  6
C_SOLID_M
100
AcDbVertex
100
AcDb2dVertex
 10
2.943229999999999
 20
6.886610000000001
 30
0.0
  0
VERTEX
  5
557
330
1F9
100
AcDbEntity
  8
MO_001_VIEW_PV
  6
C_SOLID_M
100
AcDbVertex
100
AcDb2dVertex
 10
2.735597999999999
 20
6.898085
 30
0.0
  0
VERTEX
  5
558
330
1F9
100
AcDbEntity
  8
MO_001_VIEW_PV
  6
C_SOLID_M
100
AcDbVertex
100
AcDb2dVertex
 10
2.423615999999999
 20
6.894007000000001
 30
0.0
  0
VERTEX
  5
559
330
1F9
100
AcDbEntity
  8
MO_001_VIEW_PV
  6
C_SOLID_M
100
AcDbVertex
100
AcDb2dVertex
 10
2.113472999999999
 20
6.86443
 30
0.0
  0
VERTEX
  5
55A
330
1F9
100
AcDbEntity
  8
MO_001_VIEW_PV
  6
C_SOLID_M
100
AcDbVertex
100
AcDb2dVertex
 10
1.804636
 20
6.808880999999999
 30
0.0
  0
VERTEX
  5
55B
330
1F9
100
AcDbEntity
  8
MO_001_VIEW_PV
  6
C_SOLID_M
100
AcDbVertex
100
AcDb2dVertex
 10
1.540488999999999
 20
6.739513
 30
0.0
  0
VERTEX
  5
55C
330
1F9
100
AcDbEntity
  8
MO_001_VIEW_PV
  6
C_SOLID_M
100
AcDbVertex
100
AcDb2dVertex
 10
1.315547999999999
 20
6.663313
 30
0.0
  0
VERTEX
  5
55D
330
1F9
100
AcDbEntity
  8
MO_001_VIEW_PV
  6
C_SOLID_M
100
AcDbVertex
100
AcDb2dVertex
 10
1.124457999999999
 20
6.585100999999999
 30
0.0
  0
VERTEX
  5
55E
330
1F9
100
AcDbEntity
  8
MO_001_VIEW_PV
  6
C_SOLID_M
100
AcDbVertex
100
AcDb2dVertex
 10
0.805362
 20
6.423341999999999
 30
0.0
  0
VERTEX
  5
55F
330
1F9
100
AcDbEntity
  8
MO_001_VIEW_PV
  6
C_SOLID_M
100
AcDbVertex
100
AcDb2dVertex
 10
0.580858
 20
6.282276999999999
 30
0.0
  0
VERTEX
  5
560
330
1F9
100
AcDbEntity
  8
MO_001_VIEW_PV
  6
C_SOLID_M
100
AcDbVertex
100
AcDb2dVertex
 10
0.4218939999999999
 20
6.166030999999999
 30
0.0
  0
VERTEX
  5
561
330
1F9
100
AcDbEntity
  8
MO_001_VIEW_PV
  6
C_SOLID_M
100
AcDbVertex
100
AcDb2dVertex
 10
0.200089
 20
5.975983
 30
0.0
  0
VERTEX
  5
562
330
1F9
100
AcDbEntity
  8
MO_001_VIEW_PV
  6
C_SOLID_M
100
AcDbVertex
100
AcDb2dVertex
 10
0.0
 20
5.768641999999999
 30
0.0
  0
SEQEND
  5
563
330
1F9
100
AcDbEntity
  8
MO_001_VIEW_PV
  6
C_SOLID_M
  0
POLYLINE
  5
20E
330
1E
100
AcDbEntity
  8
MO_001_VIEW_PV
  6
C_SOLID_M
100
AcDb2dPolyline
 66
     1
 10
0.0
 20
0.0
 30
0.0
  0
VERTEX
  5
564
330
20E
100
AcDbEntity
  8
MO_001_VIEW_PV
  6
C_SOLID_M
100
AcDbVertex
100
AcDb2dVertex
 10
5.293537999999999
 20
9.920150999999998
 30
0.0
  0
VERTEX
  5
565
330
20E
100
AcDbEntity
  8
MO_001_VIEW_PV
  6
C_SOLID_M
100
AcDbVertex
100
AcDb2dVertex
 10
5.230319999999999
 20
9.533863
 30
0.0
  0
VERTEX
  5
566
330
20E
100
AcDbEntity
  8
MO_001_VIEW_PV
  6
C_SOLID_M
100
AcDbVertex
100
AcDb2dVertex
 10
5.194708
 20
9.242872999999999
 30
0.0
  0
VERTEX
  5
567
330
20E
100
AcDbEntity
  8
MO_001_VIEW_PV
  6
C_SOLID_M
100
AcDbVertex
100
AcDb2dVertex
 10
5.160330999999999
 20
8.804975
 30
0.0
  0
VERTEX
  5
568
330
20E
100
AcDbEntity
  8
MO_001_VIEW_PV
  6
C_SOLID_M
100
AcDbVertex
100
AcDb2dVertex
 10
5.148864999999999
 20
8.366177999999999
 30
0.0
  0
VERTEX
  5
569
330
20E
100
AcDbEntity
  8
MO_001_VIEW_PV
  6
C_SOLID_M
100
AcDbVertex
100
AcDb2dVertex
 10
5.157924999999999
 20
7.976107999999999
 30
0.0
  0
VERTEX
  5
56A
330
20E
100
AcDbEntity
  8
MO_001_VIEW_PV
  6
C_SOLID_M
100
AcDbVertex
100
AcDb2dVertex
 10
5.176605
 20
7.683936
 30
0.0
  0
VERTEX
  5
56B
330
20E
100
AcDbEntity
  8
MO_001_VIEW_PV
  6
C_SOLID_M
100
AcDbVertex
100
AcDb2dVertex
 10
5.223682
 20
7.246924
 30
0.0
  0
VERTEX
  5
56C
330
20E
100
AcDbEntity
  8
MO_001_VIEW_PV
  6
C_SOLID_M
100
AcDbVertex
100
AcDb2dVertex
 10
5.293538999999999
 20
6.812203999999999
 30
0.0
  0
SEQEND
  5
56D
330
20E
100
AcDbEntity
  8
MO_001_VIEW_PV
  6
C_SOLID_M
  0
POLYLINE
  5
219
330
1E
100
AcDbEntity
  8
MO_001_VIEW_PV
  6
C_SOLID_M
100
AcDb2dPolyline
 66
     1
 10
0.0
 20
0.0
 30
0.0
  0
VERTEX
  5
56E
330
219
100
AcDbEntity
  8
MO_001_VIEW_PV
  6
C_SOLID_M
100
AcDbVertex
100
AcDb2dVertex
 10
4.514393
 20
6.387426999999999
 30
0.0
  0
VERTEX
  5
56F
330
219
100
AcDbEntity
  8
MO_001_VIEW_PV
  6
C_SOLID_M
100
AcDbVertex
100
AcDb2dVertex
 10
4.644842999999999
 20
6.331207
 30
0.0
  0
VERTEX
  5
570
330
219
100
AcDbEntity
  8
MO_001_VIEW_PV
  6
C_SOLID_M
100
AcDbVertex
100
AcDb2dVertex
 10
4.751984999999999
 20
6.311830999999999
 30
0.0
  0
VERTEX
  5
571
330
219
100
AcDbEntity
  8
MO_001_VIEW_PV
  6
C_SOLID_M
100
AcDbVertex
100
AcDb2dVertex
 10
4.834138999999999
 20
6.310839999999999
 30
0.0
  0
VERTEX
  5
572
330
219
100
AcDbEntity
  8
MO_001_VIEW_PV
  6
C_SOLID_M
100
AcDbVertex
100
AcDb2dVertex
 10
4.954953999999999
 20
6.331148
 30
0.0
  0
VERTEX
  5
573
330
219
100
AcDbEntity
  8
MO_001_VIEW_PV
  6
C_SOLID_M
100
AcDbVertex
100
AcDb2dVertex
 10
5.066380999999999
 20
6.376398
 30
0.0
  0
VERTEX
  5
574
330
219
100
AcDbEntity
  8
MO_001_VIEW_PV
  6
C_SOLID_M
100
AcDbVertex
100
AcDb2dVertex
 10
5.177063999999999
 20
6.458467999999999
 30
0.0
  0
VERTEX
  5
575
330
219
100
AcDbEntity
  8
MO_001_VIEW_PV
  6
C_SOLID_M
100
AcDbVertex
100
AcDb2dVertex
 10
5.23948
 20
6.536336
 30
0.0
  0
VERTEX
  5
576
330
219
100
AcDbEntity
  8
MO_001_VIEW_PV
  6
C_SOLID_M
100
AcDbVertex
100
AcDb2dVertex
 10
5.272597
 20
6.601453999999999
 30
0.0
  0
VERTEX
  5
577
330
219
100
AcDbEntity
  8
MO_001_VIEW_PV
  6
C_SOLID_M
100
AcDbVertex
100
AcDb2dVertex
 10
5.298161
 20
6.705710999999999
 30
0.0
  0
VERTEX
  5
578
330
219
100
AcDbEntity
  8
MO_001_VIEW_PV
  6
C_SOLID_M
100
AcDbVertex
100
AcDb2dVertex
 10
5.293543999999999
 20
6.812216999999999
 30
0.0
  0
SEQEND
  5
579
330
219
100
AcDbEntity
  8
MO_001_VIEW_PV
  6
C_SOLID_M
  0
POLYLINE
  5
226
330
1E
100
AcDbEntity
  8
MO_001_VIEW_PV
  6
C_SOLID_M
100
AcDb2dPolyline
 66
     1
 10
0.0
 20
0.0
 30
0.0
  0
VERTEX
  5
57A
330
226
100
AcDbEntity
  8
MO_001_VIEW_PV
  6
C_SOLID_M
100
AcDbVertex
100
AcDb2dVertex
 10
5.293543999999999
 20
9.920144
 30
0.0
  0
VERTEX
  5
57B
330
226
100
AcDbEntity
  8
MO_001_VIEW_PV
  6
C_SOLID_M
100
AcDbVertex
100
AcDb2dVertex
 10
5.299948999999999
 20
9.983164
 30
0.0
  0
VERTEX
  5
57C
330
226
100
AcDbEntity
  8
MO_001_VIEW_PV
  6
C_SOLID_M
100
AcDbVertex
100
AcDb2dVertex
 10
5.285524999999999
 20
10.092963
 30
0.0
  0
VERTEX
  5
57D
330
226
100
AcDbEntity
  8
MO_001_VIEW_PV
  6
C_SOLID_M
100
AcDbVertex
100
AcDb2dVertex
 10
5.253824999999999
 20
10.17127
 30
0.0
  0
VERTEX
  5
57E
330
226
100
AcDbEntity
  8
MO_001_VIEW_PV
  6
C_SOLID_M
100
AcDbVertex
100
AcDb2dVertex
 10
5.175558999999999
 20
10.275382
 30
0.0
  0
VERTEX
  5
57F
330
226
100
AcDbEntity
  8
MO_001_VIEW_PV
  6
C_SOLID_M
100
AcDbVertex
100
AcDb2dVertex
 10
5.066380999999999
 20
10.35596399999999
 30
0.0
  0
VERTEX
  5
580
330
226
100
AcDbEntity
  8
MO_001_VIEW_PV
  6
C_SOLID_M
100
AcDbVertex
100
AcDb2dVertex
 10
4.933074999999999
 20
10.406914
 30
0.0
  0
VERTEX
  5
581
330
226
100
AcDbEntity
  8
MO_001_VIEW_PV
  6
C_SOLID_M
100
AcDbVertex
100
AcDb2dVertex
 10
4.825015
 20
10.421989
 30
0.0
  0
VERTEX
  5
582
330
226
100
AcDbEntity
  8
MO_001_VIEW_PV
  6
C_SOLID_M
100
AcDbVertex
100
AcDb2dVertex
 10
4.742896
 20
10.419698
 30
0.0
  0
VERTEX
  5
583
330
226
100
AcDbEntity
  8
MO_001_VIEW_PV
  6
C_SOLID_M
100
AcDbVertex
100
AcDb2dVertex
 10
4.623291
 20
10.394586
 30
0.0
  0
VERTEX
  5
584
330
226
100
AcDbEntity
  8
MO_001_VIEW_PV
  6
C_SOLID_M
100
AcDbVertex
100
AcDb2dVertex
 10
4.514391999999999
 20
10.344933
 30
0.0
  0
SEQEND
  5
585
330
226
100
AcDbEntity
  8
MO_001_VIEW_PV
  6
C_SOLID_M
  0
POLYLINE
  5
233
330
1E
100
AcDbEntity
  8
MO_001_VIEW_PV
  6
C_SOLID_M
100
AcDb2dPolyline
 66
     1
 10
0.0
 20
0.0
 30
0.0
  0
VERTEX
  5
586
330
233
100
AcDbEntity
  8
MO_001_VIEW_PV
  6
C_SOLID_M
100
AcDbVertex
100
AcDb2dVertex
 10
0.000011
 20
16.74913399999999
 30
0.0
  0
VERTEX
  5
587
330
233
100
AcDbEntity
  8
MO_001_VIEW_PV
  6
C_SOLID_M
100
AcDbVertex
100
AcDb2dVertex
 10
0.20241
 20
16.666392
 30
0.0
  0
VERTEX
  5
588
330
233
100
AcDbEntity
  8
MO_001_VIEW_PV
  6
C_SOLID_M
100
AcDbVertex
100
AcDb2dVertex
 10
0.397767
 20
16.59969899999999
 30
0.0
  0
VERTEX
  5
589
330
233
100
AcDbEntity
  8
MO_001_VIEW_PV
  6
C_SOLID_M
100
AcDbVertex
100
AcDb2dVertex
 10
0.581561
 20
16.54609999999999
 30
0.0
  0
VERTEX
  5
58A
330
233
100
AcDbEntity
  8
MO_001_VIEW_PV
  6
C_SOLID_M
100
AcDbVertex
100
AcDb2dVertex
 10
0.9289719999999999
 20
16.46386899999999
 30
0.0
  0
VERTEX
  5
58B
330
233
100
AcDbEntity
  8
MO_001_VIEW_PV
  6
C_SOLID_M
100
AcDbVertex
100
AcDb2dVertex
 10
1.20815
 20
16.412537
 30
0.0
  0
VERTEX
  5
58C
330
233
100
AcDbEntity
  8
MO_001_VIEW_PV
  6
C_SOLID_M
100
AcDbVertex
100
AcDb2dVertex
 10
1.650662999999999
 20
16.35328299999999
 30
0.0
  0
VERTEX
  5
58D
330
233
100
AcDbEntity
  8
MO_001_VIEW_PV
  6
C_SOLID_M
100
AcDbVertex
100
AcDb2dVertex
 10
2.113471
 20
16.316382
 30
0.0
  0
VERTEX
  5
58E
330
233
100
AcDbEntity
  8
MO_001_VIEW_PV
  6
C_SOLID_M
100
AcDbVertex
100
AcDb2dVertex
 10
2.427017999999999
 20
16.304629
 30
0.0
  0
VERTEX
  5
58F
330
233
100
AcDbEntity
  8
MO_001_VIEW_PV
  6
C_SOLID_M
100
AcDbVertex
100
AcDb2dVertex
 10
2.978441999999999
 20
16.308838
 30
0.0
  0
VERTEX
  5
590
330
233
100
AcDbEntity
  8
MO_001_VIEW_PV
  6
C_SOLID_M
100
AcDbVertex
100
AcDb2dVertex
 10
3.386444999999999
 20
16.332611
 30
0.0
  0
VERTEX
  5
591
330
233
100
AcDbEntity
  8
MO_001_VIEW_PV
  6
C_SOLID_M
100
AcDbVertex
100
AcDb2dVertex
 10
3.684978
 20
16.36181
 30
0.0
  0
VERTEX
  5
592
330
233
100
AcDbEntity
  8
MO_001_VIEW_PV
  6
C_SOLID_M
100
AcDbVertex
100
AcDb2dVertex
 10
4.114448999999999
 20
16.42325699999999
 30
0.0
  0
VERTEX
  5
593
330
233
100
AcDbEntity
  8
MO_001_VIEW_PV
  6
C_SOLID_M
100
AcDbVertex
100
AcDb2dVertex
 10
4.514366
 20
16.504763
 30
0.0
  0
SEQEND
  5
594
330
233
100
AcDbEntity
  8
MO_001_VIEW_PV
  6
C_SOLID_M
  0
POLYLINE
  5
243
330
1E
100
AcDbEntity
  8
MO_001_VIEW_PV
  6
C_SOLID_M
100
AcDb2dPolyline
 66
     1
 10
0.0
 20
0.0
 30
0.0
  0
VERTEX
  5
595
330
243
100
AcDbEntity
  8
MO_001_VIEW_PV
  6
C_SOLID_M
100
AcDbVertex
100
AcDb2dVertex
 10
4.514383999999999
 20
14.941794
 30
0.0
  0
VERTEX
  5
596
330
243
100
AcDbEntity
  8
MO_001_VIEW_PV
  6
C_SOLID_M
100
AcDbVertex
100
AcDb2dVertex
 10
4.247167
 20
14.999117
 30
0.0
  0
VERTEX
  5
597
330
243
100
AcDbEntity
  8
MO_001_VIEW_PV
  6
C_SOLID_M
100
AcDbVertex
100
AcDb2dVertex
 10
4.00114
 20
15.041918
 30
0.0
  0
VERTEX
  5
598
330
243
100
AcDbEntity
  8
MO_001_VIEW_PV
  6
C_SOLID_M
100
AcDbVertex
100
AcDb2dVertex
 10
3.548573
 20
15.09938599999999
 30
0.0
  0
VERTEX
  5
599
330
243
100
AcDbEntity
  8
MO_001_VIEW_PV
  6
C_SOLID_M
100
AcDbVertex
100
AcDb2dVertex
 10
3.195691
 20
15.127313
 30
0.0
  0
VERTEX
  5
59A
330
243
100
AcDbEntity
  8
MO_001_VIEW_PV
  6
C_SOLID_M
100
AcDbVertex
100
AcDb2dVertex
 10
2.654927
 20
15.14402399999999
 30
0.0
  0
VERTEX
  5
59B
330
243
100
AcDbEntity
  8
MO_001_VIEW_PV
  6
C_SOLID_M
100
AcDbVertex
100
AcDb2dVertex
 10
2.113471
 20
15.130182
 30
0.0
  0
VERTEX
  5
59C
330
243
100
AcDbEntity
  8
MO_001_VIEW_PV
  6
C_SOLID_M
100
AcDbVertex
100
AcDb2dVertex
 10
1.804634
 20
15.108243
 30
0.0
  0
VERTEX
  5
59D
330
243
100
AcDbEntity
  8
MO_001_VIEW_PV
  6
C_SOLID_M
100
AcDbVertex
100
AcDb2dVertex
 10
1.540487
 20
15.080847
 30
0.0
  0
VERTEX
  5
59E
330
243
100
AcDbEntity
  8
MO_001_VIEW_PV
  6
C_SOLID_M
100
AcDbVertex
100
AcDb2dVertex
 10
1.097642999999999
 20
15.015113
 30
0.0
  0
VERTEX
  5
59F
330
243
100
AcDbEntity
  8
MO_001_VIEW_PV
  6
C_SOLID_M
100
AcDbVertex
100
AcDb2dVertex
 10
0.7865280000000001
 20
14.95167699999999
 30
0.0
  0
VERTEX
  5
5A0
330
243
100
AcDbEntity
  8
MO_001_VIEW_PV
  6
C_SOLID_M
100
AcDbVertex
100
AcDb2dVertex
 10
0.567565
 20
14.896651
 30
0.0
  0
VERTEX
  5
5A1
330
243
100
AcDbEntity
  8
MO_001_VIEW_PV
  6
C_SOLID_M
100
AcDbVertex
100
AcDb2dVertex
 10
0.265767
 20
14.803037
 30
0.0
  0
VERTEX
  5
5A2
330
243
100
AcDbEntity
  8
MO_001_VIEW_PV
  6
C_SOLID_M
100
AcDbVertex
100
AcDb2dVertex
 10
-0.000002
 20
14.69741799999999
 30
0.0
  0
SEQEND
  5
5A3
330
243
100
AcDbEntity
  8
MO_001_VIEW_PV
  6
C_SOLID_M
  0
POLYLINE
  5
253
330
1E
100
AcDbEntity
  8
MO_001_VIEW_PV
  6
C_SOLID_M
100
AcDb2dPolyline
 66
     1
 10
0.0
 20
0.0
 30
0.0
  0
VERTEX
  5
5A4
330
253
100
AcDbEntity
  8
MO_001_VIEW_PV
  6
C_SOLID_M
100
AcDbVertex
100
AcDb2dVertex
 10
5.295194
 20
16.34046099999999
 30
0.0
  0
VERTEX
  5
5A5
330
253
100
AcDbEntity
  8
MO_001_VIEW_PV
  6
C_SOLID_M
100
AcDbVertex
100
AcDb2dVertex
 10
5.231409999999999
 20
16.18748599999999
 30
0.0
  0
VERTEX
  5
5A6
330
253
100
AcDbEntity
  8
MO_001_VIEW_PV
  6
C_SOLID_M
100
AcDbVertex
100
AcDb2dVertex
 10
5.195439
 20
16.072245
 30
0.0
  0
VERTEX
  5
5A7
330
253
100
AcDbEntity
  8
MO_001_VIEW_PV
  6
C_SOLID_M
100
AcDbVertex
100
AcDb2dVertex
 10
5.160631999999999
 20
15.89881799999999
 30
0.0
  0
VERTEX
  5
5A8
330
253
100
AcDbEntity
  8
MO_001_VIEW_PV
  6
C_SOLID_M
100
AcDbVertex
100
AcDb2dVertex
 10
5.148865999999999
 20
15.72503
 30
0.0
  0
VERTEX
  5
5A9
330
253
100
AcDbEntity
  8
MO_001_VIEW_PV
  6
C_SOLID_M
100
AcDbVertex
100
AcDb2dVertex
 10
5.157769999999999
 20
15.57053699999999
 30
0.0
  0
VERTEX
  5
5AA
330
253
100
AcDbEntity
  8
MO_001_VIEW_PV
  6
C_SOLID_M
100
AcDbVertex
100
AcDb2dVertex
 10
5.176401
 20
15.454816
 30
0.0
  0
VERTEX
  5
5AB
330
253
100
AcDbEntity
  8
MO_001_VIEW_PV
  6
C_SOLID_M
100
AcDbVertex
100
AcDb2dVertex
 10
5.223513999999999
 20
15.28172999999999
 30
0.0
  0
VERTEX
  5
5AC
330
253
100
AcDbEntity
  8
MO_001_VIEW_PV
  6
C_SOLID_M
100
AcDbVertex
100
AcDb2dVertex
 10
5.293537999999999
 20
15.10955199999999
 30
0.0
  0
SEQEND
  5
5AD
330
253
100
AcDbEntity
  8
MO_001_VIEW_PV
  6
C_SOLID_M
  0
POLYLINE
  5
25E
330
1E
100
AcDbEntity
  8
MO_001_VIEW_PV
  6
C_SOLID_M
100
AcDb2dPolyline
 66
     1
 10
0.0
 20
0.0
 30
0.0
  0
VERTEX
  5
5AE
330
25E
100
AcDbEntity
  8
MO_001_VIEW_PV
  6
C_SOLID_M
100
AcDbVertex
100
AcDb2dVertex
 10
4.514408
 20
14.941804
 30
0.0
  0
VERTEX
  5
5AF
330
25E
100
AcDbEntity
  8
MO_001_VIEW_PV
  6
C_SOLID_M
100
AcDbVertex
100
AcDb2dVertex
 10
4.644858
 20
14.919604
 30
0.0
  0
VERTEX
  5
5B0
330
25E
100
AcDbEntity
  8
MO_001_VIEW_PV
  6
C_SOLID_M
100
AcDbVertex
100
AcDb2dVertex
 10
4.861442
 20
14.912459
 30
0.0
  0
VERTEX
  5
5B1
330
25E
100
AcDbEntity
  8
MO_001_VIEW_PV
  6
C_SOLID_M
100
AcDbVertex
100
AcDb2dVertex
 10
4.96794
 20
14.921097
 30
0.0
  0
VERTEX
  5
5B2
330
25E
100
AcDbEntity
  8
MO_001_VIEW_PV
  6
C_SOLID_M
100
AcDbVertex
100
AcDb2dVertex
 10
5.06639
 20
14.937454
 30
0.0
  0
VERTEX
  5
5B3
330
25E
100
AcDbEntity
  8
MO_001_VIEW_PV
  6
C_SOLID_M
100
AcDbVertex
100
AcDb2dVertex
 10
5.177069
 20
14.969866
 30
0.0
  0
VERTEX
  5
5B4
330
25E
100
AcDbEntity
  8
MO_001_VIEW_PV
  6
C_SOLID_M
100
AcDbVertex
100
AcDb2dVertex
 10
5.239482999999999
 20
15.000617
 30
0.0
  0
VERTEX
  5
5B5
330
25E
100
AcDbEntity
  8
MO_001_VIEW_PV
  6
C_SOLID_M
100
AcDbVertex
100
AcDb2dVertex
 10
5.272598999999999
 20
15.026333
 30
0.0
  0
VERTEX
  5
5B6
330
25E
100
AcDbEntity
  8
MO_001_VIEW_PV
  6
C_SOLID_M
100
AcDbVertex
100
AcDb2dVertex
 10
5.298162
 20
15.06750499999999
 30
0.0
  0
VERTEX
  5
5B7
330
25E
100
AcDbEntity
  8
MO_001_VIEW_PV
  6
C_SOLID_M
100
AcDbVertex
100
AcDb2dVertex
 10
5.293543999999999
 20
15.109566
 30
0.0
  0
SEQEND
  5
5B8
330
25E
100
AcDbEntity
  8
MO_001_VIEW_PV
  6
C_SOLID_M
  0
POLYLINE
  5
26A
330
1E
100
AcDbEntity
  8
MO_001_VIEW_PV
  6
C_SOLID_M
100
AcDb2dPolyline
 66
     1
 10
0.0
 20
0.0
 30
0.0
  0
VERTEX
  5
5B9
330
26A
100
AcDbEntity
  8
MO_001_VIEW_PV
  6
C_SOLID_M
100
AcDbVertex
100
AcDb2dVertex
 10
5.293544999999999
 20
16.33698199999999
 30
0.0
  0
VERTEX
  5
5BA
330
26A
100
AcDbEntity
  8
MO_001_VIEW_PV
  6
C_SOLID_M
100
AcDbVertex
100
AcDb2dVertex
 10
5.299948999999999
 20
16.361872
 30
0.0
  0
VERTEX
  5
5BB
330
26A
100
AcDbEntity
  8
MO_001_VIEW_PV
  6
C_SOLID_M
100
AcDbVertex
100
AcDb2dVertex
 10
5.285523999999999
 20
16.405238
 30
0.0
  0
VERTEX
  5
5BC
330
26A
100
AcDbEntity
  8
MO_001_VIEW_PV
  6
C_SOLID_M
100
AcDbVertex
100
AcDb2dVertex
 10
5.253823
 20
16.436165
 30
0.0
  0
VERTEX
  5
5BD
330
26A
100
AcDbEntity
  8
MO_001_VIEW_PV
  6
C_SOLID_M
100
AcDbVertex
100
AcDb2dVertex
 10
5.175557
 20
16.477284
 30
0.0
  0
VERTEX
  5
5BE
330
26A
100
AcDbEntity
  8
MO_001_VIEW_PV
  6
C_SOLID_M
100
AcDbVertex
100
AcDb2dVertex
 10
5.066378
 20
16.50910999999999
 30
0.0
  0
VERTEX
  5
5BF
330
26A
100
AcDbEntity
  8
MO_001_VIEW_PV
  6
C_SOLID_M
100
AcDbVertex
100
AcDb2dVertex
 10
4.933072
 20
16.52923299999999
 30
0.0
  0
VERTEX
  5
5C0
330
26A
100
AcDbEntity
  8
MO_001_VIEW_PV
  6
C_SOLID_M
100
AcDbVertex
100
AcDb2dVertex
 10
4.715753
 20
16.53295499999999
 30
0.0
  0
VERTEX
  5
5C1
330
26A
100
AcDbEntity
  8
MO_001_VIEW_PV
  6
C_SOLID_M
100
AcDbVertex
100
AcDb2dVertex
 10
4.610532
 20
16.52264599999999
 30
0.0
  0
VERTEX
  5
5C2
330
26A
100
AcDbEntity
  8
MO_001_VIEW_PV
  6
C_SOLID_M
100
AcDbVertex
100
AcDb2dVertex
 10
4.51439
 20
16.50475199999999
 30
0.0
  0
SEQEND
  5
5C3
330
26A
100
AcDbEntity
  8
MO_001_VIEW_PV
  6
C_SOLID_M
  0
LINE
  5
276
330
1E
100
AcDbEntity
  8
MO_001_VIEW_PV
  6
C_SOLID_M
100
AcDbLine
 10
5.300003
 20
-16.899994
 30
0.0
 11
5.300003
 21
-15.721695
 31
0.0
  0
ARC
  5
277
330
1E
100
AcDbEntity
  8
MO_001_VIEW_PV
  6
C_SOLID_M
100
AcDbCircle
 10
0.7999990000000001
 20
-17.699997
 30
0.0
 40
0.8
100
AcDbArc
 50
90.000002
 51
180.000005
  0
ARC
  5
278
330
1E
100
AcDbEntity
  8
MO_001_VIEW_PV
  6
C_SOLID_M
100
AcDbCircle
 10
0.7999990000000001
 20
-17.532364
 30
0.0
 40
0.8
100
AcDbArc
 50
90.000002
 51
180.000005
  0
ARC
  5
279
330
1E
100
AcDbEntity
  8
MO_001_VIEW_PV
  6
C_SOLID_M
100
AcDbCircle
 10
0.7999990000000001
 20
-17.532364
 30
0.0
 40
1.810658
100
AcDbArc
 50
90.000002
 51
116.220559
  0
POLYLINE
  5
27A
330
1E
100
AcDbEntity
  8
MO_001_VIEW_PV
  6
C_SOLID_M
100
AcDb2dPolyline
 66
     1
 10
0.0
 20
0.0
 30
0.0
  0
VERTEX
  5
5C4
330
27A
100
AcDbEntity
  8
MO_001_VIEW_PV
  6
C_SOLID_M
100
AcDbVertex
100
AcDb2dVertex
 10
5.300003
 20
-10.838623
 30
0.0
  0
VERTEX
  5
5C5
330
27A
100
AcDbEntity
  8
MO_001_VIEW_PV
  6
C_SOLID_M
100
AcDbVertex
100
AcDb2dVertex
 10
5.281573999999999
 20
-10.752169
 30
0.0
  0
VERTEX
  5
5C6
330
27A
100
AcDbEntity
  8
MO_001_VIEW_PV
  6
C_SOLID_M
100
AcDbVertex
100
AcDb2dVertex
 10
5.244280999999999
 20
-10.691176
 30
0.0
  0
VERTEX
  5
5C7
330
27A
100
AcDbEntity
  8
MO_001_VIEW_PV
  6
C_SOLID_M
100
AcDbVertex
100
AcDb2dVertex
 10
5.204073999999999
 20
-10.649325
 30
0.0
  0
VERTEX
  5
5C8
330
27A
100
AcDbEntity
  8
MO_001_VIEW_PV
  6
C_SOLID_M
100
AcDbVertex
100
AcDb2dVertex
 10
5.126373
 20
-10.595139
 30
0.0
  0
VERTEX
  5
5C9
330
27A
100
AcDbEntity
  8
MO_001_VIEW_PV
  6
C_SOLID_M
100
AcDbVertex
100
AcDb2dVertex
 10
5.031513999999999
 20
-10.553755
 30
0.0
  0
VERTEX
  5
5CA
330
27A
100
AcDbEntity
  8
MO_001_VIEW_PV
  6
C_SOLID_M
100
AcDbVertex
100
AcDb2dVertex
 10
4.903769
 20
-10.524225
 30
0.0
  0
VERTEX
  5
5CB
330
27A
100
AcDbEntity
  8
MO_001_VIEW_PV
  6
C_SOLID_M
100
AcDbVertex
100
AcDb2dVertex
 10
4.802398
 20
-10.517231
 30
0.0
  0
VERTEX
  5
5CC
330
27A
100
AcDbEntity
  8
MO_001_VIEW_PV
  6
C_SOLID_M
100
AcDbVertex
100
AcDb2dVertex
 10
4.651478
 20
-10.531734
 30
0.0
  0
VERTEX
  5
5CD
330
27A
100
AcDbEntity
  8
MO_001_VIEW_PV
  6
C_SOLID_M
100
AcDbVertex
100
AcDb2dVertex
 10
4.514391999999999
 20
-10.57482299999999
 30
0.0
  0
SEQEND
  5
5CE
330
27A
100
AcDbEntity
  8
MO_001_VIEW_PV
  6
C_SOLID_M
  0
POLYLINE
  5
286
330
1E
100
AcDbEntity
  8
MO_001_VIEW_PV
  6
C_SOLID_M
100
AcDb2dPolyline
 66
     1
 10
0.0
 20
0.0
 30
0.0
  0
VERTEX
  5
5CF
330
286
100
AcDbEntity
  8
MO_001_VIEW_PV
  6
C_SOLID_M
100
AcDbVertex
100
AcDb2dVertex
 10
-0.000001
 20
-10.11554899999999
 30
0.0
  0
VERTEX
  5
5D0
330
286
100
AcDbEntity
  8
MO_001_VIEW_PV
  6
C_SOLID_M
100
AcDbVertex
100
AcDb2dVertex
 10
0.2024
 20
-10.27105799999999
 30
0.0
  0
VERTEX
  5
5D1
330
286
100
AcDbEntity
  8
MO_001_VIEW_PV
  6
C_SOLID_M
100
AcDbVertex
100
AcDb2dVertex
 10
0.397757
 20
-10.396402
 30
0.0
  0
VERTEX
  5
5D2
330
286
100
AcDbEntity
  8
MO_001_VIEW_PV
  6
C_SOLID_M
100
AcDbVertex
100
AcDb2dVertex
 10
0.5815520000000002
 20
-10.49713799999999
 30
0.0
  0
VERTEX
  5
5D3
330
286
100
AcDbEntity
  8
MO_001_VIEW_PV
  6
C_SOLID_M
100
AcDbVertex
100
AcDb2dVertex
 10
0.751407
 20
-10.577989
 30
0.0
  0
VERTEX
  5
5D4
330
286
100
AcDbEntity
  8
MO_001_VIEW_PV
  6
C_SOLID_M
100
AcDbVertex
100
AcDb2dVertex
 10
1.066752
 20
-10.702078
 30
0.0
  0
VERTEX
  5
5D5
330
286
100
AcDbEntity
  8
MO_001_VIEW_PV
  6
C_SOLID_M
100
AcDbVertex
100
AcDb2dVertex
 10
1.316359999999999
 20
-10.779828
 30
0.0
  0
VERTEX
  5
5D6
330
286
100
AcDbEntity
  8
MO_001_VIEW_PV
  6
C_SOLID_M
100
AcDbVertex
100
AcDb2dVertex
 10
1.707595999999999
 20
-10.870528
 30
0.0
  0
VERTEX
  5
5D7
330
286
100
AcDbEntity
  8
MO_001_VIEW_PV
  6
C_SOLID_M
100
AcDbVertex
100
AcDb2dVertex
 10
2.113472
 20
-10.928877
 30
0.0
  0
VERTEX
  5
5D8
330
286
100
AcDbEntity
  8
MO_001_VIEW_PV
  6
C_SOLID_M
100
AcDbVertex
100
AcDb2dVertex
 10
2.427022
 20
-10.950965
 30
0.0
  0
VERTEX
  5
5D9
330
286
100
AcDbEntity
  8
MO_001_VIEW_PV
  6
C_SOLID_M
100
AcDbVertex
100
AcDb2dVertex
 10
2.702993999999999
 20
-10.954428
 30
0.0
  0
VERTEX
  5
5DA
330
286
100
AcDbEntity
  8
MO_001_VIEW_PV
  6
C_SOLID_M
100
AcDbVertex
100
AcDb2dVertex
 10
2.944112
 20
-10.945285
 30
0.0
  0
VERTEX
  5
5DB
330
286
100
AcDbEntity
  8
MO_001_VIEW_PV
  6
C_SOLID_M
100
AcDbVertex
100
AcDb2dVertex
 10
3.361238999999999
 20
-10.90212899999999
 30
0.0
  0
VERTEX
  5
5DC
330
286
100
AcDbEntity
  8
MO_001_VIEW_PV
  6
C_SOLID_M
100
AcDbVertex
100
AcDb2dVertex
 10
3.666579
 20
-10.847452
 30
0.0
  0
VERTEX
  5
5DD
330
286
100
AcDbEntity
  8
MO_001_VIEW_PV
  6
C_SOLID_M
100
AcDbVertex
100
AcDb2dVertex
 10
3.889455999999999
 20
-10.794219
 30
0.0
  0
VERTEX
  5
5DE
330
286
100
AcDbEntity
  8
MO_001_VIEW_PV
  6
C_SOLID_M
100
AcDbVertex
100
AcDb2dVertex
 10
4.211151999999999
 20
-10.695388
 30
0.0
  0
VERTEX
  5
5DF
330
286
100
AcDbEntity
  8
MO_001_VIEW_PV
  6
C_SOLID_M
100
AcDbVertex
100
AcDb2dVertex
 10
4.514383
 20
-10.574825
 30
0.0
  0
SEQEND
  5
5E0
330
286
100
AcDbEntity
  8
MO_001_VIEW_PV
  6
C_SOLID_M
  0
LINE
  5
299
330
1E
100
AcDbEntity
  8
MO_001_VIEW_PV
  6
C_SOLID_M
100
AcDbLine
 10
5.300003
 20
-10.838623
 30
0.0
 11
5.300003
 21
-11.61283899999999
 31
0.0
  0
POLYLINE
  5
29A
330
1E
100
AcDbEntity
  8
MO_001_VIEW_PV
  6
C_SOLID_M
100
AcDb2dPolyline
 66
     1
 10
0.0
 20
0.0
 30
0.0
  0
VERTEX
  5
5E1
330
29A
100
AcDbEntity
  8
MO_001_VIEW_PV
  6
C_SOLID_M
100
AcDbVertex
100
AcDb2dVertex
 10
0.0
 20
0.223769
 30
0.0
  0
VERTEX
  5
5E2
330
29A
100
AcDbEntity
  8
MO_001_VIEW_PV
  6
C_SOLID_M
100
AcDbVertex
100
AcDb2dVertex
 10
0.2024
 20
-0.014484
 30
0.0
  0
VERTEX
  5
5E3
330
29A
100
AcDbEntity
  8
MO_001_VIEW_PV
  6
C_SOLID_M
100
AcDbVertex
100
AcDb2dVertex
 10
0.397758
 20
-0.206521
 30
0.0
  0
VERTEX
  5
5E4
330
29A
100
AcDbEntity
  8
MO_001_VIEW_PV
  6
C_SOLID_M
100
AcDbVertex
100
AcDb2dVertex
 10
0.581553
 20
-0.360856
 30
0.0
  0
VERTEX
  5
5E5
330
29A
100
AcDbEntity
  8
MO_001_VIEW_PV
  6
C_SOLID_M
100
AcDbVertex
100
AcDb2dVertex
 10
0.751407
 20
-0.4847260000000001
 30
0.0
  0
VERTEX
  5
5E6
330
29A
100
AcDbEntity
  8
MO_001_VIEW_PV
  6
C_SOLID_M
100
AcDbVertex
100
AcDb2dVertex
 10
0.9063739999999999
 20
-0.5841370000000001
 30
0.0
  0
VERTEX
  5
5E7
330
29A
100
AcDbEntity
  8
MO_001_VIEW_PV
  6
C_SOLID_M
100
AcDbVertex
100
AcDb2dVertex
 10
1.190285
 20
-0.736985
 30
0.0
  0
VERTEX
  5
5E8
330
29A
100
AcDbEntity
  8
MO_001_VIEW_PV
  6
C_SOLID_M
100
AcDbVertex
100
AcDb2dVertex
 10
1.412452
 20
-0.8332399999999999
 30
0.0
  0
VERTEX
  5
5E9
330
29A
100
AcDbEntity
  8
MO_001_VIEW_PV
  6
C_SOLID_M
100
AcDbVertex
100
AcDb2dVertex
 10
1.757659999999999
 20
-0.9468429999999999
 30
0.0
  0
VERTEX
  5
5EA
330
29A
100
AcDbEntity
  8
MO_001_VIEW_PV
  6
C_SOLID_M
100
AcDbVertex
100
AcDb2dVertex
 10
2.113472
 20
-1.022314999999999
 30
0.0
  0
VERTEX
  5
5EB
330
29A
100
AcDbEntity
  8
MO_001_VIEW_PV
  6
C_SOLID_M
100
AcDbVertex
100
AcDb2dVertex
 10
2.427022
 20
-1.056157
 30
0.0
  0
VERTEX
  5
5EC
330
29A
100
AcDbEntity
  8
MO_001_VIEW_PV
  6
C_SOLID_M
100
AcDbVertex
100
AcDb2dVertex
 10
2.702993999999999
 20
-1.061462
 30
0.0
  0
VERTEX
  5
5ED
330
29A
100
AcDbEntity
  8
MO_001_VIEW_PV
  6
C_SOLID_M
100
AcDbVertex
100
AcDb2dVertex
 10
2.944112
 20
-1.047454
 30
0.0
  0
VERTEX
  5
5EE
330
29A
100
AcDbEntity
  8
MO_001_VIEW_PV
  6
C_SOLID_M
100
AcDbVertex
100
AcDb2dVertex
 10
3.153750999999999
 20
-1.020974999999999
 30
0.0
  0
VERTEX
  5
5EF
330
29A
100
AcDbEntity
  8
MO_001_VIEW_PV
  6
C_SOLID_M
100
AcDbVertex
100
AcDb2dVertex
 10
3.335449999999999
 20
-0.9870049999999999
 30
0.0
  0
VERTEX
  5
5F0
330
29A
100
AcDbEntity
  8
MO_001_VIEW_PV
  6
C_SOLID_M
100
AcDbVertex
100
AcDb2dVertex
 10
3.647747
 20
-0.903645
 30
0.0
  0
VERTEX
  5
5F1
330
29A
100
AcDbEntity
  8
MO_001_VIEW_PV
  6
C_SOLID_M
100
AcDbVertex
100
AcDb2dVertex
 10
3.875705
 20
-0.821568
 30
0.0
  0
VERTEX
  5
5F2
330
29A
100
AcDbEntity
  8
MO_001_VIEW_PV
  6
C_SOLID_M
100
AcDbVertex
100
AcDb2dVertex
 10
4.204625
 20
-0.668093
 30
0.0
  0
VERTEX
  5
5F3
330
29A
100
AcDbEntity
  8
MO_001_VIEW_PV
  6
C_SOLID_M
100
AcDbVertex
100
AcDb2dVertex
 10
4.514383
 20
-0.4798790000000001
 30
0.0
  0
SEQEND
  5
5F4
330
29A
100
AcDbEntity
  8
MO_001_VIEW_PV
  6
C_SOLID_M
  0
POLYLINE
  5
2AF
330
1E
100
AcDbEntity
  8
MO_001_VIEW_PV
  6
C_SOLID_M
100
AcDb2dPolyline
 66
     1
 10
0.0
 20
0.0
 30
0.0
  0
VERTEX
  5
5F5
330
2AF
100
AcDbEntity
  8
MO_001_VIEW_PV
  6
C_SOLID_M
100
AcDbVertex
100
AcDb2dVertex
 10
5.300003
 20
-0.8840479999999999
 30
0.0
  0
VERTEX
  5
5F6
330
2AF
100
AcDbEntity
  8
MO_001_VIEW_PV
  6
C_SOLID_M
100
AcDbVertex
100
AcDb2dVertex
 10
5.281573999999999
 20
-0.7515950000000001
 30
0.0
  0
VERTEX
  5
5F7
330
2AF
100
AcDbEntity
  8
MO_001_VIEW_PV
  6
C_SOLID_M
100
AcDbVertex
100
AcDb2dVertex
 10
5.244280999999999
 20
-0.6581500000000001
 30
0.0
  0
VERTEX
  5
5F8
330
2AF
100
AcDbEntity
  8
MO_001_VIEW_PV
  6
C_SOLID_M
100
AcDbVertex
100
AcDb2dVertex
 10
5.204073999999999
 20
-0.5940300000000001
 30
0.0
  0
VERTEX
  5
5F9
330
2AF
100
AcDbEntity
  8
MO_001_VIEW_PV
  6
C_SOLID_M
100
AcDbVertex
100
AcDb2dVertex
 10
5.126373
 20
-0.5110140000000002
 30
0.0
  0
VERTEX
  5
5FA
330
2AF
100
AcDbEntity
  8
MO_001_VIEW_PV
  6
C_SOLID_M
100
AcDbVertex
100
AcDb2dVertex
 10
5.031513999999999
 20
-0.4476100000000001
 30
0.0
  0
VERTEX
  5
5FB
330
2AF
100
AcDbEntity
  8
MO_001_VIEW_PV
  6
C_SOLID_M
100
AcDbVertex
100
AcDb2dVertex
 10
4.903769999999999
 20
-0.402368
 30
0.0
  0
VERTEX
  5
5FC
330
2AF
100
AcDbEntity
  8
MO_001_VIEW_PV
  6
C_SOLID_M
100
AcDbVertex
100
AcDb2dVertex
 10
4.802398999999999
 20
-0.391653
 30
0.0
  0
VERTEX
  5
5FD
330
2AF
100
AcDbEntity
  8
MO_001_VIEW_PV
  6
C_SOLID_M
100
AcDbVertex
100
AcDb2dVertex
 10
4.726073
 20
-0.39706
 30
0.0
  0
VERTEX
  5
5FE
330
2AF
100
AcDbEntity
  8
MO_001_VIEW_PV
  6
C_SOLID_M
100
AcDbVertex
100
AcDb2dVertex
 10
4.615378999999999
 20
-0.426445
 30
0.0
  0
VERTEX
  5
5FF
330
2AF
100
AcDbEntity
  8
MO_001_VIEW_PV
  6
C_SOLID_M
100
AcDbVertex
100
AcDb2dVertex
 10
4.514391999999999
 20
-0.4798880000000001
 30
0.0
  0
SEQEND
  5
600
330
2AF
100
AcDbEntity
  8
MO_001_VIEW_PV
  6
C_SOLID_M
  0
LINE
  5
2BC
330
1E
100
AcDbEntity
  8
MO_001_VIEW_PV
  6
C_SOLID_M
100
AcDbLine
 10
5.300003
 20
-0.8840479999999999
 30
0.0
 11
5.300003
 21
-1.059555
 31
0.0
  0
POLYLINE
  5
2BD
330
1E
100
AcDbEntity
  8
MO_001_VIEW_PV
  6
C_SOLID_M
100
AcDb2dPolyline
 66
     1
 10
0.0
 20
0.0
 30
0.0
  0
VERTEX
  5
601
330
2BD
100
AcDbEntity
  8
MO_001_VIEW_PV
  6
C_SOLID_M
100
AcDbVertex
100
AcDb2dVertex
 10
4.514383
 20
5.882094
 30
0.0
  0
VERTEX
  5
602
330
2BD
100
AcDbEntity
  8
MO_001_VIEW_PV
  6
C_SOLID_M
100
AcDbVertex
100
AcDb2dVertex
 10
4.247167
 20
6.027239999999999
 30
0.0
  0
VERTEX
  5
603
330
2BD
100
AcDbEntity
  8
MO_001_VIEW_PV
  6
C_SOLID_M
100
AcDbVertex
100
AcDb2dVertex
 10
4.00114
 20
6.135615
 30
0.0
  0
VERTEX
  5
604
330
2BD
100
AcDbEntity
  8
MO_001_VIEW_PV
  6
C_SOLID_M
100
AcDbVertex
100
AcDb2dVertex
 10
3.777932999999999
 20
6.215548
 30
0.0
  0
VERTEX
  5
605
330
2BD
100
AcDbEntity
  8
MO_001_VIEW_PV
  6
C_SOLID_M
100
AcDbVertex
100
AcDb2dVertex
 10
3.577537999999999
 20
6.273729
 30
0.0
  0
VERTEX
  5
606
330
2BD
100
AcDbEntity
  8
MO_001_VIEW_PV
  6
C_SOLID_M
100
AcDbVertex
100
AcDb2dVertex
 10
3.217991
 20
6.348406999999999
 30
0.0
  0
VERTEX
  5
607
330
2BD
100
AcDbEntity
  8
MO_001_VIEW_PV
  6
C_SOLID_M
100
AcDbVertex
100
AcDb2dVertex
 10
2.943229999999999
 20
6.381283999999999
 30
0.0
  0
VERTEX
  5
608
330
2BD
100
AcDbEntity
  8
MO_001_VIEW_PV
  6
C_SOLID_M
100
AcDbVertex
100
AcDb2dVertex
 10
2.735597999999999
 20
6.392759999999999
 30
0.0
  0
VERTEX
  5
609
330
2BD
100
AcDbEntity
  8
MO_001_VIEW_PV
  6
C_SOLID_M
100
AcDbVertex
100
AcDb2dVertex
 10
2.423615999999999
 20
6.388682
 30
0.0
  0
VERTEX
  5
60A
330
2BD
100
AcDbEntity
  8
MO_001_VIEW_PV
  6
C_SOLID_M
100
AcDbVertex
100
AcDb2dVertex
 10
2.113472999999999
 20
6.359105
 30
0.0
  0
VERTEX
  5
60B
330
2BD
100
AcDbEntity
  8
MO_001_VIEW_PV
  6
C_SOLID_M
100
AcDbVertex
100
AcDb2dVertex
 10
1.804636
 20
6.303555999999999
 30
0.0
  0
VERTEX
  5
60C
330
2BD
100
AcDbEntity
  8
MO_001_VIEW_PV
  6
C_SOLID_M
100
AcDbVertex
100
AcDb2dVertex
 10
1.540488999999999
 20
6.234187999999999
 30
0.0
  0
VERTEX
  5
60D
330
2BD
100
AcDbEntity
  8
MO_001_VIEW_PV
  6
C_SOLID_M
100
AcDbVertex
100
AcDb2dVertex
 10
1.315547999999999
 20
6.157987
 30
0.0
  0
VERTEX
  5
60E
330
2BD
100
AcDbEntity
  8
MO_001_VIEW_PV
  6
C_SOLID_M
100
AcDbVertex
100
AcDb2dVertex
 10
1.124457999999999
 20
6.079775999999999
 30
0.0
  0
VERTEX
  5
60F
330
2BD
100
AcDbEntity
  8
MO_001_VIEW_PV
  6
C_SOLID_M
100
AcDbVertex
100
AcDb2dVertex
 10
0.805362
 20
5.918016999999999
 30
0.0
  0
VERTEX
  5
610
330
2BD
100
AcDbEntity
  8
MO_001_VIEW_PV
  6
C_SOLID_M
100
AcDbVertex
100
AcDb2dVertex
 10
0.580858
 20
5.776951
 30
0.0
  0
VERTEX
  5
611
330
2BD
100
AcDbEntity
  8
MO_001_VIEW_PV
  6
C_SOLID_M
100
AcDbVertex
100
AcDb2dVertex
 10
0.4218939999999999
 20
5.660705
 30
0.0
  0
VERTEX
  5
612
330
2BD
100
AcDbEntity
  8
MO_001_VIEW_PV
  6
C_SOLID_M
100
AcDbVertex
100
AcDb2dVertex
 10
0.200089
 20
5.470657
 30
0.0
  0
VERTEX
  5
613
330
2BD
100
AcDbEntity
  8
MO_001_VIEW_PV
  6
C_SOLID_M
100
AcDbVertex
100
AcDb2dVertex
 10
0.0
 20
5.263316999999999
 30
0.0
  0
SEQEND
  5
614
330
2BD
100
AcDbEntity
  8
MO_001_VIEW_PV
  6
C_SOLID_M
  0
POLYLINE
  5
2D2
330
1E
100
AcDbEntity
  8
MO_001_VIEW_PV
  6
C_SOLID_M
100
AcDb2dPolyline
 66
     1
 10
0.0
 20
0.0
 30
0.0
  0
VERTEX
  5
615
330
2D2
100
AcDbEntity
  8
MO_001_VIEW_PV
  6
C_SOLID_M
100
AcDbVertex
100
AcDb2dVertex
 10
4.514393
 20
5.882101999999999
 30
0.0
  0
VERTEX
  5
616
330
2D2
100
AcDbEntity
  8
MO_001_VIEW_PV
  6
C_SOLID_M
100
AcDbVertex
100
AcDb2dVertex
 10
4.635315
 20
5.828667
 30
0.0
  0
VERTEX
  5
617
330
2D2
100
AcDbEntity
  8
MO_001_VIEW_PV
  6
C_SOLID_M
100
AcDbVertex
100
AcDb2dVertex
 10
4.734500999999999
 20
5.808235999999999
 30
0.0
  0
VERTEX
  5
618
330
2D2
100
AcDbEntity
  8
MO_001_VIEW_PV
  6
C_SOLID_M
100
AcDbVertex
100
AcDb2dVertex
 10
4.810908999999999
 20
5.804606999999999
 30
0.0
  0
VERTEX
  5
619
330
2D2
100
AcDbEntity
  8
MO_001_VIEW_PV
  6
C_SOLID_M
100
AcDbVertex
100
AcDb2dVertex
 10
4.924483999999999
 20
5.818138999999999
 30
0.0
  0
VERTEX
  5
61A
330
2D2
100
AcDbEntity
  8
MO_001_VIEW_PV
  6
C_SOLID_M
100
AcDbVertex
100
AcDb2dVertex
 10
5.031513999999999
 20
5.853717999999999
 30
0.0
  0
VERTEX
  5
61B
330
2D2
100
AcDbEntity
  8
MO_001_VIEW_PV
  6
C_SOLID_M
100
AcDbVertex
100
AcDb2dVertex
 10
5.142191999999999
 20
5.921795999999999
 30
0.0
  0
VERTEX
  5
61C
330
2D2
100
AcDbEntity
  8
MO_001_VIEW_PV
  6
C_SOLID_M
100
AcDbVertex
100
AcDb2dVertex
 10
5.209027999999999
 20
5.988470999999999
 30
0.0
  0
VERTEX
  5
61D
330
2D2
100
AcDbEntity
  8
MO_001_VIEW_PV
  6
C_SOLID_M
100
AcDbVertex
100
AcDb2dVertex
 10
5.248121
 20
6.045441999999999
 30
0.0
  0
VERTEX
  5
61E
330
2D2
100
AcDbEntity
  8
MO_001_VIEW_PV
  6
C_SOLID_M
100
AcDbVertex
100
AcDb2dVertex
 10
5.286859999999999
 20
6.138887999999999
 30
0.0
  0
VERTEX
  5
61F
330
2D2
100
AcDbEntity
  8
MO_001_VIEW_PV
  6
C_SOLID_M
100
AcDbVertex
100
AcDb2dVertex
 10
5.300003
 20
6.237517999999999
 30
0.0
  0
SEQEND
  5
620
330
2D2
100
AcDbEntity
  8
MO_001_VIEW_PV
  6
C_SOLID_M
  0
LINE
  5
2DF
330
1E
100
AcDbEntity
  8
MO_001_VIEW_PV
  6
C_SOLID_M
100
AcDbLine
 10
5.300003
 20
6.742843999999999
 30
0.0
 11
5.300003
 21
6.237517999999999
 31
0.0
  0
POLYLINE
  5
2E0
330
1E
100
AcDbEntity
  8
MO_001_VIEW_PV
  6
C_SOLID_M
100
AcDb2dPolyline
 66
     1
 10
0.0
 20
0.0
 30
0.0
  0
VERTEX
  5
621
330
2E0
100
AcDbEntity
  8
MO_001_VIEW_PV
  6
C_SOLID_M
100
AcDbVertex
100
AcDb2dVertex
 10
4.514383999999999
 20
13.99208699999999
 30
0.0
  0
VERTEX
  5
622
330
2E0
100
AcDbEntity
  8
MO_001_VIEW_PV
  6
C_SOLID_M
100
AcDbVertex
100
AcDb2dVertex
 10
4.247167
 20
14.04940999999999
 30
0.0
  0
VERTEX
  5
623
330
2E0
100
AcDbEntity
  8
MO_001_VIEW_PV
  6
C_SOLID_M
100
AcDbVertex
100
AcDb2dVertex
 10
4.00114
 20
14.09221099999999
 30
0.0
  0
VERTEX
  5
624
330
2E0
100
AcDbEntity
  8
MO_001_VIEW_PV
  6
C_SOLID_M
100
AcDbVertex
100
AcDb2dVertex
 10
3.548573
 20
14.149679
 30
0.0
  0
VERTEX
  5
625
330
2E0
100
AcDbEntity
  8
MO_001_VIEW_PV
  6
C_SOLID_M
100
AcDbVertex
100
AcDb2dVertex
 10
3.195691
 20
14.177606
 30
0.0
  0
VERTEX
  5
626
330
2E0
100
AcDbEntity
  8
MO_001_VIEW_PV
  6
C_SOLID_M
100
AcDbVertex
100
AcDb2dVertex
 10
2.654927
 20
14.194317
 30
0.0
  0
VERTEX
  5
627
330
2E0
100
AcDbEntity
  8
MO_001_VIEW_PV
  6
C_SOLID_M
100
AcDbVertex
100
AcDb2dVertex
 10
2.113471
 20
14.180475
 30
0.0
  0
VERTEX
  5
628
330
2E0
100
AcDbEntity
  8
MO_001_VIEW_PV
  6
C_SOLID_M
100
AcDbVertex
100
AcDb2dVertex
 10
1.804634
 20
14.15853599999999
 30
0.0
  0
VERTEX
  5
629
330
2E0
100
AcDbEntity
  8
MO_001_VIEW_PV
  6
C_SOLID_M
100
AcDbVertex
100
AcDb2dVertex
 10
1.540487
 20
14.13114
 30
0.0
  0
VERTEX
  5
62A
330
2E0
100
AcDbEntity
  8
MO_001_VIEW_PV
  6
C_SOLID_M
100
AcDbVertex
100
AcDb2dVertex
 10
1.097642999999999
 20
14.065406
 30
0.0
  0
VERTEX
  5
62B
330
2E0
100
AcDbEntity
  8
MO_001_VIEW_PV
  6
C_SOLID_M
100
AcDbVertex
100
AcDb2dVertex
 10
0.7865280000000001
 20
14.00197
 30
0.0
  0
VERTEX
  5
62C
330
2E0
100
AcDbEntity
  8
MO_001_VIEW_PV
  6
C_SOLID_M
100
AcDbVertex
100
AcDb2dVertex
 10
0.567565
 20
13.946944
 30
0.0
  0
VERTEX
  5
62D
330
2E0
100
AcDbEntity
  8
MO_001_VIEW_PV
  6
C_SOLID_M
100
AcDbVertex
100
AcDb2dVertex
 10
0.265767
 20
13.85333
 30
0.0
  0
VERTEX
  5
62E
330
2E0
100
AcDbEntity
  8
MO_001_VIEW_PV
  6
C_SOLID_M
100
AcDbVertex
100
AcDb2dVertex
 10
-0.000002
 20
13.747711
 30
0.0
  0
SEQEND
  5
62F
330
2E0
100
AcDbEntity
  8
MO_001_VIEW_PV
  6
C_SOLID_M
  0
POLYLINE
  5
2F0
330
1E
100
AcDbEntity
  8
MO_001_VIEW_PV
  6
C_SOLID_M
100
AcDb2dPolyline
 66
     1
 10
0.0
 20
0.0
 30
0.0
  0
VERTEX
  5
630
330
2F0
100
AcDbEntity
  8
MO_001_VIEW_PV
  6
C_SOLID_M
100
AcDbVertex
100
AcDb2dVertex
 10
4.514408
 20
13.992097
 30
0.0
  0
VERTEX
  5
631
330
2F0
100
AcDbEntity
  8
MO_001_VIEW_PV
  6
C_SOLID_M
100
AcDbVertex
100
AcDb2dVertex
 10
4.63533
 20
13.970997
 30
0.0
  0
VERTEX
  5
632
330
2F0
100
AcDbEntity
  8
MO_001_VIEW_PV
  6
C_SOLID_M
100
AcDbVertex
100
AcDb2dVertex
 10
4.836422999999999
 20
13.961911
 30
0.0
  0
VERTEX
  5
633
330
2F0
100
AcDbEntity
  8
MO_001_VIEW_PV
  6
C_SOLID_M
100
AcDbVertex
100
AcDb2dVertex
 10
5.031521999999999
 20
13.980893
 30
0.0
  0
VERTEX
  5
634
330
2F0
100
AcDbEntity
  8
MO_001_VIEW_PV
  6
C_SOLID_M
100
AcDbVertex
100
AcDb2dVertex
 10
5.142197
 20
14.007779
 30
0.0
  0
VERTEX
  5
635
330
2F0
100
AcDbEntity
  8
MO_001_VIEW_PV
  6
C_SOLID_M
100
AcDbVertex
100
AcDb2dVertex
 10
5.209030999999999
 20
14.03411
 30
0.0
  0
VERTEX
  5
636
330
2F0
100
AcDbEntity
  8
MO_001_VIEW_PV
  6
C_SOLID_M
100
AcDbVertex
100
AcDb2dVertex
 10
5.248122
 20
14.05660799999999
 30
0.0
  0
VERTEX
  5
637
330
2F0
100
AcDbEntity
  8
MO_001_VIEW_PV
  6
C_SOLID_M
100
AcDbVertex
100
AcDb2dVertex
 10
5.286859999999999
 20
14.093511
 30
0.0
  0
VERTEX
  5
638
330
2F0
100
AcDbEntity
  8
MO_001_VIEW_PV
  6
C_SOLID_M
100
AcDbVertex
100
AcDb2dVertex
 10
5.300003
 20
14.132462
 30
0.0
  0
SEQEND
  5
639
330
2F0
100
AcDbEntity
  8
MO_001_VIEW_PV
  6
C_SOLID_M
  0
LINE
  5
2FB
330
1E
100
AcDbEntity
  8
MO_001_VIEW_PV
  6
C_SOLID_M
100
AcDbLine
 10
5.4
 20
15.89999399999999
 30
0.0
 11
5.4
 21
-15.89999399999999
 31
0.0
  0
LINE
  5
2FC
330
1E
100
AcDbEntity
  8
MO_001_VIEW_PV
  6
C_SOLID_M
100
AcDbLine
 10
8.581998999999999
 20
-7.054992999999999
 30
0.0
 11
8.581998999999999
 21
6.554992999999999
 31
0.0
  0
LINE
  5
2FD
330
1E
100
AcDbEntity
  8
MO_001_VIEW_PV
  6
C_SOLID_M
100
AcDbLine
 10
5.16079
 20
15.89999399999999
 30
0.0
 11
5.4
 21
15.89999399999999
 31
0.0
  0
LINE
  5
2FE
330
1E
100
AcDbEntity
  8
MO_001_VIEW_PV
  6
C_SOLID_M
100
AcDbLine
 10
5.300003
 20
-15.89999399999999
 30
0.0
 11
5.4
 21
-15.89999399999999
 31
0.0
  0
LINE
  5
2FF
330
1E
100
AcDbEntity
  8
MO_001_VIEW_PV
  6
C_SOLID_M
100
AcDbLine
 10
5.4
 20
13.231003
 30
0.0
 11
5.664566
 21
13.231003
 31
0.0
  0
LINE
  5
300
330
1E
100
AcDbEntity
  8
MO_001_VIEW_PV
  6
C_SOLID_M
100
AcDbLine
 10
5.960858999999999
 20
-12.938751
 30
0.0
 11
6.637042999999999
 21
-12.938751
 31
0.0
  0
LINE
  5
301
330
1E
100
AcDbEntity
  8
MO_001_VIEW_PV
  6
C_SOLID_M
100
AcDbLine
 10
6.611094999999999
 20
-10.977493
 30
0.0
 11
7.285363
 21
-10.977493
 31
0.0
  0
LINE
  5
302
330
1E
100
AcDbEntity
  8
MO_001_VIEW_PV
  6
C_SOLID_M
100
AcDbLine
 10
7.2549
 20
-9.016250999999998
 30
0.0
 11
7.976697999999999
 21
-9.016250999999998
 31
0.0
  0
LINE
  5
303
330
1E
100
AcDbEntity
  8
MO_001_VIEW_PV
  6
C_SOLID_M
100
AcDbLine
 10
7.895703
 20
-7.054992999999999
 30
0.0
 11
7.93368
 21
-7.054992999999999
 31
0.0
  0
LINE
  5
304
330
1E
100
AcDbEntity
  8
MO_001_VIEW_PV
  6
C_SOLID_M
100
AcDbLine
 10
5.68524
 20
11.561996
 30
0.0
 11
6.312883999999999
 21
11.561996
 31
0.0
  0
LINE
  5
305
330
1E
100
AcDbEntity
  8
MO_001_VIEW_PV
  6
C_SOLID_M
100
AcDbLine
 10
6.334966
 20
9.893005
 30
0.0
 11
6.961203
 21
9.893005
 31
0.0
  0
LINE
  5
306
330
1E
100
AcDbEntity
  8
MO_001_VIEW_PV
  6
C_SOLID_M
100
AcDbLine
 10
6.994892
 20
7.723999
 30
0.0
 11
7.609521
 21
7.723999
 31
0.0
  0
LINE
  5
307
330
1E
100
AcDbEntity
  8
MO_001_VIEW_PV
  6
C_SOLID_M
100
AcDbLine
 10
7.622475999999999
 20
7.054992999999999
 30
0.0
 11
8.257839999999999
 21
7.054992999999999
 31
0.0
  0
LINE
  5
308
330
1E
100
AcDbEntity
  8
MO_001_VIEW_PV
  6
C_SOLID_M
100
AcDbLine
 10
8.269327
 20
6.554992999999999
 30
0.0
 11
8.581998999999999
 21
6.554992999999999
 31
0.0
  0
LINE
  5
309
330
1E
100
AcDbEntity
  8
MO_001_VIEW_PV
  6
C_SOLID_M
100
AcDbLine
 10
7.93368
 20
-7.054992999999999
 30
0.0
 11
8.581998999999999
 21
-7.054992999999999
 31
0.0
  0
LINE
  5
30A
330
1E
100
AcDbEntity
  8
MO_001_VIEW_PV
  6
C_SOLID_M
100
AcDbLine
 10
5.4
 20
-15.399994
 30
0.0
 11
5.988725999999999
 21
-15.399994
 31
0.0
  0
LINE
  5
30B
330
1E
100
AcDbEntity
  8
MO_001_VIEW_PV
  6
C_SOLID_M
100
AcDbLine
 10
5.988724999999999
 20
-15.399985
 30
0.0
 11
5.664566
 21
13.23100799999999
 31
0.0
  0
LINE
  5
30C
330
1E
100
AcDbEntity
  8
MO_001_VIEW_PV
  6
C_SOLID_M
100
AcDbLine
 10
6.312884999999999
 20
11.562
 30
0.0
 11
6.637044
 21
-12.938742
 31
0.0
  0
LINE
  5
30D
330
1E
100
AcDbEntity
  8
MO_001_VIEW_PV
  6
C_SOLID_M
100
AcDbLine
 10
7.285363999999999
 20
-10.9775
 30
0.0
 11
6.961205
 21
9.893000999999999
 31
0.0
  0
LINE
  5
30E
330
1E
100
AcDbEntity
  8
MO_001_VIEW_PV
  6
C_SOLID_M
100
AcDbLine
 10
7.609521
 20
7.723996999999999
 30
0.0
 11
7.93368
 21
-9.016257000000001
 31
0.0
  0
LINE
  5
30F
330
1E
100
AcDbEntity
  8
MO_001_VIEW_PV
  6
C_SOLID_M
100
AcDbLine
 10
8.257839999999999
 20
7.054980999999999
 30
0.0
 11
8.581998999999999
 21
-7.055003
 31
0.0
  0
LINE
  5
310
330
1E
100
AcDbEntity
  8
MO_001_VIEW_PV
  6
C_SOLID_M
100
AcDbLine
 10
-85.21800199999999
 20
-3.843216
 30
0.0
 11
-85.21800199999999
 21
3.843216
 31
0.0
  0
LINE
  5
311
330
1E
100
AcDbEntity
  8
MO_001_VIEW_PV
  6
C_SOLID_M
100
AcDbLine
 10
-86.218002
 20
-16.218414
 30
0.0
 11
-85.21800199999999
 21
-16.218414
 31
0.0
  0
LINE
  5
312
330
1E
100
AcDbEntity
  8
MO_001_VIEW_PV
  6
C_SOLID_M
100
AcDbLine
 10
-85.21800199999999
 20
-16.097565
 30
0.0
 11
-84.718002
 21
-16.097565
 31
0.0
  0
LINE
  5
313
330
1E
100
AcDbEntity
  8
MO_001_VIEW_PV
  6
C_SOLID_M
100
AcDbLine
 10
-85.21800199999999
 20
-13.04193099999999
 30
0.0
 11
-84.718002
 21
-13.04193099999999
 31
0.0
  0
LINE
  5
314
330
1E
100
AcDbEntity
  8
MO_001_VIEW_PV
  6
C_SOLID_M
100
AcDbLine
 10
-86.218002
 20
-12.375214
 30
0.0
 11
-85.21800199999999
 21
-12.375214
 31
0.0
  0
LINE
  5
315
330
1E
100
AcDbEntity
  8
MO_001_VIEW_PV
  6
C_SOLID_M
100
AcDbLine
 10
-86.218002
 20
-3.843216
 30
0.0
 11
-85.21800199999999
 21
-3.843216
 31
0.0
  0
LINE
  5
316
330
1E
100
AcDbEntity
  8
MO_001_VIEW_PV
  6
C_SOLID_M
100
AcDbLine
 10
-85.21800199999999
 20
-2.854964999999999
 30
0.0
 11
-84.718002
 21
-2.854964999999999
 31
0.0
  0
LINE
  5
317
330
1E
100
AcDbEntity
  8
MO_001_VIEW_PV
  6
C_SOLID_M
100
AcDbLine
 10
-86.218002
 20
3.843216
 30
0.0
 11
-85.21800199999999
 21
3.843216
 31
0.0
  0
LINE
  5
318
330
1E
100
AcDbEntity
  8
MO_001_VIEW_PV
  6
C_SOLID_M
100
AcDbLine
 10
-85.21800199999999
 20
2.854964999999999
 30
0.0
 11
-84.718002
 21
2.854964999999999
 31
0.0
  0
LINE
  5
319
330
1E
100
AcDbEntity
  8
MO_001_VIEW_PV
  6
C_SOLID_M
100
AcDbLine
 10
-85.21800199999999
 20
-16.218414
 30
0.0
 11
-85.21800199999999
 21
-12.375214
 31
0.0
  0
LINE
  5
31A
330
1E
100
AcDbEntity
  8
MO_001_VIEW_PV
  6
C_SOLID_M
100
AcDbLine
 10
-84.718002
 20
-37.75
 30
0.0
 11
-82.349998
 21
-37.75
 31
0.0
  0
LINE
  5
31B
330
1E
100
AcDbEntity
  8
MO_001_VIEW_PV
  6
C_SOLID_M
100
AcDbLine
 10
-84.84010299999999
 20
4.871749999999999
 30
0.0
 11
-84.718002
 21
4.871749999999999
 31
0.0
  0
LINE
  5
31C
330
1E
100
AcDbEntity
  8
MO_001_VIEW_PV
  6
C_SOLID_M
100
AcDbLine
 10
-82.24999999999999
 20
40.600006
 30
0.0
 11
-82.24999999999999
 21
37.75
 31
0.0
  0
POLYLINE
  5
31D
330
1E
100
AcDbEntity
  8
MO_001_VIEW_PV
  6
C_SOLID_M
100
AcDb2dPolyline
 66
     1
 10
0.0
 20
0.0
 30
0.0
  0
VERTEX
  5
63A
330
31D
100
AcDbEntity
  8
MO_001_VIEW_PV
  6
C_SOLID_M
100
AcDbVertex
100
AcDb2dVertex
 10
-65.900002
 20
-41.19375499999999
 30
0.0
  0
VERTEX
  5
63B
330
31D
100
AcDbEntity
  8
MO_001_VIEW_PV
  6
C_SOLID_M
100
AcDbVertex
100
AcDb2dVertex
 10
-65.752524
 20
-41.13689199999999
 30
0.0
  0
VERTEX
  5
63C
330
31D
100
AcDbEntity
  8
MO_001_VIEW_PV
  6
C_SOLID_M
100
AcDbVertex
100
AcDb2dVertex
 10
-65.62039
 20
-41.07780499999999
 30
0.0
  0
VERTEX
  5
63D
330
31D
100
AcDbEntity
  8
MO_001_VIEW_PV
  6
C_SOLID_M
100
AcDbVertex
100
AcDb2dVertex
 10
-65.503128
 20
-41.01710599999999
 30
0.0
  0
VERTEX
  5
63E
330
31D
100
AcDbEntity
  8
MO_001_VIEW_PV
  6
C_SOLID_M
100
AcDbVertex
100
AcDb2dVertex
 10
-65.400168
 20
-40.95534699999999
 30
0.0
  0
VERTEX
  5
63F
330
31D
100
AcDbEntity
  8
MO_001_VIEW_PV
  6
C_SOLID_M
100
AcDbVertex
100
AcDb2dVertex
 10
-65.310867
 20
-40.893017
 30
0.0
  0
VERTEX
  5
640
330
31D
100
AcDbEntity
  8
MO_001_VIEW_PV
  6
C_SOLID_M
100
AcDbVertex
100
AcDb2dVertex
 10
-65.23453100000001
 20
-40.830548
 30
0.0
  0
VERTEX
  5
641
330
31D
100
AcDbEntity
  8
MO_001_VIEW_PV
  6
C_SOLID_M
100
AcDbVertex
100
AcDb2dVertex
 10
-65.170426
 20
-40.76831699999999
 30
0.0
  0
VERTEX
  5
642
330
31D
100
AcDbEntity
  8
MO_001_VIEW_PV
  6
C_SOLID_M
100
AcDbVertex
100
AcDb2dVertex
 10
-65.07469799999999
 20
-40.643852
 30
0.0
  0
VERTEX
  5
643
330
31D
100
AcDbEntity
  8
MO_001_VIEW_PV
  6
C_SOLID_M
100
AcDbVertex
100
AcDb2dVertex
 10
-65.02005200000001
 20
-40.523845
 30
0.0
  0
VERTEX
  5
644
330
31D
100
AcDbEntity
  8
MO_001_VIEW_PV
  6
C_SOLID_M
100
AcDbVertex
100
AcDb2dVertex
 10
-65.00031400000001
 20
-40.409804
 30
0.0
  0
VERTEX
  5
645
330
31D
100
AcDbEntity
  8
MO_001_VIEW_PV
  6
C_SOLID_M
100
AcDbVertex
100
AcDb2dVertex
 10
-65.009699
 20
-40.302701
 30
0.0
  0
VERTEX
  5
646
330
31D
100
AcDbEntity
  8
MO_001_VIEW_PV
  6
C_SOLID_M
100
AcDbVertex
100
AcDb2dVertex
 10
-65.042934
 20
-40.203081
 30
0.0
  0
VERTEX
  5
647
330
31D
100
AcDbEntity
  8
MO_001_VIEW_PV
  6
C_SOLID_M
100
AcDbVertex
100
AcDb2dVertex
 10
-65.095314
 20
-40.111163
 30
0.0
  0
VERTEX
  5
648
330
31D
100
AcDbEntity
  8
MO_001_VIEW_PV
  6
C_SOLID_M
100
AcDbVertex
100
AcDb2dVertex
 10
-65.162716
 20
-40.026922
 30
0.0
  0
VERTEX
  5
649
330
31D
100
AcDbEntity
  8
MO_001_VIEW_PV
  6
C_SOLID_M
100
AcDbVertex
100
AcDb2dVertex
 10
-65.24157999999999
 20
-39.950155
 30
0.0
  0
VERTEX
  5
64A
330
31D
100
AcDbEntity
  8
MO_001_VIEW_PV
  6
C_SOLID_M
100
AcDbVertex
100
AcDb2dVertex
 10
-65.32887399999999
 20
-39.880536
 30
0.0
  0
VERTEX
  5
64B
330
31D
100
AcDbEntity
  8
MO_001_VIEW_PV
  6
C_SOLID_M
100
AcDbVertex
100
AcDb2dVertex
 10
-65.422048
 20
-39.817662
 30
0.0
  0
VERTEX
  5
64C
330
31D
100
AcDbEntity
  8
MO_001_VIEW_PV
  6
C_SOLID_M
100
AcDbVertex
100
AcDb2dVertex
 10
-65.62478399999999
 20
-39.707012
 30
0.0
  0
VERTEX
  5
64D
330
31D
100
AcDbEntity
  8
MO_001_VIEW_PV
  6
C_SOLID_M
100
AcDbVertex
100
AcDb2dVertex
 10
-65.830021
 20
-39.61909099999999
 30
0.0
  0
VERTEX
  5
64E
330
31D
100
AcDbEntity
  8
MO_001_VIEW_PV
  6
C_SOLID_M
100
AcDbVertex
100
AcDb2dVertex
 10
-66.028874
 20
-39.549861
 30
0.0
  0
VERTEX
  5
64F
330
31D
100
AcDbEntity
  8
MO_001_VIEW_PV
  6
C_SOLID_M
100
AcDbVertex
100
AcDb2dVertex
 10
-66.216105
 20
-39.495719
 30
0.0
  0
VERTEX
  5
650
330
31D
100
AcDbEntity
  8
MO_001_VIEW_PV
  6
C_SOLID_M
100
AcDbVertex
100
AcDb2dVertex
 10
-66.569266
 20
-39.416602
 30
0.0
  0
VERTEX
  5
651
330
31D
100
AcDbEntity
  8
MO_001_VIEW_PV
  6
C_SOLID_M
100
AcDbVertex
100
AcDb2dVertex
 10
-66.851507
 20
-39.371189
 30
0.0
  0
VERTEX
  5
652
330
31D
100
AcDbEntity
  8
MO_001_VIEW_PV
  6
C_SOLID_M
100
AcDbVertex
100
AcDb2dVertex
 10
-67.29446
 20
-39.326772
 30
0.0
  0
VERTEX
  5
653
330
31D
100
AcDbEntity
  8
MO_001_VIEW_PV
  6
C_SOLID_M
100
AcDbVertex
100
AcDb2dVertex
 10
-67.75
 20
-39.31182899999999
 30
0.0
  0
VERTEX
  5
654
330
31D
100
AcDbEntity
  8
MO_001_VIEW_PV
  6
C_SOLID_M
100
AcDbVertex
100
AcDb2dVertex
 10
-68.161585
 20
-39.32401199999999
 30
0.0
  0
VERTEX
  5
655
330
31D
100
AcDbEntity
  8
MO_001_VIEW_PV
  6
C_SOLID_M
100
AcDbVertex
100
AcDb2dVertex
 10
-68.53919799999999
 20
-39.357326
 30
0.0
  0
VERTEX
  5
656
330
31D
100
AcDbEntity
  8
MO_001_VIEW_PV
  6
C_SOLID_M
100
AcDbVertex
100
AcDb2dVertex
 10
-68.879153
 20
-39.40721299999999
 30
0.0
  0
VERTEX
  5
657
330
31D
100
AcDbEntity
  8
MO_001_VIEW_PV
  6
C_SOLID_M
100
AcDbVertex
100
AcDb2dVertex
 10
-69.18011599999999
 20
-39.469595
 30
0.0
  0
VERTEX
  5
658
330
31D
100
AcDbEntity
  8
MO_001_VIEW_PV
  6
C_SOLID_M
100
AcDbVertex
100
AcDb2dVertex
 10
-69.442474
 20
-39.54094099999999
 30
0.0
  0
VERTEX
  5
659
330
31D
100
AcDbEntity
  8
MO_001_VIEW_PV
  6
C_SOLID_M
100
AcDbVertex
100
AcDb2dVertex
 10
-69.66781999999999
 20
-39.618263
 30
0.0
  0
VERTEX
  5
65A
330
31D
100
AcDbEntity
  8
MO_001_VIEW_PV
  6
C_SOLID_M
100
AcDbVertex
100
AcDb2dVertex
 10
-69.85853099999999
 20
-39.69909799999999
 30
0.0
  0
VERTEX
  5
65B
330
31D
100
AcDbEntity
  8
MO_001_VIEW_PV
  6
C_SOLID_M
100
AcDbVertex
100
AcDb2dVertex
 10
-70.01745200000001
 20
-39.781452
 30
0.0
  0
VERTEX
  5
65C
330
31D
100
AcDbEntity
  8
MO_001_VIEW_PV
  6
C_SOLID_M
100
AcDbVertex
100
AcDb2dVertex
 10
-70.14765099999999
 20
-39.863752
 30
0.0
  0
VERTEX
  5
65D
330
31D
100
AcDbEntity
  8
MO_001_VIEW_PV
  6
C_SOLID_M
100
AcDbVertex
100
AcDb2dVertex
 10
-70.25224099999999
 20
-39.94478499999999
 30
0.0
  0
VERTEX
  5
65E
330
31D
100
AcDbEntity
  8
MO_001_VIEW_PV
  6
C_SOLID_M
100
AcDbVertex
100
AcDb2dVertex
 10
-70.334265
 20
-40.023641
 30
0.0
  0
VERTEX
  5
65F
330
31D
100
AcDbEntity
  8
MO_001_VIEW_PV
  6
C_SOLID_M
100
AcDbVertex
100
AcDb2dVertex
 10
-70.396608
 20
-40.099662
 30
0.0
  0
VERTEX
  5
660
330
31D
100
AcDbEntity
  8
MO_001_VIEW_PV
  6
C_SOLID_M
100
AcDbVertex
100
AcDb2dVertex
 10
-70.44195000000001
 20
-40.17239599999999
 30
0.0
  0
VERTEX
  5
661
330
31D
100
AcDbEntity
  8
MO_001_VIEW_PV
  6
C_SOLID_M
100
AcDbVertex
100
AcDb2dVertex
 10
-70.47274300000001
 20
-40.241552
 30
0.0
  0
VERTEX
  5
662
330
31D
100
AcDbEntity
  8
MO_001_VIEW_PV
  6
C_SOLID_M
100
AcDbVertex
100
AcDb2dVertex
 10
-70.49119399999999
 20
-40.30697299999999
 30
0.0
  0
VERTEX
  5
663
330
31D
100
AcDbEntity
  8
MO_001_VIEW_PV
  6
C_SOLID_M
100
AcDbVertex
100
AcDb2dVertex
 10
-70.498404
 20
-40.430309
 30
0.0
  0
VERTEX
  5
664
330
31D
100
AcDbEntity
  8
MO_001_VIEW_PV
  6
C_SOLID_M
100
AcDbVertex
100
AcDb2dVertex
 10
-70.475374
 20
-40.53789
 30
0.0
  0
VERTEX
  5
665
330
31D
100
AcDbEntity
  8
MO_001_VIEW_PV
  6
C_SOLID_M
100
AcDbVertex
100
AcDb2dVertex
 10
-70.432936
 20
-40.630879
 30
0.0
  0
VERTEX
  5
666
330
31D
100
AcDbEntity
  8
MO_001_VIEW_PV
  6
C_SOLID_M
100
AcDbVertex
100
AcDb2dVertex
 10
-70.378997
 20
-40.71078299999999
 30
0.0
  0
VERTEX
  5
667
330
31D
100
AcDbEntity
  8
MO_001_VIEW_PV
  6
C_SOLID_M
100
AcDbVertex
100
AcDb2dVertex
 10
-70.31918799999999
 20
-40.779193
 30
0.0
  0
VERTEX
  5
668
330
31D
100
AcDbEntity
  8
MO_001_VIEW_PV
  6
C_SOLID_M
100
AcDbVertex
100
AcDb2dVertex
 10
-70.18705899999999
 20
-40.89457999999999
 30
0.0
  0
VERTEX
  5
669
330
31D
100
AcDbEntity
  8
MO_001_VIEW_PV
  6
C_SOLID_M
100
AcDbVertex
100
AcDb2dVertex
 10
-70.06595400000001
 20
-40.976702
 30
0.0
  0
VERTEX
  5
66A
330
31D
100
AcDbEntity
  8
MO_001_VIEW_PV
  6
C_SOLID_M
100
AcDbVertex
100
AcDb2dVertex
 10
-69.851171
 20
-41.09127199999999
 30
0.0
  0
VERTEX
  5
66B
330
31D
100
AcDbEntity
  8
MO_001_VIEW_PV
  6
C_SOLID_M
100
AcDbVertex
100
AcDb2dVertex
 10
-69.599997
 20
-41.19375499999999
 30
0.0
  0
SEQEND
  5
66C
330
31D
100
AcDbEntity
  8
MO_001_VIEW_PV
  6
C_SOLID_M
  0
LINE
  5
351
330
1E
100
AcDbEntity
  8
MO_001_VIEW_PV
  6
C_SOLID_M
100
AcDbLine
 10
-73.150002
 20
-42.849998
 30
0.0
 11
-69.599998
 21
-42.849998
 31
0.0
  0
LINE
  5
352
330
1E
100
AcDbEntity
  8
MO_001_VIEW_PV
  6
C_CENTER_L
100
AcDbLine
 10
84.0
 20
27.0
 30
0.0
 11
96.0
 21
27.0
 31
0.0
  0
LINE
  5
353
330
1E
100
AcDbEntity
  8
MO_001_VIEW_PV
  6
C_CENTER_L
100
AcDbLine
 10
63.0
 20
-6.0
 30
0.0
 11
63.0
 21
6.0
 31
0.0
  0
LINE
  5
354
330
1E
100
AcDbEntity
  8
MO_001_VIEW_PV
  6
C_CENTER_L
100
AcDbLine
 10
96.0
 20
-27.0
 30
0.0
 11
84.0
 21
-27.0
 31
0.0
  0
LINE
  5
355
330
1E
100
AcDbEntity
  8
MO_001_VIEW_PV
  6
C_CENTER_L
100
AcDbLine
 10
117.0
 20
6.0
 30
0.0
 11
117.0
 21
-6.0
 31
0.0
  0
LINE
  5
356
330
1E
100
AcDbEntity
  8
MO_001_VIEW_PV
  6
C_SOLID_M
100
AcDbLine
 10
106.149994
 20
-39.690056
 30
0.0
 11
106.149994
 21
-62.850006
 31
0.0
  0
LINE
  5
357
330
1E
100
AcDbEntity
  8
MO_001_VIEW_PV
  6
C_SOLID_M
100
AcDbLine
 10
102.450012
 20
-41.001469
 30
0.0
 11
102.450012
 21
-62.850006
 31
0.0
  0
LINE
  5
358
330
1E
100
AcDbEntity
  8
MO_001_VIEW_PV
  6
C_SOLID_M
100
AcDbLine
 10
102.450012
 20
-62.850006
 30
0.0
 11
106.149994
 21
-62.850006
 31
0.0
  0
LINE
  5
359
330
1E
100
AcDbEntity
  8
MO_001_VIEW_PV
  6
C_SOLID_M
100
AcDbLine
 10
105.335022
 20
-62.850006
 30
0.0
 11
105.335022
 21
-67.850014
 31
0.0
  0
LINE
  5
35A
330
1E
100
AcDbEntity
  8
MO_001_VIEW_PV
  6
C_SOLID_M
100
AcDbLine
 10
103.264999
 20
-62.850006
 30
0.0
 11
103.264999
 21
-67.850014
 31
0.0
  0
ARC
  5
35B
330
1E
100
AcDbEntity
  8
MO_001_VIEW_PV
  6
C_SOLID_M
100
AcDbCircle
 10
104.817505
 20
-68.26061999999999
 30
0.0
 40
0.660612
100
AcDbArc
 50
38.430596
 51
141.569399
  0
ARC
  5
35C
330
1E
100
AcDbEntity
  8
MO_001_VIEW_PV
  6
C_SOLID_M
100
AcDbCircle
 10
103.7825009999999
 20
-67.43939199999999
 30
0.0
 40
0.660612
100
AcDbArc
 50
218.4306009999999
 51
321.569404
  0
ARC
  5
35D
330
1E
100
AcDbEntity
  8
MO_001_VIEW_PV
  6
C_SOLID_M
100
AcDbCircle
 10
104.817505
 20
-67.43939199999999
 30
0.0
 40
0.660612
100
AcDbArc
 50
218.4306009999999
 51
321.569404
  0
ARC
  5
35E
330
1E
100
AcDbEntity
  8
MO_001_VIEW_PV
  6
C_SOLID_M
100
AcDbCircle
 10
103.7825009999999
 20
-69.26061999999999
 30
0.0
 40
0.660612
100
AcDbArc
 50
38.430596
 51
141.569399
  0
ARC
  5
35F
330
1E
100
AcDbEntity
  8
MO_001_VIEW_PV
  6
C_SOLID_M
100
AcDbCircle
 10
103.7825009999999
 20
-68.439392
 30
0.0
 40
0.660612
100
AcDbArc
 50
218.4306009999999
 51
321.569404
  0
ARC
  5
360
330
1E
100
AcDbEntity
  8
MO_001_VIEW_PV
  6
C_SOLID_M
100
AcDbCircle
 10
104.817505
 20
-69.26061999999999
 30
0.0
 40
0.660612
100
AcDbArc
 50
38.430596
 51
141.569399
  0
LINE
  5
361
330
1E
100
AcDbEntity
  8
MO_001_VIEW_PV
  6
C_SOLID_M
100
AcDbLine
 10
103.265015
 20
-68.85000600000001
 30
0.0
 11
103.265015
 21
-73.350006
 31
0.0
  0
LINE
  5
362
330
1E
100
AcDbEntity
  8
MO_001_VIEW_PV
  6
C_SOLID_M
100
AcDbLine
 10
105.3349909999999
 20
-68.85000600000001
 30
0.0
 11
105.3349909999999
 21
-73.350006
 31
0.0
  0
LINE
  5
363
330
1E
100
AcDbEntity
  8
MO_001_VIEW_PV
  6
C_SOLID_M
100
AcDbLine
 10
103.265015
 20
-73.350006
 30
0.0
 11
105.3349909999999
 21
-73.350006
 31
0.0
  0
LINE
  5
364
330
1E
100
AcDbEntity
  8
MO_001_VIEW_PV
  6
C_SOLID_M
100
AcDbLine
 10
104.799988
 20
-73.350006
 30
0.0
 11
104.799988
 21
-78.350006
 31
0.0
  0
LINE
  5
365
330
1E
100
AcDbEntity
  8
MO_001_VIEW_PV
  6
C_SOLID_M
100
AcDbLine
 10
103.800003
 20
-73.350006
 30
0.0
 11
103.800003
 21
-78.350006
 31
0.0
  0
LINE
  5
366
330
1E
100
AcDbEntity
  8
MO_001_VIEW_PV
  6
C_SOLID_M
100
AcDbLine
 10
103.800003
 20
-78.350006
 30
0.0
 11
104.799988
 21
-78.350006
 31
0.0
  0
LINE
  5
367
330
1E
100
AcDbEntity
  8
MO_001_VIEW_PV
  6
C_SOLID_M
100
AcDbLine
 10
77.549988
 20
-41.001465
 30
0.0
 11
77.549988
 21
-62.850006
 31
0.0
  0
LINE
  5
368
330
1E
100
AcDbEntity
  8
MO_001_VIEW_PV
  6
C_SOLID_M
100
AcDbLine
 10
73.85000600000001
 20
-39.69005999999999
 30
0.0
 11
73.85000600000001
 21
-62.850006
 31
0.0
  0
LINE
  5
369
330
1E
100
AcDbEntity
  8
MO_001_VIEW_PV
  6
C_SOLID_M
100
AcDbLine
 10
73.85000600000001
 20
-62.850006
 30
0.0
 11
77.549988
 21
-62.850006
 31
0.0
  0
LINE
  5
36A
330
1E
100
AcDbEntity
  8
MO_001_VIEW_PV
  6
C_SOLID_M
100
AcDbLine
 10
76.735001
 20
-62.850006
 30
0.0
 11
76.735001
 21
-67.850014
 31
0.0
  0
LINE
  5
36B
330
1E
100
AcDbEntity
  8
MO_001_VIEW_PV
  6
C_SOLID_M
100
AcDbLine
 10
74.66499300000001
 20
-62.850006
 30
0.0
 11
74.66499300000001
 21
-67.850014
 31
0.0
  0
ARC
  5
36C
330
1E
100
AcDbEntity
  8
MO_001_VIEW_PV
  6
C_SOLID_M
100
AcDbCircle
 10
76.21749900000001
 20
-68.26061999999999
 30
0.0
 40
0.660612
100
AcDbArc
 50
38.430596
 51
141.569399
  0
ARC
  5
36D
330
1E
100
AcDbEntity
  8
MO_001_VIEW_PV
  6
C_SOLID_M
100
AcDbCircle
 10
75.18249499999999
 20
-67.43939199999999
 30
0.0
 40
0.660612
100
AcDbArc
 50
218.4306009999999
 51
321.569404
  0
ARC
  5
36E
330
1E
100
AcDbEntity
  8
MO_001_VIEW_PV
  6
C_SOLID_M
100
AcDbCircle
 10
76.21749900000001
 20
-67.43939199999999
 30
0.0
 40
0.660612
100
AcDbArc
 50
218.4306009999999
 51
321.569404
  0
ARC
  5
36F
330
1E
100
AcDbEntity
  8
MO_001_VIEW_PV
  6
C_SOLID_M
100
AcDbCircle
 10
75.18249499999999
 20
-69.26061999999999
 30
0.0
 40
0.660612
100
AcDbArc
 50
38.430596
 51
141.569399
  0
ARC
  5
370
330
1E
100
AcDbEntity
  8
MO_001_VIEW_PV
  6
C_SOLID_M
100
AcDbCircle
 10
75.18249499999999
 20
-68.439392
 30
0.0
 40
0.660612
100
AcDbArc
 50
218.4306009999999
 51
321.569404
  0
ARC
  5
371
330
1E
100
AcDbEntity
  8
MO_001_VIEW_PV
  6
C_SOLID_M
100
AcDbCircle
 10
76.21749900000001
 20
-69.26061999999999
 30
0.0
 40
0.660612
100
AcDbArc
 50
38.430596
 51
141.569399
  0
LINE
  5
372
330
1E
100
AcDbEntity
  8
MO_001_VIEW_PV
  6
C_SOLID_M
100
AcDbLine
 10
74.66500899999999
 20
-68.85000600000001
 30
0.0
 11
74.66500899999999
 21
-73.350006
 31
0.0
  0
LINE
  5
373
330
1E
100
AcDbEntity
  8
MO_001_VIEW_PV
  6
C_SOLID_M
100
AcDbLine
 10
76.73498499999999
 20
-68.85000600000001
 30
0.0
 11
76.73498499999999
 21
-73.350006
 31
0.0
  0
LINE
  5
374
330
1E
100
AcDbEntity
  8
MO_001_VIEW_PV
  6
C_SOLID_M
100
AcDbLine
 10
74.66500899999999
 20
-73.350006
 30
0.0
 11
76.73498499999999
 21
-73.350006
 31
0.0
  0
LINE
  5
375
330
1E
100
AcDbEntity
  8
MO_001_VIEW_PV
  6
C_SOLID_M
100
AcDbLine
 10
76.199997
 20
-73.350006
 30
0.0
 11
76.199997
 21
-78.350006
 31
0.0
  0
LINE
  5
376
330
1E
100
AcDbEntity
  8
MO_001_VIEW_PV
  6
C_SOLID_M
100
AcDbLine
 10
75.19999699999999
 20
-73.350006
 30
0.0
 11
75.19999699999999
 21
-78.350006
 31
0.0
  0
LINE
  5
377
330
1E
100
AcDbEntity
  8
MO_001_VIEW_PV
  6
C_SOLID_M
100
AcDbLine
 10
75.19999699999999
 20
-78.350006
 30
0.0
 11
76.199997
 21
-78.350006
 31
0.0
  0
LINE
  5
378
330
1E
100
AcDbEntity
  8
MO_001_VIEW_PV
  6
C_SOLID_M
100
AcDbLine
 10
-65.900002
 20
-39.59317
 30
0.0
 11
-65.900002
 21
-62.850006
 31
0.0
  0
LINE
  5
379
330
1E
100
AcDbEntity
  8
MO_001_VIEW_PV
  6
C_SOLID_M
100
AcDbLine
 10
-69.599998
 20
-39.59317
 30
0.0
 11
-69.599998
 21
-62.850006
 31
0.0
  0
LINE
  5
37A
330
1E
100
AcDbEntity
  8
MO_001_VIEW_PV
  6
C_SOLID_M
100
AcDbLine
 10
-69.599998
 20
-62.850006
 30
0.0
 11
-65.900002
 21
-62.850006
 31
0.0
  0
LINE
  5
37B
330
1E
100
AcDbEntity
  8
MO_001_VIEW_PV
  6
C_SOLID_M
100
AcDbLine
 10
-66.714996
 20
-62.850006
 30
0.0
 11
-66.714996
 21
-67.850014
 31
0.0
  0
LINE
  5
37C
330
1E
100
AcDbEntity
  8
MO_001_VIEW_PV
  6
C_SOLID_M
100
AcDbLine
 10
-68.785004
 20
-62.850006
 30
0.0
 11
-68.785004
 21
-67.850014
 31
0.0
  0
ARC
  5
37D
330
1E
100
AcDbEntity
  8
MO_001_VIEW_PV
  6
C_SOLID_M
100
AcDbCircle
 10
-67.23249799999999
 20
-68.26061999999999
 30
0.0
 40
0.660612
100
AcDbArc
 50
38.430596
 51
141.569399
  0
ARC
  5
37E
330
1E
100
AcDbEntity
  8
MO_001_VIEW_PV
  6
C_SOLID_M
100
AcDbCircle
 10
-68.26750200000001
 20
-67.43939199999999
 30
0.0
 40
0.660612
100
AcDbArc
 50
218.4306009999999
 51
321.569404
  0
ARC
  5
37F
330
1E
100
AcDbEntity
  8
MO_001_VIEW_PV
  6
C_SOLID_M
100
AcDbCircle
 10
-67.23249799999999
 20
-67.43939199999999
 30
0.0
 40
0.660612
100
AcDbArc
 50
218.4306009999999
 51
321.569404
  0
ARC
  5
380
330
1E
100
AcDbEntity
  8
MO_001_VIEW_PV
  6
C_SOLID_M
100
AcDbCircle
 10
-68.26750200000001
 20
-69.26061999999999
 30
0.0
 40
0.660612
100
AcDbArc
 50
38.430596
 51
141.569399
  0
ARC
  5
381
330
1E
100
AcDbEntity
  8
MO_001_VIEW_PV
  6
C_SOLID_M
100
AcDbCircle
 10
-68.26750200000001
 20
-68.439392
 30
0.0
 40
0.660612
100
AcDbArc
 50
218.4306009999999
 51
321.569404
  0
ARC
  5
382
330
1E
100
AcDbEntity
  8
MO_001_VIEW_PV
  6
C_SOLID_M
100
AcDbCircle
 10
-67.23249799999999
 20
-69.26061999999999
 30
0.0
 40
0.660612
100
AcDbArc
 50
38.430596
 51
141.569399
  0
LINE
  5
383
330
1E
100
AcDbEntity
  8
MO_001_VIEW_PV
  6
C_SOLID_M
100
AcDbLine
 10
-68.78499599999999
 20
-68.85000600000001
 30
0.0
 11
-68.78499599999999
 21
-73.350006
 31
0.0
  0
LINE
  5
384
330
1E
100
AcDbEntity
  8
MO_001_VIEW_PV
  6
C_SOLID_M
100
AcDbLine
 10
-66.71500400000001
 20
-68.85000600000001
 30
0.0
 11
-66.71500400000001
 21
-73.350006
 31
0.0
  0
LINE
  5
385
330
1E
100
AcDbEntity
  8
MO_001_VIEW_PV
  6
C_SOLID_M
100
AcDbLine
 10
-68.78499599999999
 20
-73.350006
 30
0.0
 11
-66.71500400000001
 21
-73.350006
 31
0.0
  0
LINE
  5
386
330
1E
100
AcDbEntity
  8
MO_001_VIEW_PV
  6
C_SOLID_M
100
AcDbLine
 10
-67.25
 20
-73.350006
 30
0.0
 11
-67.25
 21
-78.350006
 31
0.0
  0
LINE
  5
387
330
1E
100
AcDbEntity
  8
MO_001_VIEW_PV
  6
C_SOLID_M
100
AcDbLine
 10
-68.25
 20
-73.350006
 30
0.0
 11
-68.25
 21
-78.350006
 31
0.0
  0
LINE
  5
388
330
1E
100
AcDbEntity
  8
MO_001_VIEW_PV
  6
C_SOLID_M
100
AcDbLine
 10
-68.25
 20
-78.350006
 30
0.0
 11
-67.25
 21
-78.350006
 31
0.0
  0
CIRCLE
  5
389
330
1E
100
AcDbEntity
  8
MO_001_VIEW_PV
  6
C_SOLID_M
100
AcDbCircle
 10
109.0918879999999
 20
19.091883
 30
0.0
 40
3.0
  0
LINE
  5
38A
330
1E
100
AcDbEntity
  8
MO_001_VIEW_PV
  6
C_SOLID_M
100
AcDbLine
 10
109.657536
 20
20.364677
 30
0.0
 11
110.0344379999999
 21
20.741579
 31
0.0
  0
LINE
  5
38B
330
1E
100
AcDbEntity
  8
MO_001_VIEW_PV
  6
C_SOLID_M
100
AcDbLine
 10
110.3646429999999
 20
19.65756999999999
 30
0.0
 11
110.741551
 21
20.034478
 31
0.0
  0
LINE
  5
38C
330
1E
100
AcDbEntity
  8
MO_001_VIEW_PV
  6
C_SOLID_M
100
AcDbLine
 10
110.364649
 20
18.52618999999999
 30
0.0
 11
110.7415559999999
 21
18.14928199999999
 31
0.0
  0
LINE
  5
38D
330
1E
100
AcDbEntity
  8
MO_001_VIEW_PV
  6
C_SOLID_M
100
AcDbLine
 10
109.6575419999999
 20
17.819083
 30
0.0
 11
110.0344439999999
 21
17.442181
 31
0.0
  0
LINE
  5
38E
330
1E
100
AcDbEntity
  8
MO_001_VIEW_PV
  6
C_SOLID_M
100
AcDbLine
 10
107.4421469999999
 20
20.034478
 30
0.0
 11
107.819054
 21
19.65756999999999
 31
0.0
  0
LINE
  5
38F
330
1E
100
AcDbEntity
  8
MO_001_VIEW_PV
  6
C_SOLID_M
100
AcDbLine
 10
108.1492539999999
 20
20.741585
 30
0.0
 11
108.526161
 21
20.364677
 31
0.0
  0
LINE
  5
390
330
1E
100
AcDbEntity
  8
MO_001_VIEW_PV
  6
C_SOLID_M
100
AcDbLine
 10
107.4421469999999
 20
18.149288
 30
0.0
 11
107.819054
 21
18.526195
 31
0.0
  0
LINE
  5
391
330
1E
100
AcDbEntity
  8
MO_001_VIEW_PV
  6
C_SOLID_M
100
AcDbLine
 10
108.1492539999999
 20
17.442181
 30
0.0
 11
108.526161
 21
17.819088
 31
0.0
  0
ARC
  5
392
330
1E
100
AcDbEntity
  8
MO_001_VIEW_PV
  6
C_SOLID_M
100
AcDbCircle
 10
109.0918879999999
 20
19.091883
 30
0.0
 40
1.9
100
AcDbArc
 50
29.742486
 51
60.257486
  0
ARC
  5
393
330
1E
100
AcDbEntity
  8
MO_001_VIEW_PV
  6
C_SOLID_M
100
AcDbCircle
 10
110.930374
 20
19.091883
 30
0.0
 40
0.8
100
AcDbArc
 50
134.999905
 51
225.000092
  0
ARC
  5
394
330
1E
100
AcDbEntity
  8
MO_001_VIEW_PV
  6
C_SOLID_M
100
AcDbCircle
 10
109.0918879999999
 20
19.091883
 30
0.0
 40
1.9
100
AcDbArc
 50
119.742546
 51
150.2576179999999
  0
ARC
  5
395
330
1E
100
AcDbEntity
  8
MO_001_VIEW_PV
  6
C_SOLID_M
100
AcDbCircle
 10
109.0918879999999
 20
19.091883
 30
0.0
 40
1.9
100
AcDbArc
 50
209.7423819999999
 51
240.2574539999999
  0
ARC
  5
396
330
1E
100
AcDbEntity
  8
MO_001_VIEW_PV
  6
C_SOLID_M
100
AcDbCircle
 10
109.0918879999999
 20
19.091883
 30
0.0
 40
1.9
100
AcDbArc
 50
299.742514
 51
330.257514
  0
ARC
  5
397
330
1E
100
AcDbEntity
  8
MO_001_VIEW_PV
  6
C_SOLID_M
100
AcDbCircle
 10
109.0918879999999
 20
20.93036499999999
 30
0.0
 40
0.8
100
AcDbArc
 50
225.0
 51
315.0001829999999
  0
ARC
  5
398
330
1E
100
AcDbEntity
  8
MO_001_VIEW_PV
  6
C_SOLID_M
100
AcDbCircle
 10
107.253403
 20
19.091883
 30
0.0
 40
0.8
100
AcDbArc
 50
315.0001009999999
 51
45.000001
  0
ARC
  5
399
330
1E
100
AcDbEntity
  8
MO_001_VIEW_PV
  6
C_SOLID_M
100
AcDbCircle
 10
109.0918879999999
 20
17.253401
 30
0.0
 40
0.8
100
AcDbArc
 50
44.99989199999999
 51
134.9999869999999
  0
CIRCLE
  5
39A
330
1E
100
AcDbEntity
  8
MO_001_VIEW_PV
  6
C_SOLID_M
100
AcDbCircle
 10
70.908119
 20
-19.091883
 30
0.0
 40
3.25
  0
CIRCLE
  5
39B
330
1E
100
AcDbEntity
  8
MO_001_VIEW_PV
  6
C_SOLID_M
100
AcDbCircle
 10
70.908119
 20
-19.091883
 30
0.0
 40
3.0
  0
LINE
  5
39C
330
1E
100
AcDbEntity
  8
MO_001_VIEW_PV
  6
C_SOLID_M
100
AcDbLine
 10
71.47377900000001
 20
-17.81907
 30
0.0
 11
71.85068100000001
 21
-17.442167
 31
0.0
  0
LINE
  5
39D
330
1E
100
AcDbEntity
  8
MO_001_VIEW_PV
  6
C_SOLID_M
100
AcDbLine
 10
72.180886
 20
-18.526176
 30
0.0
 11
72.557793
 21
-18.149269
 31
0.0
  0
LINE
  5
39E
330
1E
100
AcDbEntity
  8
MO_001_VIEW_PV
  6
C_SOLID_M
100
AcDbLine
 10
72.180886
 20
-19.65756199999999
 30
0.0
 11
72.557793
 21
-20.03447
 31
0.0
  0
LINE
  5
39F
330
1E
100
AcDbEntity
  8
MO_001_VIEW_PV
  6
C_SOLID_M
100
AcDbLine
 10
71.47377900000001
 20
-20.364669
 30
0.0
 11
71.85068100000001
 21
-20.741571
 31
0.0
  0
LINE
  5
3A0
330
1E
100
AcDbEntity
  8
MO_001_VIEW_PV
  6
C_SOLID_M
100
AcDbLine
 10
69.25838399999999
 20
-18.149274
 30
0.0
 11
69.635292
 21
-18.526182
 31
0.0
  0
LINE
  5
3A1
330
1E
100
AcDbEntity
  8
MO_001_VIEW_PV
  6
C_SOLID_M
100
AcDbLine
 10
69.965491
 20
-17.442167
 30
0.0
 11
70.342398
 21
-17.819075
 31
0.0
  0
LINE
  5
3A2
330
1E
100
AcDbEntity
  8
MO_001_VIEW_PV
  6
C_SOLID_M
100
AcDbLine
 10
69.25838399999999
 20
-20.034464
 30
0.0
 11
69.635292
 21
-19.657557
 31
0.0
  0
LINE
  5
3A3
330
1E
100
AcDbEntity
  8
MO_001_VIEW_PV
  6
C_SOLID_M
100
AcDbLine
 10
69.965491
 20
-20.741571
 30
0.0
 11
70.342398
 21
-20.364664
 31
0.0
  0
ARC
  5
3A4
330
1E
100
AcDbEntity
  8
MO_001_VIEW_PV
  6
C_SOLID_M
100
AcDbCircle
 10
70.908119
 20
-19.091883
 30
0.0
 40
1.9
100
AcDbArc
 50
29.742486
 51
60.257486
  0
ARC
  5
3A5
330
1E
100
AcDbEntity
  8
MO_001_VIEW_PV
  6
C_SOLID_M
100
AcDbCircle
 10
72.746605
 20
-19.091883
 30
0.0
 40
0.8
100
AcDbArc
 50
134.999905
 51
225.000092
  0
ARC
  5
3A6
330
1E
100
AcDbEntity
  8
MO_001_VIEW_PV
  6
C_SOLID_M
100
AcDbCircle
 10
70.908119
 20
-19.091883
 30
0.0
 40
1.9
100
AcDbArc
 50
119.742546
 51
150.2576179999999
  0
ARC
  5
3A7
330
1E
100
AcDbEntity
  8
MO_001_VIEW_PV
  6
C_SOLID_M
100
AcDbCircle
 10
70.908119
 20
-19.091883
 30
0.0
 40
1.9
100
AcDbArc
 50
209.7423819999999
 51
240.2574539999999
  0
ARC
  5
3A8
330
1E
100
AcDbEntity
  8
MO_001_VIEW_PV
  6
C_SOLID_M
100
AcDbCircle
 10
70.908119
 20
-19.091883
 30
0.0
 40
1.9
100
AcDbArc
 50
299.742514
 51
330.257514
  0
ARC
  5
3A9
330
1E
100
AcDbEntity
  8
MO_001_VIEW_PV
  6
C_SOLID_M
100
AcDbCircle
 10
70.908119
 20
-17.253401
 30
0.0
 40
0.8
100
AcDbArc
 50
225.0
 51
315.0001829999999
  0
ARC
  5
3AA
330
1E
100
AcDbEntity
  8
MO_001_VIEW_PV
  6
C_SOLID_M
100
AcDbCircle
 10
69.069633
 20
-19.091883
 30
0.0
 40
0.8
100
AcDbArc
 50
315.0001009999999
 51
45.000001
  0
ARC
  5
3AB
330
1E
100
AcDbEntity
  8
MO_001_VIEW_PV
  6
C_SOLID_M
100
AcDbCircle
 10
70.908119
 20
-20.93036499999999
 30
0.0
 40
0.8
100
AcDbArc
 50
44.99989199999999
 51
134.9999869999999
  0
CIRCLE
  5
3AC
330
1E
100
AcDbEntity
  8
MO_001_VIEW_PV
  6
C_SOLID_L
100
AcDbCircle
 10
90.0
 20
27.0
 30
0.0
 40
3.0
  0
CIRCLE
  5
3AD
330
1E
100
AcDbEntity
  8
MO_001_VIEW_PV
  6
C_SOLID_L
100
AcDbCircle
 10
90.0
 20
-27.0
 30
0.0
 40
3.0
  0
CIRCLE
  5
3AE
330
1E
100
AcDbEntity
  8
MO_001_VIEW_PV
  6
C_SOLID_M
100
AcDbCircle
 10
90.0
 20
27.0
 30
0.0
 40
2.0
  0
CIRCLE
  5
3AF
330
1E
100
AcDbEntity
  8
MO_001_VIEW_PV
  6
C_SOLID_M
100
AcDbCircle
 10
90.0
 20
-27.0
 30
0.0
 40
2.0
  0
CIRCLE
  5
3B0
330
1E
100
AcDbEntity
  8
MO_001_VIEW_PV
  6
C_SOLID_M
100
AcDbCircle
 10
117.0
 20
0.0
 30
0.0
 40
2.0
  0
CIRCLE
  5
3B1
330
1E
100
AcDbEntity
  8
MO_001_VIEW_PV
  6
C_SOLID_L
100
AcDbCircle
 10
117.0
 20
0.0
 30
0.0
 40
3.0
  0
CIRCLE
  5
3B2
330
1E
100
AcDbEntity
  8
MO_001_VIEW_PV
  6
C_SOLID_M
100
AcDbCircle
 10
63.0
 20
0.0
 30
0.0
 40
2.0
  0
CIRCLE
  5
3B3
330
1E
100
AcDbEntity
  8
MO_001_VIEW_PV
  6
C_SOLID_L
100
AcDbCircle
 10
63.0
 20
0.0
 30
0.0
 40
3.0
  0
LINE
  5
3B4
330
1E
100
AcDbEntity
  8
MO_001_VIEW_PV
  6
C_SOLID_M
100
AcDbLine
 10
33.37408099999999
 20
-46.957928
 30
0.0
 11
61.497135
 21
-46.957928
 31
0.0
  0
LINE
  5
3B5
330
1E
100
AcDbEntity
  8
MO_001_VIEW_PV
  6
C_SOLID_M
100
AcDbLine
 10
-85.31800099999999
 20
23.831345
 30
0.0
 11
-84.718002
 21
23.831345
 31
0.0
  0
LINE
  5
3B6
330
1E
100
AcDbEntity
  8
MO_001_VIEW_PV
  6
C_SOLID_M
100
AcDbLine
 10
-86.82890099999999
 20
6.660394
 30
0.0
 11
-88.30119899999999
 21
20.51431
 31
0.0
  0
TEXT
  5
3B7
330
1E
100
AcDbEntity
  8
MO_001_VIEW_PV
  6
C_SOLID_L
100
AcDbText
 10
34.653154
 20
-46.009487
 30
0.0
 40
3.0
  1
4-M6 P1.0
100
AcDbText
  0
TEXT
  5
3B8
330
1E
100
AcDbEntity
  8
MO_001_VIEW_PV
  6
C_SOLID_L
100
AcDbText
 10
145.5
 20
-38.07142899999999
 30
0.0
 40
3.0
  1
(UL1430 AWG18)
 50
90.0
100
AcDbText
  0
TEXT
  5
3B9
330
1E
100
AcDbEntity
  8
MO_001_VIEW_PV
  6
C_SOLID_L
100
AcDbText
 10
40.627355
 20
-50.710495
 30
0.0
 40
3.0
  1
深さ 8
100
AcDbText
  0
TEXT
  5
3BA
330
1E
100
AcDbEntity
  8
MO_001_VIEW_PV
  6
C_SOLID_L
100
AcDbText
 10
-52.488281
 20
-86.08359399999999
 30
0.0
 40
4.167187
  1
8L X3・X4・X9付
100
AcDbText
  0
TEXT
  5
3BB
330
1E
100
AcDbEntity
  8
MO_001_VIEW_PV
  6
C_SOLID_L
100
AcDbText
 10
115.511719
 20
-92.08359399999999
 30
0.0
 40
4.167187
  1
単位：mm
100
AcDbText
  0
TEXT
  5
3BC
330
1E
100
AcDbEntity
  8
MO_001_VIEW_PV
  6
C_SOLID_L
100
AcDbText
 10
115.511719
 20
-98.334375
 30
0.0
 40
4.167187
  1
無励磁時
100
AcDbText
  0
POLYLINE
  5
3BD
330
1E
100
AcDbEntity
  8
MO_001_NOSHOW
  6
C_SOLID_M
100
AcDb2dPolyline
 66
     1
 10
0.0
 20
0.0
 30
0.0
 70
     4
 75
     6
  0
VERTEX
  5
3BE
330
3BD
100
AcDbEntity
  8
MO_001_NOSHOW
  6
C_SOLID_M
100
AcDbVertex
100
AcDb2dVertex
 10
-62.68259399999999
 20
45.47004699999999
 30
0.0
 50
234.9157369999999
  0
VERTEX
  5
3BF
330
3BD
100
AcDbEntity
  8
MO_001_NOSHOW
  6
C_SOLID_M
100
AcDbVertex
100
AcDb2dVertex
 10
-65.595779
 20
39.50495899999999
 30
0.0
 50
259.849168
  0
VERTEX
  5
3C0
330
3BD
100
AcDbEntity
  8
MO_001_NOSHOW
  6
C_SOLID_M
100
AcDbVertex
100
AcDb2dVertex
 10
-66.381866
 20
32.01391599999999
 30
0.0
 50
244.276683
  0
VERTEX
  5
3C1
330
3BD
100
AcDbEntity
  8
MO_001_NOSHOW
  6
C_SOLID_M
100
AcDbVertex
100
AcDb2dVertex
 10
-71.607101
 20
28.129669
 30
0.0
 50
196.965925
  0
VERTEX
  5
3C2
330
3BD
100
AcDbEntity
  8
MO_001_NOSHOW
  6
C_SOLID_M
100
AcDbVertex
100
AcDb2dVertex
 10
-79.005661
 20
27.251099
 30
0.0
 50
185.5710379999999
  0
VERTEX
  5
3C3
330
3BD
100
AcDbEntity
  8
MO_001_NOSHOW
  6
C_SOLID_M
100
AcDbVertex
100
AcDb2dVertex
 10
-93.55588500000001
 20
22.354113
 30
0.0
 50
206.1670009999999
  0
SEQEND
  5
3C4
330
3BD
100
AcDbEntity
  8
0
  0
DIMENSION
  5
3C6
330
1E
100
AcDbEntity
  8
MO_001_VIEW_PV
  6
C_SOLID_M
100
AcDbDimension
  2
*D0
 10
-98.27545200000001
 20
48.0
 30
0.0
 11
-98.27545200000001
 21
48.0
 31
0.0
  3
STANDARD
100
AcDbAlignedDimension
 13
-84.718002
 23
37.75
 33
0.0
 14
-88.318001
 24
20.831345
 34
0.0
100
AcDbRotatedDimension
  0
DIMENSION
  5
3C8
330
1E
100
AcDbEntity
  8
MO_001_VIEW_PV
  6
C_SOLID_M
100
AcDbDimension
  2
*D1
 10
-69.97403
 20
48.0
 30
0.0
 11
-69.97403
 21
48.0
 31
0.0
  3
STANDARD
100
AcDbAlignedDimension
 13
-80.718002
 23
37.75
 33
0.0
 14
-84.718002
 24
37.75
 34
0.0
100
AcDbRotatedDimension
  0
DIMENSION
  5
3CA
330
1E
100
AcDbEntity
  8
MO_001_VIEW_PV
  6
C_SOLID_M
100
AcDbDimension
  2
*D2
 10
-44.15899999999999
 20
54.0
 30
0.0
 11
-44.15899999999999
 21
54.0
 31
0.0
  1
90以下
  3
STANDARD
100
AcDbAlignedDimension
 13
0.0
 23
37.69999699999999
 33
0.0
 14
-88.318001
 24
20.831345
 34
0.0
100
AcDbRotatedDimension
  0
DIMENSION
  5
3CC
330
1E
100
AcDbEntity
  8
MO_001_VIEW_PV
  6
C_SOLID_M
100
AcDbDimension
  2
*D3
 10
-53.50899899999999
 20
60.0
 30
0.0
 11
-53.50899899999999
 21
60.0
 31
0.0
  3
STANDARD
100
AcDbAlignedDimension
 13
0.0
 23
37.69999699999999
 33
0.0
 14
-107.017998
 24
5.409408999999999
 34
0.0
100
AcDbRotatedDimension
  0
DIMENSION
  5
3CE
330
1E
100
AcDbEntity
  8
MO_001_VIEW_PV
  6
C_SOLID_M
100
AcDbDimension
  2
*D4
 10
13.290999
 20
60.0
 30
0.0
 11
13.290999
 21
60.0
 31
0.0
  3
STANDARD
100
AcDbAlignedDimension
 13
0.0
 23
37.69999699999999
 33
0.0
 14
26.581999
 24
5.255005
 34
0.0
100
AcDbRotatedDimension
  0
DIMENSION
  5
3D0
330
1E
100
AcDbEntity
  8
MO_001_VIEW_PV
  6
C_SOLID_M
100
AcDbDimension
  2
*D5
 10
-4.783173
 20
-51.0
 30
0.0
 11
-4.783173
 21
-51.0
 31
0.0
  1
17.5以上
  3
STANDARD
100
AcDbAlignedDimension
 13
8.782
 23
4.154999
 33
0.0
 14
26.581999
 24
-5.255005
 34
0.0
100
AcDbRotatedDimension
  0
DIMENSION
  5
3D2
330
1E
100
AcDbEntity
  8
MO_001_VIEW_PV
  6
C_SOLID_M
100
AcDbDimension
  2
*D6
 10
42.0
 20
0.0
 30
0.0
 11
42.0
 21
0.0
 31
0.0
  3
STANDARD
100
AcDbAlignedDimension
 13
84.0
 23
27.0
 33
0.0
 14
84.0
 24
-27.0
 34
0.0
 50
89.999523
100
AcDbRotatedDimension
  0
DIMENSION
  5
3D4
330
1E
100
AcDbEntity
  8
MO_001_VIEW_PV
  6
C_SOLID_M
100
AcDbDimension
  2
*D7
 10
90.0
 20
60.0
 30
0.0
 11
90.0
 21
60.0
 31
0.0
  1
%%C87以下
  3
STANDARD
100
AcDbAlignedDimension
 13
132.850006
 23
0.0
 33
0.0
 14
47.150002
 24
0.0
 34
0.0
100
AcDbRotatedDimension
  0
DIMENSION
  5
3D6
330
1E
100
AcDbEntity
  8
MO_001_VIEW_PV
  6
C_SOLID_M
100
AcDbDimension
  2
*D8
 10
90.0
 20
54.0
 30
0.0
 11
90.0
 21
54.0
 31
0.0
  1
%%C37以下
  3
STANDARD
100
AcDbAlignedDimension
 13
106.8999939999999
 23
0.0
 33
0.0
 14
73.09999799999999
 24
0.0
 34
0.0
100
AcDbRotatedDimension
  0
DIMENSION
  5
3D8
330
1E
100
AcDbEntity
  8
MO_001_VIEW_PV
  6
C_SOLID_M
100
AcDbDimension
  2
*D9
 10
90.0
 20
48.0
 30
0.0
 11
90.0
 21
48.0
 31
0.0
  3
STANDARD
100
AcDbAlignedDimension
 13
117.0
 23
6.0
 33
0.0
 14
63.0
 24
6.0
 34
0.0
100
AcDbRotatedDimension
  0
DIMENSION
  5
3DA
330
1E
100
AcDbEntity
  8
MO_001_VIEW_PV
  6
C_SOLID_M
100
AcDbDimension
  2
*D10
 10
33.0
 20
23.456314
 30
0.0
 11
33.0
 21
23.456314
 31
0.0
  3
STANDARD
100
AcDbAlignedDimension
 13
26.28199999999999
 23
5.554992999999999
 33
0.0
 14
26.28199999999999
 24
-5.554992999999999
 34
0.0
 50
89.999523
100
AcDbRotatedDimension
  0
DIMENSION
  5
3DC
330
1E
100
AcDbEntity
  8
MO_001_VIEW_PV
  6
C_SOLID_M
100
AcDbDimension
  2
*D11
 10
141.0
 20
-9.0
 30
0.0
 11
141.0
 21
-9.0
 31
0.0
  1
長さ250以上
  3
STANDARD
100
AcDbAlignedDimension
 13
106.149994
 23
-39.690056
 33
0.0
 14
104.799988
 24
-78.350006
 34
0.0
 50
89.999523
100
AcDbRotatedDimension
  0
LINE
  5
3DD
330
1E
100
AcDbEntity
  8
MO_001_VIEW_PV
  6
C_SOLID_L
100
AcDbLine
 10
87.542553
 20
-28.720732
 30
0.0
 11
61.497136
 21
-46.95793
 31
0.0
  0
POLYLINE
  5
3DE
330
1E
100
AcDbEntity
  8
MO_001_VIEW_PV
  6
C_SOLID_L
100
AcDb2dPolyline
 66
     1
 10
0.0
 20
0.0
 30
0.0
 70
     1
  0
VERTEX
  5
66D
330
3DE
100
AcDbEntity
  8
MO_001_VIEW_PV
  6
C_SOLID_L
100
AcDbVertex
100
AcDb2dVertex
 10
85.159082
 20
-31.101992
 30
0.0
  0
VERTEX
  5
66E
330
3DE
100
AcDbEntity
  8
MO_001_VIEW_PV
  6
C_SOLID_L
100
AcDbVertex
100
AcDb2dVertex
 10
87.126424
 20
-29.012109
 30
0.0
  0
VERTEX
  5
66F
330
3DE
100
AcDbEntity
  8
MO_001_VIEW_PV
  6
C_SOLID_L
100
AcDbVertex
100
AcDb2dVertex
 10
84.48970499999999
 20
-30.14602299999999
 30
0.0
  0
SEQEND
  5
670
330
3DE
100
AcDbEntity
  8
MO_001_VIEW_PV
  6
C_SOLID_L
  0
ENDSEC
  0
SECTION
  2
OBJECTS
  0
DICTIONARY
  5
1A
330
0
100
AcDbDictionary
  3
ACAD_GROUP
350
1B
  3
ACAD_MLINESTYLE
350
1C
  3
ACAD_LAYOUT
350
45B
  3
ACAD_PLOTSETTINGS
350
45C
1001
ACAD
1000
TREAT_AS_HARD
1070
     0
  0
DICTIONARY
  5
461
330
1E
100
AcDbDictionary
  3
ACAD_LAYOUTSELFREF
350
462
  0
DICTIONARY
  5
463
330
1F
100
AcDbDictionary
  3
ACAD_LAYOUTSELFREF
350
464
  0
DICTIONARY
  5
1B
102
{ACAD_REACTORS
330
1A
102
}
330
1A
100
AcDbDictionary
1001
ACAD
1000
TREAT_AS_HARD
1070
     0
  0
DICTIONARY
  5
1C
102
{ACAD_REACTORS
330
1A
102
}
330
1A
100
AcDbDictionary
  3
STANDARD
350
1D
1001
ACAD
1000
TREAT_AS_HARD
1070
     0
  0
DICTIONARY
  5
45B
102
{ACAD_REACTORS
330
1A
102
}
330
1A
100
AcDbDictionary
1001
ACAD
1000
TREAT_AS_HARD
1070
     0
  0
DICTIONARY
  5
45C
102
{ACAD_REACTORS
330
1A
102
}
330
1A
100
AcDbDictionary
1001
ACAD
1000
TREAT_AS_HARD
1070
     0
  0
XRECORD
  5
462
102
{ACAD_REACTORS
330
461
102
}
330
461
100
AcDbXrecord
340
1E
  0
XRECORD
  5
464
102
{ACAD_REACTORS
330
463
102
}
330
463
100
AcDbXrecord
340
1F
  0
MLINESTYLE
  5
1D
102
{ACAD_REACTORS
330
1C
102
}
330
1C
100
AcDbMlineStyle
  2
STANDARD
 70
     0
  3

 62
     0
 51
90.0
 52
90.0
 71
     2
 49
0.5
 62
   256
  6
BYLAYER
 49
-0.5
 62
   256
  6
BYLAYER
  0
ENDSEC
  0
EOF
