  0
SECTION
  2
HEADER
  9
$ACADVER
  1
AC1012
  9
$DWGCODEPAGE
  3
dos932
  9
$INSBASE
 10
0.0
 20
0.0
 30
0.0
  9
$EXTMIN
 10
-45.75249149800137
 20
-62.14953929343289
 30
-0.0015258207003583
  9
$EXTMAX
 10
31.60835268141772
 20
30.75370753381196
 30
0.0000000349246037
  9
$LIMMIN
 10
-48.0
 20
-65.27305600000001
  9
$LIMMAX
 10
30.639992
 20
33.0
  9
$ORTHOMODE
 70
     0
  9
$REGENMODE
 70
     1
  9
$FILLMODE
 70
     1
  9
$QTEXTMODE
 70
     0
  9
$MIRRTEXT
 70
     1
  9
$DRAGMODE
 70
     2
  9
$LTSCALE
 40
1.0
  9
$OSMODE
 70
    37
  9
$ATTMODE
 70
     1
  9
$TEXTSIZE
 40
4.1672
  9
$TRACEWID
 40
0.05
  9
$TEXTSTYLE
  7
STANDARD
  9
$CLAYER
  8
0
  9
$CELTYPE
  6
CONTINUOUS
  9
$CECOLOR
 62
   256
  9
$CELTSCALE
 40
1.0
  9
$DELOBJ
 70
     1
  9
$DISPSILH
 70
     0
  9
$DIMSCALE
 40
1.0
  9
$DIMASZ
 40
0.18
  9
$DIMEXO
 40
0.0625
  9
$DIMDLI
 40
0.38
  9
$DIMRND
 40
0.0
  9
$DIMDLE
 40
0.0
  9
$DIMEXE
 40
0.18
  9
$DIMTP
 40
0.0
  9
$DIMTM
 40
0.0
  9
$DIMTXT
 40
0.18
  9
$DIMCEN
 40
0.09
  9
$DIMTSZ
 40
0.0
  9
$DIMTOL
 70
     0
  9
$DIMLIM
 70
     0
  9
$DIMTIH
 70
     1
  9
$DIMTOH
 70
     1
  9
$DIMSE1
 70
     0
  9
$DIMSE2
 70
     0
  9
$DIMTAD
 70
     0
  9
$DIMZIN
 70
     0
  9
$DIMBLK
  1

  9
$DIMASO
 70
     1
  9
$DIMSHO
 70
     1
  9
$DIMPOST
  1

  9
$DIMAPOST
  1

  9
$DIMALT
 70
     0
  9
$DIMALTD
 70
     2
  9
$DIMALTF
 40
25.4
  9
$DIMLFAC
 40
1.0
  9
$DIMTOFL
 70
     0
  9
$DIMTVP
 40
0.0
  9
$DIMTIX
 70
     0
  9
$DIMSOXD
 70
     0
  9
$DIMSAH
 70
     0
  9
$DIMBLK1
  1

  9
$DIMBLK2
  1

  9
$DIMSTYLE
  2
STANDARD
  9
$DIMCLRD
 70
     0
  9
$DIMCLRE
 70
     0
  9
$DIMCLRT
 70
     0
  9
$DIMTFAC
 40
1.0
  9
$DIMGAP
 40
0.09
  9
$DIMJUST
 70
     0
  9
$DIMSD1
 70
     0
  9
$DIMSD2
 70
     0
  9
$DIMTOLJ
 70
     1
  9
$DIMTZIN
 70
     0
  9
$DIMALTZ
 70
     0
  9
$DIMALTTZ
 70
     0
  9
$DIMFIT
 70
     3
  9
$DIMUPT
 70
     0
  9
$DIMUNIT
 70
     2
  9
$DIMDEC
 70
     4
  9
$DIMTDEC
 70
     4
  9
$DIMALTU
 70
     2
  9
$DIMALTTD
 70
     2
  9
$DIMTXSTY
  7
STANDARD
  9
$DIMAUNIT
 70
     0
  9
$LUNITS
 70
     2
  9
$LUPREC
 70
     6
  9
$SKETCHINC
 40
0.1
  9
$FILLETRAD
 40
0.0
  9
$AUNITS
 70
     0
  9
$AUPREC
 70
     4
  9
$MENU
  1
acad
  9
$ELEVATION
 40
0.0
  9
$PELEVATION
 40
0.0
  9
$THICKNESS
 40
0.0
  9
$LIMCHECK
 70
     0
  9
$BLIPMODE
 70
     0
  9
$CHAMFERA
 40
0.0
  9
$CHAMFERB
 40
0.0
  9
$CHAMFERC
 40
0.0
  9
$CHAMFERD
 40
0.0
  9
$SKPOLY
 70
     0
  9
$TDCREATE
 40
2376123.569089525
  9
$TDUPDATE
 40
2451687.692526504
  9
$TDINDWG
 40
0.0008849537
  9
$TDUSRTIMER
 40
0.0008842593
  9
$USRTIMER
 70
     1
  9
$ANGBASE
 50
0.0
  9
$ANGDIR
 70
     0
  9
$PDMODE
 70
     0
  9
$PDSIZE
 40
0.0
  9
$PLINEWID
 40
0.0
  9
$COORDS
 70
     1
  9
$SPLFRAME
 70
     0
  9
$SPLINETYPE
 70
     6
  9
$SPLINESEGS
 70
     8
  9
$ATTDIA
 70
     0
  9
$ATTREQ
 70
     1
  9
$HANDLING
 70
 10241
  9
$HANDSEED
  5
130
  9
$SURFTAB1
 70
     6
  9
$SURFTAB2
 70
     6
  9
$SURFTYPE
 70
     6
  9
$SURFU
 70
     6
  9
$SURFV
 70
     6
  9
$UCSNAME
  2

  9
$UCSORG
 10
0.0000030000000038
 20
0.0961379528761102
 30
0.0
  9
$UCSXDIR
 10
1.0
 20
0.0
 30
0.0
  9
$UCSYDIR
 10
0.0
 20
1.0
 30
0.0
  9
$PUCSNAME
  2

  9
$PUCSORG
 10
0.0
 20
0.0
 30
0.0
  9
$PUCSXDIR
 10
1.0
 20
0.0
 30
0.0
  9
$PUCSYDIR
 10
0.0
 20
1.0
 30
0.0
  9
$USERI1
 70
     0
  9
$USERI2
 70
     0
  9
$USERI3
 70
     0
  9
$USERI4
 70
     0
  9
$USERI5
 70
     0
  9
$USERR1
 40
0.0
  9
$USERR2
 40
0.0
  9
$USERR3
 40
0.0
  9
$USERR4
 40
0.0
  9
$USERR5
 40
0.0
  9
$WORLDVIEW
 70
     1
  9
$SHADEDGE
 70
     3
  9
$SHADEDIF
 70
    70
  9
$TILEMODE
 70
     1
  9
$MAXACTVP
 70
    16
  9
$PINSBASE
 10
0.0
 20
0.0
 30
0.0
  9
$PLIMCHECK
 70
     0
  9
$PEXTMIN
 10
-48.0
 20
-65.27305600000001
 30
1.000000000000000E+20
  9
$PEXTMAX
 10
30.639992
 20
33.0
 30
-1.000000000000000E+20
  9
$PLIMMIN
 10
0.0
 20
0.0
  9
$PLIMMAX
 10
12.0
 20
9.0
  9
$UNITMODE
 70
     0
  9
$VISRETAIN
 70
     0
  9
$PLINEGEN
 70
     0
  9
$PSLTSCALE
 70
     1
  9
$TREEDEPTH
 70
  3020
  9
$PICKSTYLE
 70
     1
  9
$CMLSTYLE
  2
STANDARD
  9
$CMLJUST
 70
     0
  9
$CMLSCALE
 40
1.0
  9
$SAVEIMAGES
 70
     1
  0
ENDSEC
  0
SECTION
  2
CLASSES
  0
CLASS
  1
ACDBDICTIONARYWDFLT
  2
AcDbDictionaryWithDefault
  3
AutoCAD 2000
 90
    32768
280
     0
281
     0
  0
CLASS
  1
ACDBPLACEHOLDER
  2
AcDbPlaceHolder
  3
AutoCAD 2000
 90
    32768
280
     0
281
     0
  0
CLASS
  1
LAYOUT
  2
AcDbLayout
  3
AutoCAD 2000
 90
    32768
280
     0
281
     0
  0
CLASS
  1
LONG_TRANSACTION
  2
AcDbLongTransaction
  3
AutoCAD 2000
 90
    32768
280
     0
281
     0
  0
CLASS
  1
LWPOLYLINE
  2
AcDbPolyline
  3
AutoCAD 2000
 90
    32768
280
     0
281
     1
  0
CLASS
  1
HATCH
  2
AcDbHatch
  3
AutoCAD 2000
 90
    32768
280
     0
281
     1
  0
CLASS
  1
XRECORD
  2
AcDbXrecord
  3
AutoCAD 2000
 90
    32768
280
     0
281
     0
  0
ENDSEC
  0
SECTION
  2
TABLES
  0
TABLE
  2
VPORT
  5
7
330
0
100
AcDbSymbolTable
 70
     2
  0
VPORT
  5
12B
330
7
100
AcDbSymbolTableRecord
100
AcDbViewportTableRecord
  2
*ACTIVE
 70
     0
 10
0.0
 20
0.0
 11
1.0
 21
1.0
 12
-8.195823659291136
 22
-16.13652799999999
 13
0.0
 23
0.0
 14
6.349999999999999
 24
6.349999999999999
 15
6.349999999999999
 25
6.349999999999999
 16
0.0
 26
0.0
 36
1.0
 17
0.0
 27
0.0
 37
0.0
 40
99.28967382068968
 41
1.644214162348877
 42
50.0
 43
0.0
 44
0.0
 50
0.0
 51
0.0
 71
     0
 72
   100
 73
     1
 74
     1
 75
     0
 76
     0
 77
     0
 78
     0
  0
ENDTAB
  0
TABLE
  2
LTYPE
  5
4
330
0
100
AcDbSymbolTable
 70
    37
  0
LTYPE
  5
12
330
4
100
AcDbSymbolTableRecord
100
AcDbLinetypeTableRecord
  2
BYBLOCK
 70
     0
  3

 72
    65
 73
     0
 40
0.0
  0
LTYPE
  5
13
330
4
100
AcDbSymbolTableRecord
100
AcDbLinetypeTableRecord
  2
BYLAYER
 70
     0
  3

 72
    65
 73
     0
 40
0.0
  0
LTYPE
  5
14
330
4
100
AcDbSymbolTableRecord
100
AcDbLinetypeTableRecord
  2
CONTINUOUS
 70
     0
  3
DXF Default line type
 72
    65
 73
     0
 40
0.0
  0
LTYPE
  5
20
330
4
100
AcDbSymbolTableRecord
100
AcDbLinetypeTableRecord
  2
DASHED
 70
     0
  3
DXF Dashed
 72
    65
 73
     2
 40
0.75
 49
0.5
 74
     0
 49
-0.25
 74
     0
  0
LTYPE
  5
21
330
4
100
AcDbSymbolTableRecord
100
AcDbLinetypeTableRecord
  2
HIDDEN
 70
     0
  3
DXF Hidden
 72
    65
 73
     2
 40
0.375
 49
0.25
 74
     0
 49
-0.125
 74
     0
  0
LTYPE
  5
22
330
4
100
AcDbSymbolTableRecord
100
AcDbLinetypeTableRecord
  2
CENTER
 70
     0
  3
DXF Center
 72
    65
 73
     4
 40
2.0
 49
1.25
 74
     0
 49
-0.25
 74
     0
 49
0.25
 74
     0
 49
-0.25
 74
     0
  0
LTYPE
  5
23
330
4
100
AcDbSymbolTableRecord
100
AcDbLinetypeTableRecord
  2
PHANTOM
 70
     0
  3
DXF Phantom
 72
    65
 73
     6
 40
2.5
 49
1.25
 74
     0
 49
-0.25
 74
     0
 49
0.25
 74
     0
 49
-0.25
 74
     0
 49
0.25
 74
     0
 49
-0.25
 74
     0
  0
LTYPE
  5
24
330
4
100
AcDbSymbolTableRecord
100
AcDbLinetypeTableRecord
  2
DOT
 70
     0
  3
DXF DOT
 72
    65
 73
     2
 40
0.25
 49
0.0
 74
     0
 49
-0.25
 74
     0
  0
LTYPE
  5
25
330
4
100
AcDbSymbolTableRecord
100
AcDbLinetypeTableRecord
  2
DASHDOT
 70
     0
  3
DXF Dash Dot
 72
    65
 73
     4
 40
1.0
 49
0.5
 74
     0
 49
-0.25
 74
     0
 49
0.0
 74
     0
 49
-0.25
 74
     0
  0
LTYPE
  5
26
330
4
100
AcDbSymbolTableRecord
100
AcDbLinetypeTableRecord
  2
BORDER
 70
     0
  3
DXF Border
 72
    65
 73
     6
 40
1.75
 49
0.5
 74
     0
 49
-0.25
 74
     0
 49
0.5
 74
     0
 49
-0.25
 74
     0
 49
0.0
 74
     0
 49
-0.25
 74
     0
  0
LTYPE
  5
27
330
4
100
AcDbSymbolTableRecord
100
AcDbLinetypeTableRecord
  2
DIVIDE
 70
     0
  3
DXF Divide
 72
    65
 73
     6
 40
1.25
 49
0.5
 74
     0
 49
-0.25
 74
     0
 49
0.0
 74
     0
 49
-0.25
 74
     0
 49
0.0
 74
     0
 49
-0.25
 74
     0
  0
LTYPE
  5
28
330
4
100
AcDbSymbolTableRecord
100
AcDbLinetypeTableRecord
  2
C_SOLID_L
 70
     0
  3
CADAM Solid Light
 72
    65
 73
     0
 40
0.0
  0
LTYPE
  5
29
330
4
100
AcDbSymbolTableRecord
100
AcDbLinetypeTableRecord
  2
C_SOLID_M
 70
     0
  3
CADAM Solid Medium
 72
    65
 73
     0
 40
0.0
  0
LTYPE
  5
2A
330
4
100
AcDbSymbolTableRecord
100
AcDbLinetypeTableRecord
  2
C_SOLID_H
 70
     0
  3
CADAM Solid Heavy
 72
    65
 73
     0
 40
0.0
  0
LTYPE
  5
2B
330
4
100
AcDbSymbolTableRecord
100
AcDbLinetypeTableRecord
  2
C_DASHED_L
 70
     0
  3
CADAM Dashed Light
 72
    65
 73
     2
 40
0.375
 49
0.25
 74
     0
 49
-0.125
 74
     0
  0
LTYPE
  5
2C
330
4
100
AcDbSymbolTableRecord
100
AcDbLinetypeTableRecord
  2
C_DASHED_M
 70
     0
  3
CADAM Dashed Medium
 72
    65
 73
     2
 40
0.5
 49
0.375
 74
     0
 49
-0.125
 74
     0
  0
LTYPE
  5
2D
330
4
100
AcDbSymbolTableRecord
100
AcDbLinetypeTableRecord
  2
C_CENTER_L
 70
     0
  3
CADAM Center Light
 72
    65
 73
     4
 40
2.0
 49
1.25
 74
     0
 49
-0.25
 74
     0
 49
0.25
 74
     0
 49
-0.25
 74
     0
  0
LTYPE
  5
2E
330
4
100
AcDbSymbolTableRecord
100
AcDbLinetypeTableRecord
  2
C_PHANTOM_L
 70
     0
  3
CADAM Phantom Light
 72
    65
 73
     6
 40
2.5
 49
1.25
 74
     0
 49
-0.25
 74
     0
 49
0.25
 74
     0
 49
-0.25
 74
     0
 49
0.25
 74
     0
 49
-0.25
 74
     0
  0
LTYPE
  5
2F
330
4
100
AcDbSymbolTableRecord
100
AcDbLinetypeTableRecord
  2
C_BREAK_M
 70
     0
  3
CADAM Break Medium
 72
    65
 73
     4
 40
1.0
 49
0.5
 74
     0
 49
-0.25
 74
     0
 49
0.0
 74
     0
 49
-0.25
 74
     0
  0
LTYPE
  5
30
330
4
100
AcDbSymbolTableRecord
100
AcDbLinetypeTableRecord
  2
C_NC
 70
     0
  3
CADAM NC
 72
    65
 73
     0
 40
0.0
  0
LTYPE
  5
31
330
4
100
AcDbSymbolTableRecord
100
AcDbLinetypeTableRecord
  2
DSH1
 70
     0
  3
CADAM Style2 Type 1 Dashed Line
 72
    65
 73
     2
 40
0.075
 49
0.04
 74
     0
 49
-0.035
 74
     0
  0
LTYPE
  5
32
330
4
100
AcDbSymbolTableRecord
100
AcDbLinetypeTableRecord
  2
DSH2
 70
     0
  3
CADAM Style2 Type 2 Dashed Line
 72
    65
 73
     2
 40
0.15
 49
0.11
 74
     0
 49
-0.04
 74
     0
  0
LTYPE
  5
33
330
4
100
AcDbSymbolTableRecord
100
AcDbLinetypeTableRecord
  2
DSH3
 70
     0
  3
CADAM Style2 Type 3 Dashed Line
 72
    65
 73
     2
 40
0.2
 49
0.15
 74
     0
 49
-0.05
 74
     0
  0
LTYPE
  5
34
330
4
100
AcDbSymbolTableRecord
100
AcDbLinetypeTableRecord
  2
DSH4
 70
     0
  3
CADAM Style2 Type 4 Dashed Line
 72
    65
 73
     2
 40
0.36
 49
0.28
 74
     0
 49
-0.08
 74
     0
  0
LTYPE
  5
35
330
4
100
AcDbSymbolTableRecord
100
AcDbLinetypeTableRecord
  2
DSH5
 70
     0
  3
CADAM Style2 Type 5 Dashed Line
 72
    65
 73
     2
 40
0.47
 49
0.39
 74
     0
 49
-0.08
 74
     0
  0
LTYPE
  5
36
330
4
100
AcDbSymbolTableRecord
100
AcDbLinetypeTableRecord
  2
DSH6
 70
     0
  3
CADAM Style2 Type 6 Dashed Line
 72
    65
 73
     2
 40
0.9
 49
0.8100000000000001
 74
     0
 49
-0.09
 74
     0
  0
LTYPE
  5
37
330
4
100
AcDbSymbolTableRecord
100
AcDbLinetypeTableRecord
  2
PL1
 70
     0
  3
Style 2 Type 1 Phantom Line
 72
    65
 73
     6
 40
1.0
 49
0.6
 74
     0
 49
-0.08
 74
     0
 49
0.08
 74
     0
 49
-0.08
 74
     0
 49
0.08
 74
     0
 49
-0.08
 74
     0
  0
LTYPE
  5
38
330
4
100
AcDbSymbolTableRecord
100
AcDbLinetypeTableRecord
  2
PL2
 70
     0
  3
Style 2 Type 2 Phantom Line
 72
    65
 73
     6
 40
1.08
 49
0.6
 74
     0
 49
-0.08
 74
     0
 49
0.12
 74
     0
 49
-0.08
 74
     0
 49
0.12
 74
     0
 49
-0.08
 74
     0
  0
LTYPE
  5
39
330
4
100
AcDbSymbolTableRecord
100
AcDbLinetypeTableRecord
  2
PL3
 70
     0
  3
Style 2 Type 3 Phantom Line
 72
    65
 73
     6
 40
2.0
 49
1.439999999999999
 74
     0
 49
-0.08
 74
     0
 49
0.16
 74
     0
 49
-0.08
 74
     0
 49
0.16
 74
     0
 49
-0.08
 74
     0
  0
LTYPE
  5
3A
330
4
100
AcDbSymbolTableRecord
100
AcDbLinetypeTableRecord
  2
CL1
 70
     0
  3
CADAM Style 2 Type 1 Center Line
 72
    65
 73
     4
 40
0.7
 49
0.45
 74
     0
 49
-0.06
 74
     0
 49
0.13
 74
     0
 49
-0.06
 74
     0
  0
LTYPE
  5
3B
330
4
100
AcDbSymbolTableRecord
100
AcDbLinetypeTableRecord
  2
CL2
 70
     0
  3
CADAM Style 2 Type 2 Center Line
 72
    65
 73
     4
 40
1.199999999999999
 49
1.01
 74
     0
 49
-0.06
 74
     0
 49
0.11
 74
     0
 49
-0.06
 74
     0
  0
LTYPE
  5
3C
330
4
100
AcDbSymbolTableRecord
100
AcDbLinetypeTableRecord
  2
CL3
 70
     0
  3
CADAM Style 2 Type 3 Center Line
 72
    65
 73
     4
 40
1.199999999999999
 49
0.98
 74
     0
 49
-0.06
 74
     0
 49
0.1
 74
     0
 49
-0.06
 74
     0
  0
LTYPE
  5
3D
330
4
100
AcDbSymbolTableRecord
100
AcDbLinetypeTableRecord
  2
CL4
 70
     0
  3
CADAM Style 2 Type 4 Center Line
 72
    65
 73
     4
 40
2.2
 49
1.929999999999999
 74
     0
 49
-0.07
 74
     0
 49
0.13
 74
     0
 49
-0.07
 74
     0
  0
LTYPE
  5
3E
330
4
100
AcDbSymbolTableRecord
100
AcDbLinetypeTableRecord
  2
CL5
 70
     0
  3
CADAM Style 2 Type 5 Center Line
 72
    65
 73
     4
 40
2.2
 49
1.879999999999999
 74
     0
 49
-0.07
 74
     0
 49
0.18
 74
     0
 49
-0.07
 74
     0
  0
LTYPE
  5
3F
330
4
100
AcDbSymbolTableRecord
100
AcDbLinetypeTableRecord
  2
SBK1
 70
     0
  3
CADAM Style 2 Type 1 SetBack Line
 72
    65
 73
     8
 40
2.7
 49
0.1
 74
     0
 49
-0.08
 74
     0
 49
0.1
 74
     0
 49
-0.8
 74
     0
 49
0.0
 74
     0
 49
0.0
 74
     0
 49
0.0
 74
     0
 49
0.0
 74
     0
  0
LTYPE
  5
40
330
4
100
AcDbSymbolTableRecord
100
AcDbLinetypeTableRecord
  2
SBK2
 70
     0
  3
CADAM Style 2 Type 2 SetBack Line
 72
    65
 73
     8
 40
3.709999999999999
 49
0.13
 74
     0
 49
-0.08
 74
     0
 49
0.13
 74
     0
 49
-0.8
 74
     0
 49
0.0
 74
     0
 49
0.0
 74
     0
 49
0.0
 74
     0
 49
0.0
 74
     0
  0
LTYPE
  5
41
330
4
100
AcDbSymbolTableRecord
100
AcDbLinetypeTableRecord
  2
STCH
 70
     0
  3
CADAM Style2 Stitch Line
 72
    65
 73
     2
 40
0.25
 49
0.0
 74
     0
 49
-0.25
 74
     0
  0
LTYPE
  5
42
330
4
100
AcDbSymbolTableRecord
100
AcDbLinetypeTableRecord
  2
MTCH
 70
     0
  3
CADAM Style2 Match Line
 72
    65
 73
     6
 40
2.0
 49
1.439999999999999
 74
     0
 49
-0.8
 74
     0
 49
0.16
 74
     0
 49
-0.08
 74
     0
 49
0.16
 74
     0
 49
-0.08
 74
     0
  0
LTYPE
  5
43
330
4
100
AcDbSymbolTableRecord
100
AcDbLinetypeTableRecord
  2
SLD
 70
     0
  3
CADAM Solid_EXT2
 72
    65
 73
     0
 40
0.0
  0
ENDTAB
  0
TABLE
  2
LAYER
  5
2
330
0
100
AcDbSymbolTable
 70
     7
  0
LAYER
  5
15
330
2
100
AcDbSymbolTableRecord
100
AcDbLayerTableRecord
  2
0
 70
     0
 62
     7
  6
CONTINUOUS
  0
LAYER
  5
44
330
2
100
AcDbSymbolTableRecord
100
AcDbLayerTableRecord
  2
MO_001_NOSHOW
 70
     1
 62
     7
  6
CONTINUOUS
  0
LAYER
  5
45
330
2
100
AcDbSymbolTableRecord
100
AcDbLayerTableRecord
  2
MO_001_VIEW_PV
 70
     0
 62
     7
  6
CONTINUOUS
  0
LAYER
  5
46
330
2
100
AcDbSymbolTableRecord
100
AcDbLayerTableRecord
  2
OVERLAY_MAP
 70
     1
 62
     7
  6
CONTINUOUS
  0
LAYER
  5
47
330
2
100
AcDbSymbolTableRecord
100
AcDbLayerTableRecord
  2
DITTOS
 70
     0
 62
     7
  6
CONTINUOUS
  0
LAYER
  5
48
330
2
100
AcDbSymbolTableRecord
100
AcDbLayerTableRecord
  2
SYMBOLS
 70
     0
 62
     7
  6
CONTINUOUS
  0
LAYER
  5
49
330
2
100
AcDbSymbolTableRecord
100
AcDbLayerTableRecord
  2
SETS
 70
     0
 62
     7
  6
CONTINUOUS
  0
ENDTAB
  0
TABLE
  2
STYLE
  5
3
330
0
100
AcDbSymbolTable
 70
     1
  0
STYLE
  5
18
330
3
100
AcDbSymbolTableRecord
100
AcDbTextStyleTableRecord
  2
STANDARD
 70
     0
 40
4.1672
 41
1.0
 50
0.0
 71
     0
 42
4.1672
  3
monotxt
  4
BIGFONT
  0
ENDTAB
  0
TABLE
  2
VIEW
  5
5
330
0
100
AcDbSymbolTable
 70
     0
  0
ENDTAB
  0
TABLE
  2
UCS
  5
6
330
0
100
AcDbSymbolTable
 70
     1
  0
UCS
  5
4A
330
6
100
AcDbSymbolTableRecord
100
AcDbUCSTableRecord
  2
MO_001_VIEW_PV_P
 70
     0
 10
0.0
 20
0.0
 30
0.0
 11
1.0
 21
0.0
 31
0.0
 12
-0.0000000002051034
 22
1.0
 32
0.0
  0
ENDTAB
  0
TABLE
  2
APPID
  5
8
330
0
100
AcDbSymbolTable
 70
     1
  0
APPID
  5
17
330
8
100
AcDbSymbolTableRecord
100
AcDbRegAppTableRecord
  2
ACAD
 70
     0
  0
ENDTAB
  0
TABLE
  2
DIMSTYLE
  5
9
330
0
100
AcDbSymbolTable
 70
     1
  0
DIMSTYLE
105
19
102
{ACAD_REACTORS
330
FF
330
101
330
103
102
}
330
9
100
AcDbSymbolTableRecord
100
AcDbDimStyleTableRecord
  2
STANDARD
 70
     0
  3

  4

  5

  6

  7

 40
1.0
 41
0.18
 42
0.0625
 43
0.38
 44
0.18
 45
0.0
 46
0.0
 47
0.0
 48
0.0
140
0.18
141
0.09
142
0.0
143
25.4
144
1.0
145
0.0
146
1.0
147
0.09
 71
     0
 72
     0
 73
     1
 74
     1
 75
     0
 76
     0
 77
     0
 78
     0
170
     0
171
     2
172
     0
173
     0
174
     0
175
     0
176
     0
177
     0
178
     0
270
     2
271
     4
272
     4
273
     2
274
     2
340
18
275
     0
280
     0
281
     0
282
     0
283
     1
284
     0
285
     0
286
     0
287
     3
288
     0
  0
ENDTAB
  0
TABLE
  2
BLOCK_RECORD
  5
C
330
0
100
AcDbSymbolTable
 70
     3
  0
BLOCK_RECORD
  5
1E
102
{ACAD_XDICTIONARY
360
12C
102
}
330
C
100
AcDbSymbolTableRecord
100
AcDbBlockTableRecord
  2
*MODEL_SPACE
  0
BLOCK_RECORD
  5
1F
102
{ACAD_XDICTIONARY
360
12E
102
}
330
C
100
AcDbSymbolTableRecord
100
AcDbBlockTableRecord
  2
*PAPER_SPACE
  0
BLOCK_RECORD
  5
FE
330
C
100
AcDbSymbolTableRecord
100
AcDbBlockTableRecord
  2
*D0
  0
BLOCK_RECORD
  5
100
330
C
100
AcDbSymbolTableRecord
100
AcDbBlockTableRecord
  2
*D1
  0
BLOCK_RECORD
  5
102
330
C
100
AcDbSymbolTableRecord
100
AcDbBlockTableRecord
  2
*D2
  0
ENDTAB
  0
ENDSEC
  0
SECTION
  2
BLOCKS
  0
BLOCK
  5
E
330
1E
100
AcDbEntity
  8
0
100
AcDbBlockBegin
  2
*MODEL_SPACE
 70
     0
 10
0.0
 20
0.0
 30
0.0
  3
*MODEL_SPACE
  1

  0
ENDBLK
  5
F
330
1E
100
AcDbEntity
  8
0
100
AcDbBlockEnd
  0
BLOCK
  5
10
330
1F
100
AcDbEntity
 67
     1
  8
0
100
AcDbBlockBegin
  2
*PAPER_SPACE
 70
     0
 10
0.0
 20
0.0
 30
0.0
  3
*PAPER_SPACE
  1

  0
ENDBLK
  5
11
330
1F
100
AcDbEntity
 67
     1
  8
0
100
AcDbBlockEnd
  0
BLOCK
  5
104
330
FE
100
AcDbEntity
  8
0
100
AcDbBlockBegin
  2
*D0
 70
     1
 10
0.0
 20
0.0
 30
0.0
  3
*D0
  1

  0
TEXT
  5
105
330
FE
100
AcDbEntity
  8
MO_001_VIEW_PV
  6
BYBLOCK
100
AcDbText
 10
-42.75
 20
-7.071428999999999
 30
0.0
 40
3.0
  1
%%C42以下
 50
90.0
100
AcDbText
  0
LINE
  5
106
330
FE
100
AcDbEntity
  8
MO_001_VIEW_PV
  6
BYBLOCK
100
AcDbLine
 10
-42.0
 20
-19.949997
 30
0.0
 11
-42.0
 21
19.949997
 31
0.0
  0
SOLID
  5
107
330
FE
100
AcDbEntity
  8
MO_001_VIEW_PV
  6
BYBLOCK
100
AcDbTrace
 10
-42.58351199999999
 20
-16.631737
 30
0.0
 11
-42.0
 21
-19.441997
 31
0.0
 12
-41.416488
 22
-16.631737
 32
0.0
 13
-41.416488
 23
-16.631737
 33
0.0
  0
SOLID
  5
108
330
FE
100
AcDbEntity
  8
MO_001_VIEW_PV
  6
BYBLOCK
100
AcDbTrace
 10
-41.416488
 20
16.631737
 30
0.0
 11
-42.0
 21
19.441997
 31
0.0
 12
-42.58351199999999
 22
16.631737
 32
0.0
 13
-42.58351199999999
 23
16.631737
 33
0.0
  0
LINE
  5
109
330
FE
100
AcDbEntity
  8
MO_001_VIEW_PV
  6
BYBLOCK
100
AcDbLine
 10
-20.399994
 20
-19.949997
 30
0.0
 11
-44.285999
 21
-19.949997
 31
0.0
  0
LINE
  5
10A
330
FE
100
AcDbEntity
  8
MO_001_VIEW_PV
  6
BYBLOCK
100
AcDbLine
 10
-20.399994
 20
19.949997
 30
0.0
 11
-44.285999
 21
19.949997
 31
0.0
  0
ENDBLK
  5
10B
330
FE
100
AcDbEntity
  8
0
100
AcDbBlockEnd
  0
BLOCK
  5
10C
330
100
100
AcDbEntity
  8
0
100
AcDbBlockBegin
  2
*D1
 70
     1
 10
0.0
 20
0.0
 30
0.0
  3
*D1
  1

  0
TEXT
  5
10D
330
100
100
AcDbEntity
  8
MO_001_VIEW_PV
  6
BYBLOCK
100
AcDbText
 10
-18.321429
 20
27.75
 30
0.0
 40
3.0
  1
26以下
100
AcDbText
  0
LINE
  5
10E
330
100
100
AcDbEntity
  8
MO_001_VIEW_PV
  6
BYBLOCK
100
AcDbLine
 10
-25.5
 20
27.0
 30
0.0
 11
0.0
 21
27.0
 31
0.0
  0
SOLID
  5
10F
330
100
100
AcDbEntity
  8
MO_001_VIEW_PV
  6
BYBLOCK
100
AcDbTrace
 10
-22.18173999999999
 20
27.58351199999999
 30
0.0
 11
-24.992
 21
27.0
 31
0.0
 12
-22.18173999999999
 22
26.416488
 32
0.0
 13
-22.18173999999999
 23
26.416488
 33
0.0
  0
SOLID
  5
110
330
100
100
AcDbEntity
  8
MO_001_VIEW_PV
  6
BYBLOCK
100
AcDbTrace
 10
-3.318259999999999
 20
26.416488
 30
0.0
 11
-0.508
 21
27.0
 31
0.0
 12
-3.318259999999999
 22
27.58351199999999
 32
0.0
 13
-3.318259999999999
 23
27.58351199999999
 33
0.0
  0
LINE
  5
111
330
100
100
AcDbEntity
  8
MO_001_VIEW_PV
  6
BYBLOCK
100
AcDbLine
 10
-25.5
 20
17.5
 30
0.0
 11
-25.5
 21
29.285999
 31
0.0
  0
LINE
  5
112
330
100
100
AcDbEntity
  8
MO_001_VIEW_PV
  6
BYBLOCK
100
AcDbLine
 10
0.0
 20
17.5
 30
0.0
 11
0.0
 21
29.285999
 31
0.0
  0
ENDBLK
  5
113
330
100
100
AcDbEntity
  8
0
100
AcDbBlockEnd
  0
BLOCK
  5
114
330
102
100
AcDbEntity
  8
0
100
AcDbBlockBegin
  2
*D2
 70
     1
 10
0.0
 20
0.0
 30
0.0
  3
*D2
  1

  0
TEXT
  5
115
330
102
100
AcDbEntity
  8
MO_001_VIEW_PV
  6
BYBLOCK
100
AcDbText
 10
9.556966
 20
27.75
 30
0.0
 40
3.0
  1
5以下
100
AcDbText
  0
LINE
  5
116
330
102
100
AcDbEntity
  8
MO_001_VIEW_PV
  6
BYBLOCK
100
AcDbLine
 10
4.618201999999999
 20
27.0
 30
0.0
 11
0.0
 21
27.0
 31
0.0
  0
LINE
  5
117
330
102
100
AcDbEntity
  8
MO_001_VIEW_PV
  6
BYBLOCK
100
AcDbLine
 10
4.618201999999999
 20
27.0
 30
0.0
 11
10.968202
 21
27.0
 31
0.0
  0
LINE
  5
118
330
102
100
AcDbEntity
  8
MO_001_VIEW_PV
  6
BYBLOCK
100
AcDbLine
 10
0.0
 20
27.0
 30
0.0
 11
-6.349999999999999
 21
27.0
 31
0.0
  0
SOLID
  5
119
330
102
100
AcDbEntity
  8
MO_001_VIEW_PV
  6
BYBLOCK
100
AcDbTrace
 10
7.936461999999999
 20
27.58351199999999
 30
0.0
 11
5.126201999999999
 21
27.0
 31
0.0
 12
7.936461999999999
 22
26.416488
 32
0.0
 13
7.936461999999999
 23
26.416488
 33
0.0
  0
SOLID
  5
11A
330
102
100
AcDbEntity
  8
MO_001_VIEW_PV
  6
BYBLOCK
100
AcDbTrace
 10
-3.318259999999999
 20
26.416488
 30
0.0
 11
-0.508
 21
27.0
 31
0.0
 12
-3.318259999999999
 22
27.58351199999999
 32
0.0
 13
-3.318259999999999
 23
27.58351199999999
 33
0.0
  0
LINE
  5
11B
330
102
100
AcDbEntity
  8
MO_001_VIEW_PV
  6
BYBLOCK
100
AcDbLine
 10
4.618201999999999
 20
1.979995999999999
 30
0.0
 11
4.618201999999999
 21
29.285999
 31
0.0
  0
LINE
  5
11C
330
102
100
AcDbEntity
  8
MO_001_VIEW_PV
  6
BYBLOCK
100
AcDbLine
 10
0.0
 20
17.5
 30
0.0
 11
0.0
 21
29.285999
 31
0.0
  0
LINE
  5
11D
330
102
100
AcDbEntity
  8
MO_001_VIEW_PV
  6
BYBLOCK
100
AcDbLine
 10
18.66411
 20
27.0
 30
0.0
 11
4.618201999999999
 21
27.0
 31
0.0
  0
ENDBLK
  5
11E
330
102
100
AcDbEntity
  8
0
100
AcDbBlockEnd
  0
ENDSEC
  0
SECTION
  2
ENTITIES
  0
TEXT
  5
4B
330
1E
100
AcDbEntity
  8
OVERLAY_MAP
  6
C_SOLID_L
100
AcDbText
 10
0.0
 20
6.349999999999999
 30
0.0
 40
4.1672
  1
Model Overlay Name
100
AcDbText
  0
TEXT
  5
4C
330
1E
100
AcDbEntity
  8
OVERLAY_MAP
  6
C_SOLID_L
100
AcDbText
 10
126.999998
 20
0.0
 30
0.0
 40
4.1672
  1
Number
100
AcDbText
  0
TEXT
  5
4D
330
1E
100
AcDbEntity
  8
OVERLAY_MAP
  6
C_SOLID_L
100
AcDbText
 10
177.7999969999999
 20
0.0
 30
0.0
 40
4.1672
  1
File Text
100
AcDbText
  0
TEXT
  5
4E
330
1E
100
AcDbEntity
  8
OVERLAY_MAP
  6
C_SOLID_L
100
AcDbText
 10
0.0
 20
-6.349999999999999
 30
0.0
 40
4.1672
  1
ro 4e489 
100
AcDbText
  0
TEXT
  5
4F
330
1E
100
AcDbEntity
  8
OVERLAY_MAP
  6
C_SOLID_L
100
AcDbText
 10
126.999998
 20
-6.349999999999999
 30
0.0
 40
4.1672
  1
001
100
AcDbText
  0
TEXT
  5
50
330
1E
100
AcDbEntity
  8
OVERLAY_MAP
  6
C_SOLID_L
100
AcDbText
 10
177.7999969999999
 20
-6.349999999999999
 30
0.0
 40
4.1672
  1
                                                                   00139
100
AcDbText
  0
LINE
  5
51
330
1E
100
AcDbEntity
  8
MO_001_VIEW_PV
  6
C_SOLID_M
100
AcDbLine
 10
-0.5
 20
17.375
 30
0.0
 11
-0.5
 21
-17.375
 31
0.0
  0
LINE
  5
52
330
1E
100
AcDbEntity
  8
MO_001_VIEW_PV
  6
C_CENTER_L
100
AcDbLine
 10
-38.473465
 20
0.0
 30
0.0
 11
7.378653999999999
 21
0.0
 31
0.0
  0
LINE
  5
53
330
1E
100
AcDbEntity
  8
MO_001_VIEW_PV
  6
C_SOLID_M
100
AcDbLine
 10
-0.8999950000000001
 20
17.77499699999999
 30
0.0
 11
-0.4999979999999999
 21
17.375
 31
0.0
  0
LINE
  5
54
330
1E
100
AcDbEntity
  8
MO_001_VIEW_PV
  6
C_SOLID_M
100
AcDbLine
 10
-0.499999
 20
-17.374998
 30
0.0
 11
-0.9000020000000001
 21
-17.775001
 31
0.0
  0
LINE
  5
55
330
1E
100
AcDbEntity
  8
MO_001_VIEW_PV
  6
C_SOLID_M
100
AcDbLine
 10
-0.9000020000000001
 20
17.775002
 30
0.0
 11
-0.9000020000000001
 21
-17.775002
 31
0.0
  0
LINE
  5
56
330
1E
100
AcDbEntity
  8
MO_001_VIEW_PV
  6
C_SOLID_M
100
AcDbLine
 10
-0.9000020000000001
 20
19.599998
 30
0.0
 11
-0.9000020000000001
 21
-19.599998
 31
0.0
  0
LINE
  5
57
330
1E
100
AcDbEntity
  8
MO_001_VIEW_PV
  6
C_SOLID_M
100
AcDbLine
 10
-9.099997999999999
 20
19.599998
 30
0.0
 11
-0.9000020000000001
 21
19.599998
 31
0.0
  0
LINE
  5
58
330
1E
100
AcDbEntity
  8
MO_001_VIEW_PV
  6
C_SOLID_M
100
AcDbLine
 10
-9.099997999999999
 20
-19.599998
 30
0.0
 11
-0.9000020000000001
 21
-19.599998
 31
0.0
  0
LINE
  5
59
330
1E
100
AcDbEntity
  8
MO_001_VIEW_PV
  6
C_SOLID_M
100
AcDbLine
 10
-36.281799
 20
2.634415
 30
0.0
 11
-36.281799
 21
-2.634415
 31
0.0
  0
LINE
  5
5A
330
1E
100
AcDbEntity
  8
MO_001_VIEW_PV
  6
C_SOLID_M
100
AcDbLine
 10
-35.88179199999999
 20
2.780003999999999
 30
0.0
 11
-36.281795
 21
2.634415
 31
0.0
  0
LINE
  5
5B
330
1E
100
AcDbEntity
  8
MO_001_VIEW_PV
  6
C_SOLID_M
100
AcDbLine
 10
-35.881802
 20
-2.779997999999999
 30
0.0
 11
-36.28179799999999
 21
-2.634411
 31
0.0
  0
LINE
  5
5C
330
1E
100
AcDbEntity
  8
MO_001_VIEW_PV
  6
C_SOLID_M
100
AcDbLine
 10
-35.88179
 20
2.779999
 30
0.0
 11
-35.88179
 21
-2.779999
 31
0.0
  0
LINE
  5
5D
330
1E
100
AcDbEntity
  8
MO_001_VIEW_PV
  6
C_SOLID_M
100
AcDbLine
 10
-35.88179
 20
2.779999
 30
0.0
 11
-25.5
 21
2.779999
 31
0.0
  0
LINE
  5
5E
330
1E
100
AcDbEntity
  8
MO_001_VIEW_PV
  6
C_SOLID_M
100
AcDbLine
 10
-35.88179
 20
-2.779999
 30
0.0
 11
-25.5
 21
-2.779999
 31
0.0
  0
LINE
  5
5F
330
1E
100
AcDbEntity
  8
MO_001_VIEW_PV
  6
C_CENTER_L
100
AcDbLine
 10
-2.767303
 20
13.5
 30
0.0
 11
19.295986
 21
13.5
 31
0.0
  0
LINE
  5
60
330
1E
100
AcDbEntity
  8
MO_001_VIEW_PV
  6
C_SOLID_M
100
AcDbLine
 10
18.29999899999999
 20
14.800003
 30
0.0
 11
18.29999899999999
 21
12.199997
 31
0.0
  0
LINE
  5
61
330
1E
100
AcDbEntity
  8
MO_001_VIEW_PV
  6
C_SOLID_M
100
AcDbLine
 10
0.0
 20
15.5
 30
0.0
 11
17.599998
 21
15.5
 31
0.0
  0
LINE
  5
62
330
1E
100
AcDbEntity
  8
MO_001_VIEW_PV
  6
C_SOLID_M
100
AcDbLine
 10
0.0
 20
11.5
 30
0.0
 11
17.599998
 21
11.5
 31
0.0
  0
LINE
  5
63
330
1E
100
AcDbEntity
  8
MO_001_VIEW_PV
  6
C_SOLID_L
100
AcDbLine
 10
0.0
 20
14.800003
 30
0.0
 11
18.29999899999999
 21
14.800003
 31
0.0
  0
LINE
  5
64
330
1E
100
AcDbEntity
  8
MO_001_VIEW_PV
  6
C_SOLID_L
100
AcDbLine
 10
0.0
 20
12.199997
 30
0.0
 11
18.29999899999999
 21
12.199997
 31
0.0
  0
LINE
  5
65
330
1E
100
AcDbEntity
  8
MO_001_VIEW_PV
  6
C_SOLID_M
100
AcDbLine
 10
17.599998
 20
15.5
 30
0.0
 11
17.599998
 21
11.5
 31
0.0
  0
LINE
  5
66
330
1E
100
AcDbEntity
  8
MO_001_VIEW_PV
  6
C_SOLID_M
100
AcDbLine
 10
17.599999
 20
15.500001
 30
0.0
 11
18.300001
 21
14.799999
 31
0.0
  0
LINE
  5
67
330
1E
100
AcDbEntity
  8
MO_001_VIEW_PV
  6
C_SOLID_M
100
AcDbLine
 10
18.29999899999999
 20
12.200002
 30
0.0
 11
17.599997
 21
11.50000099999999
 31
0.0
  0
LINE
  5
68
330
1E
100
AcDbEntity
  8
MO_001_VIEW_PV
  6
C_CENTER_L
100
AcDbLine
 10
-2.767303
 20
-13.5
 30
0.0
 11
19.295986
 21
-13.5
 31
0.0
  0
LINE
  5
69
330
1E
100
AcDbEntity
  8
MO_001_VIEW_PV
  6
C_SOLID_M
100
AcDbLine
 10
18.29999899999999
 20
-14.800003
 30
0.0
 11
18.29999899999999
 21
-12.199997
 31
0.0
  0
LINE
  5
6A
330
1E
100
AcDbEntity
  8
MO_001_VIEW_PV
  6
C_SOLID_M
100
AcDbLine
 10
0.0
 20
-15.5
 30
0.0
 11
17.599998
 21
-15.5
 31
0.0
  0
LINE
  5
6B
330
1E
100
AcDbEntity
  8
MO_001_VIEW_PV
  6
C_SOLID_M
100
AcDbLine
 10
0.0
 20
-11.5
 30
0.0
 11
17.599998
 21
-11.5
 31
0.0
  0
LINE
  5
6C
330
1E
100
AcDbEntity
  8
MO_001_VIEW_PV
  6
C_SOLID_L
100
AcDbLine
 10
0.0
 20
-14.800003
 30
0.0
 11
18.29999899999999
 21
-14.800003
 31
0.0
  0
LINE
  5
6D
330
1E
100
AcDbEntity
  8
MO_001_VIEW_PV
  6
C_SOLID_L
100
AcDbLine
 10
0.0
 20
-12.199997
 30
0.0
 11
18.29999899999999
 21
-12.199997
 31
0.0
  0
LINE
  5
6E
330
1E
100
AcDbEntity
  8
MO_001_VIEW_PV
  6
C_SOLID_M
100
AcDbLine
 10
17.599998
 20
-15.5
 30
0.0
 11
17.599998
 21
-11.5
 31
0.0
  0
LINE
  5
6F
330
1E
100
AcDbEntity
  8
MO_001_VIEW_PV
  6
C_SOLID_M
100
AcDbLine
 10
17.599999
 20
-15.499992
 30
0.0
 11
18.299996
 21
-14.799996
 31
0.0
  0
LINE
  5
70
330
1E
100
AcDbEntity
  8
MO_001_VIEW_PV
  6
C_SOLID_M
100
AcDbLine
 10
18.300004
 20
-12.199992
 30
0.0
 11
17.600002
 21
-11.49998999999999
 31
0.0
  0
LINE
  5
71
330
1E
100
AcDbEntity
  8
MO_001_VIEW_PV
  6
C_SOLID_M
100
AcDbLine
 10
-0.5
 20
17.5
 30
0.0
 11
-0.5
 21
-17.5
 31
0.0
  0
LINE
  5
72
330
1E
100
AcDbEntity
  8
MO_001_VIEW_PV
  6
C_SOLID_M
100
AcDbLine
 10
0.0
 20
17.5
 30
0.0
 11
0.0
 21
-17.5
 31
0.0
  0
LINE
  5
73
330
1E
100
AcDbEntity
  8
MO_001_VIEW_PV
  6
C_SOLID_M
100
AcDbLine
 10
-0.5
 20
17.5
 30
0.0
 11
0.0
 21
17.5
 31
0.0
  0
LINE
  5
74
330
1E
100
AcDbEntity
  8
MO_001_VIEW_PV
  6
C_SOLID_M
100
AcDbLine
 10
-0.5
 20
-17.5
 30
0.0
 11
0.0
 21
-17.5
 31
0.0
  0
LINE
  5
75
330
1E
100
AcDbEntity
  8
MO_001_VIEW_PV
  6
C_SOLID_M
100
AcDbLine
 10
0.4000020000000001
 20
9.25
 30
0.0
 11
2.699997
 21
9.25
 31
0.0
  0
LINE
  5
76
330
1E
100
AcDbEntity
  8
MO_001_VIEW_PV
  6
C_SOLID_M
100
AcDbLine
 10
2.672066
 20
8.713347999999999
 30
0.0
 11
2.699997
 21
8.713347999999999
 31
0.0
  0
LINE
  5
77
330
1E
100
AcDbEntity
  8
MO_001_VIEW_PV
  6
C_SOLID_M
100
AcDbLine
 10
0.4000020000000001
 20
9.215339999999999
 30
0.0
 11
2.699997
 21
9.215339999999999
 31
0.0
  0
LINE
  5
78
330
1E
100
AcDbEntity
  8
MO_001_VIEW_PV
  6
C_SOLID_M
100
AcDbLine
 10
2.699997
 20
9.25
 30
0.0
 11
2.699997
 21
8.713347999999999
 31
0.0
  0
ARC
  5
79
330
1E
100
AcDbEntity
  8
MO_001_VIEW_PV
  6
C_SOLID_M
100
AcDbCircle
 10
0.4000020000000001
 20
9.650002
 30
0.0
 40
0.4
100
AcDbArc
 50
180.000009
 51
269.999998
  0
ARC
  5
7A
330
1E
100
AcDbEntity
  8
MO_001_VIEW_PV
  6
C_SOLID_M
100
AcDbCircle
 10
0.4000020000000001
 20
9.615341
 30
0.0
 40
0.4
100
AcDbArc
 50
180.000009
 51
269.999998
  0
ARC
  5
7B
330
1E
100
AcDbEntity
  8
MO_001_VIEW_PV
  6
C_SOLID_M
100
AcDbCircle
 10
0.4000020000000001
 20
9.615341
 30
0.0
 40
0.9019879999999998
100
AcDbArc
 50
243.674734
 51
264.420293
  0
LINE
  5
7C
330
1E
100
AcDbEntity
  8
MO_001_VIEW_PV
  6
C_SOLID_M
100
AcDbLine
 10
2.699997
 20
-8.456618999999999
 30
0.0
 11
2.699997
 21
-9.080292
 31
0.0
  0
LINE
  5
7D
330
1E
100
AcDbEntity
  8
MO_001_VIEW_PV
  6
C_SOLID_M
100
AcDbLine
 10
2.699997
 20
6.51078
 30
0.0
 11
2.699997
 21
5.485854999999999
 31
0.0
  0
LINE
  5
7E
330
1E
100
AcDbEntity
  8
MO_001_VIEW_PV
  6
C_SOLID_M
100
AcDbLine
 10
2.699997
 20
3.30854
 30
0.0
 11
2.699997
 21
2.231727999999999
 31
0.0
  0
LINE
  5
7F
330
1E
100
AcDbEntity
  8
MO_001_VIEW_PV
  6
C_SOLID_M
100
AcDbLine
 10
2.699997
 20
-0.4264910000000001
 30
0.0
 11
2.699997
 21
-1.447562999999999
 31
0.0
  0
LINE
  5
80
330
1E
100
AcDbEntity
  8
MO_001_VIEW_PV
  6
C_SOLID_M
100
AcDbLine
 10
2.699997
 20
-3.913857
 30
0.0
 11
2.699997
 21
-5.050491
 31
0.0
  0
LINE
  5
81
330
1E
100
AcDbEntity
  8
MO_001_VIEW_PV
  6
C_SOLID_M
100
AcDbLine
 10
2.699997
 20
-6.779022
 30
0.0
 11
2.699997
 21
-7.725594
 31
0.0
  0
LINE
  5
82
330
1E
100
AcDbEntity
  8
MO_001_VIEW_PV
  6
C_SOLID_M
100
AcDbLine
 10
0.311103
 20
-1.670409999999999
 30
0.0
 11
2.388894
 21
-1.747365999999999
 31
0.0
  0
LINE
  5
83
330
1E
100
AcDbEntity
  8
MO_001_VIEW_PV
  6
C_SOLID_M
100
AcDbLine
 10
0.311101
 20
-0.256129
 30
0.0
 11
2.388892999999999
 21
-0.179174
 31
0.0
  0
LINE
  5
84
330
1E
100
AcDbEntity
  8
MO_001_VIEW_PV
  6
C_SOLID_M
100
AcDbLine
 10
0.311105
 20
-0.203656
 30
0.0
 11
2.388895999999999
 21
-0.126701
 31
0.0
  0
ARC
  5
85
330
1E
100
AcDbEntity
  8
MO_001_VIEW_PV
  6
C_SOLID_M
100
AcDbCircle
 10
2.399993999999999
 20
-0.478966
 30
0.0
 40
0.3
100
AcDbArc
 50
0.0
 51
92.120571
  0
ARC
  5
86
330
1E
100
AcDbEntity
  8
MO_001_VIEW_PV
  6
C_SOLID_M
100
AcDbCircle
 10
2.399993999999999
 20
-0.4264910000000001
 30
0.0
 40
0.3
100
AcDbArc
 50
0.0
 51
92.120571
  0
ARC
  5
87
330
1E
100
AcDbEntity
  8
MO_001_VIEW_PV
  6
C_SOLID_M
100
AcDbCircle
 10
2.399993999999999
 20
-1.447562999999999
 30
0.0
 40
0.3
100
AcDbArc
 50
267.879422
 51
0.0
  0
ARC
  5
88
330
1E
100
AcDbEntity
  8
MO_001_VIEW_PV
  6
C_SOLID_M
100
AcDbCircle
 10
0.300003
 20
0.043671
 30
0.0
 40
0.3
100
AcDbArc
 50
180.000009
 51
272.1205799999999
  0
ARC
  5
89
330
1E
100
AcDbEntity
  8
MO_001_VIEW_PV
  6
C_SOLID_M
100
AcDbCircle
 10
0.300003
 20
0.096138
 30
0.0
 40
0.3
100
AcDbArc
 50
180.000009
 51
272.1205799999999
  0
ARC
  5
8A
330
1E
100
AcDbEntity
  8
MO_001_VIEW_PV
  6
C_SOLID_M
100
AcDbCircle
 10
0.300003
 20
-1.970199999999999
 30
0.0
 40
0.3
100
AcDbArc
 50
87.879427
 51
180.000005
  0
ARC
  5
8B
330
1E
100
AcDbEntity
  8
MO_001_VIEW_PV
  6
C_SOLID_M
100
AcDbCircle
 10
2.399993999999999
 20
2.386856
 30
0.0
 40
0.3
100
AcDbArc
 50
269.999998
 51
0.0
  0
ARC
  5
8C
330
1E
100
AcDbEntity
  8
MO_001_VIEW_PV
  6
C_SOLID_M
100
AcDbCircle
 10
2.399993999999999
 20
2.231727999999999
 30
0.0
 40
0.3
100
AcDbArc
 50
269.999998
 51
0.0
  0
ARC
  5
8D
330
1E
100
AcDbEntity
  8
MO_001_VIEW_PV
  6
C_SOLID_M
100
AcDbCircle
 10
2.399993999999999
 20
3.30854
 30
0.0
 40
0.3
100
AcDbArc
 50
0.0
 51
89.99998900000001
  0
LINE
  5
8E
330
1E
100
AcDbEntity
  8
MO_001_VIEW_PV
  6
C_SOLID_M
100
AcDbLine
 10
0.30089
 20
3.529846
 30
0.0
 11
2.388724999999999
 21
3.608324999999999
 31
0.0
  0
LINE
  5
8F
330
1E
100
AcDbEntity
  8
MO_001_VIEW_PV
  6
C_SOLID_M
100
AcDbLine
 10
0.300892
 20
2.165541999999999
 30
0.0
 11
2.388726999999999
 21
2.087063
 31
0.0
  0
LINE
  5
90
330
1E
100
AcDbEntity
  8
MO_001_VIEW_PV
  6
C_SOLID_M
100
AcDbLine
 10
0.300894
 20
2.010418
 30
0.0
 11
2.388729
 21
1.93194
 31
0.0
  0
ARC
  5
91
330
1E
100
AcDbEntity
  8
MO_001_VIEW_PV
  6
C_SOLID_M
100
AcDbCircle
 10
0.290001
 20
1.720627
 30
0.0
 40
0.29
100
AcDbArc
 50
87.84699000000001
 51
180.000005
  0
ARC
  5
92
330
1E
100
AcDbEntity
  8
MO_001_VIEW_PV
  6
C_SOLID_M
100
AcDbCircle
 10
0.290001
 20
1.875747999999999
 30
0.0
 40
0.29
100
AcDbArc
 50
87.846997
 51
180.000005
  0
ARC
  5
93
330
1E
100
AcDbEntity
  8
MO_001_VIEW_PV
  6
C_SOLID_M
100
AcDbCircle
 10
0.290001
 20
3.819648999999999
 30
0.0
 40
0.29
100
AcDbArc
 50
180.000009
 51
272.1530099999999
  0
ARC
  5
94
330
1E
100
AcDbEntity
  8
MO_001_VIEW_PV
  6
C_SOLID_M
100
AcDbCircle
 10
2.449997
 20
5.821754
 30
0.0
 40
0.25
100
AcDbArc
 50
268.361025
 51
0.0
  0
ARC
  5
95
330
1E
100
AcDbEntity
  8
MO_001_VIEW_PV
  6
C_SOLID_M
100
AcDbCircle
 10
2.449997
 20
6.51078
 30
0.0
 40
0.25
100
AcDbArc
 50
0.0
 51
91.638975
  0
ARC
  5
96
330
1E
100
AcDbEntity
  8
MO_001_VIEW_PV
  6
C_SOLID_M
100
AcDbCircle
 10
2.449997
 20
5.485854999999999
 30
0.0
 40
0.25
100
AcDbArc
 50
268.361025
 51
0.0
  0
LINE
  5
97
330
1E
100
AcDbEntity
  8
MO_001_VIEW_PV
  6
C_SOLID_M
100
AcDbLine
 10
0.257155
 20
6.698135
 30
0.0
 11
2.442852999999999
 21
6.760674999999999
 31
0.0
  0
LINE
  5
98
330
1E
100
AcDbEntity
  8
MO_001_VIEW_PV
  6
C_SOLID_M
100
AcDbLine
 10
0.257154
 20
5.634388999999999
 30
0.0
 11
2.442850999999999
 21
5.571848999999999
 31
0.0
  0
LINE
  5
99
330
1E
100
AcDbEntity
  8
MO_001_VIEW_PV
  6
C_SOLID_M
100
AcDbLine
 10
0.257152
 20
5.29849
 30
0.0
 11
2.442849
 21
5.235949999999999
 31
0.0
  0
ARC
  5
9A
330
1E
100
AcDbEntity
  8
MO_001_VIEW_PV
  6
C_SOLID_M
100
AcDbCircle
 10
0.25
 20
6.948036
 30
0.0
 40
0.25
100
AcDbArc
 50
180.000009
 51
271.638587
  0
ARC
  5
9B
330
1E
100
AcDbEntity
  8
MO_001_VIEW_PV
  6
C_SOLID_M
100
AcDbCircle
 10
0.25
 20
5.384498999999999
 30
0.0
 40
0.25
100
AcDbArc
 50
88.361406
 51
180.000005
  0
ARC
  5
9C
330
1E
100
AcDbEntity
  8
MO_001_VIEW_PV
  6
C_SOLID_M
100
AcDbCircle
 10
0.25
 20
5.048598999999999
 30
0.0
 40
0.25
100
AcDbArc
 50
88.361406
 51
180.000005
  0
ARC
  5
9D
330
1E
100
AcDbEntity
  8
MO_001_VIEW_PV
  6
C_SOLID_M
100
AcDbCircle
 10
2.449997
 20
-4.164848
 30
0.0
 40
0.25
100
AcDbArc
 50
0.0
 51
91.17036199999999
  0
ARC
  5
9E
330
1E
100
AcDbEntity
  8
MO_001_VIEW_PV
  6
C_SOLID_M
100
AcDbCircle
 10
2.449997
 20
-3.913857
 30
0.0
 40
0.25
100
AcDbArc
 50
0.0
 51
91.17036199999999
  0
ARC
  5
9F
330
1E
100
AcDbEntity
  8
MO_001_VIEW_PV
  6
C_SOLID_M
100
AcDbCircle
 10
2.449997
 20
-5.050491
 30
0.0
 40
0.25
100
AcDbArc
 50
268.829638
 51
0.0
  0
LINE
  5
A0
330
1E
100
AcDbEntity
  8
MO_001_VIEW_PV
  6
C_SOLID_M
100
AcDbLine
 10
0.255099
 20
-5.255705999999999
 30
0.0
 11
2.444895999999999
 21
-5.300441999999999
 31
0.0
  0
LINE
  5
A1
330
1E
100
AcDbEntity
  8
MO_001_VIEW_PV
  6
C_SOLID_M
100
AcDbLine
 10
0.255101
 20
-3.95964
 30
0.0
 11
2.44489
 21
-3.914903999999999
 31
0.0
  0
LINE
  5
A2
330
1E
100
AcDbEntity
  8
MO_001_VIEW_PV
  6
C_SOLID_M
100
AcDbLine
 10
0.255101
 20
-3.708641999999999
 30
0.0
 11
2.444891
 21
-3.663905999999999
 31
0.0
  0
ARC
  5
A3
330
1E
100
AcDbEntity
  8
MO_001_VIEW_PV
  6
C_SOLID_M
100
AcDbCircle
 10
0.25
 20
-3.458694
 30
0.0
 40
0.25
100
AcDbArc
 50
180.000009
 51
271.169845
  0
ARC
  5
A4
330
1E
100
AcDbEntity
  8
MO_001_VIEW_PV
  6
C_SOLID_M
100
AcDbCircle
 10
0.25
 20
-3.709686
 30
0.0
 40
0.25
100
AcDbArc
 50
180.000009
 51
271.169845
  0
ARC
  5
A5
330
1E
100
AcDbEntity
  8
MO_001_VIEW_PV
  6
C_SOLID_M
100
AcDbCircle
 10
0.25
 20
-5.505645999999999
 30
0.0
 40
0.25
100
AcDbArc
 50
88.830155
 51
180.000005
  0
ARC
  5
A6
330
1E
100
AcDbEntity
  8
MO_001_VIEW_PV
  6
C_SOLID_M
100
AcDbCircle
 10
2.5
 20
-7.185135
 30
0.0
 40
0.2
100
AcDbArc
 50
0.0
 51
89.99998900000001
  0
ARC
  5
A7
330
1E
100
AcDbEntity
  8
MO_001_VIEW_PV
  6
C_SOLID_M
100
AcDbCircle
 10
2.5
 20
-6.779022
 30
0.0
 40
0.2
100
AcDbArc
 50
0.0
 51
89.99998900000001
  0
ARC
  5
A8
330
1E
100
AcDbEntity
  8
MO_001_VIEW_PV
  6
C_SOLID_M
100
AcDbCircle
 10
2.5
 20
-7.725594
 30
0.0
 40
0.2
100
AcDbArc
 50
269.999998
 51
0.0
  0
LINE
  5
A9
330
1E
100
AcDbEntity
  8
MO_001_VIEW_PV
  6
C_SOLID_M
100
AcDbLine
 10
0.204003
 20
-6.624931
 30
0.0
 11
2.496001999999999
 21
-6.579053999999999
 31
0.0
  0
LINE
  5
AA
330
1E
100
AcDbEntity
  8
MO_001_VIEW_PV
  6
C_SOLID_M
100
AcDbLine
 10
0.204005
 20
-7.031047999999999
 30
0.0
 11
2.495995999999999
 21
-6.985171
 31
0.0
  0
LINE
  5
AB
330
1E
100
AcDbEntity
  8
MO_001_VIEW_PV
  6
C_SOLID_M
100
AcDbLine
 10
0.204
 20
-7.879672
 30
0.0
 11
2.495999
 21
-7.925549
 31
0.0
  0
ARC
  5
AC
330
1E
100
AcDbEntity
  8
MO_001_VIEW_PV
  6
C_SOLID_M
100
AcDbCircle
 10
0.199997
 20
-6.42498
 30
0.0
 40
0.2
100
AcDbArc
 50
180.000009
 51
271.1475509999999
  0
ARC
  5
AD
330
1E
100
AcDbEntity
  8
MO_001_VIEW_PV
  6
C_SOLID_M
100
AcDbCircle
 10
0.199997
 20
-6.831092999999999
 30
0.0
 40
0.2
100
AcDbArc
 50
180.000009
 51
271.1475509999999
  0
ARC
  5
AE
330
1E
100
AcDbEntity
  8
MO_001_VIEW_PV
  6
C_SOLID_M
100
AcDbCircle
 10
0.199997
 20
-8.079636
 30
0.0
 40
0.2
100
AcDbArc
 50
88.85245600000002
 51
180.000005
  0
ARC
  5
AF
330
1E
100
AcDbEntity
  8
MO_001_VIEW_PV
  6
C_SOLID_M
100
AcDbCircle
 10
2.599997999999999
 20
-8.456618999999999
 30
0.0
 40
0.1
100
AcDbArc
 50
0.0
 51
89.99998900000001
  0
ARC
  5
B0
330
1E
100
AcDbEntity
  8
MO_001_VIEW_PV
  6
C_SOLID_M
100
AcDbCircle
 10
2.599997999999999
 20
-9.080292
 30
0.0
 40
0.1
100
AcDbArc
 50
269.999998
 51
0.0
  0
LINE
  5
B1
330
1E
100
AcDbEntity
  8
MO_001_VIEW_PV
  6
C_SOLID_M
100
AcDbLine
 10
0.101156
 20
-9.151464999999999
 30
0.0
 11
2.598845999999999
 21
-9.180289999999999
 31
0.0
  0
LINE
  5
B2
330
1E
100
AcDbEntity
  8
MO_001_VIEW_PV
  6
C_SOLID_M
100
AcDbLine
 10
0.101148
 20
-8.385449000000001
 30
0.0
 11
2.598838
 21
-8.356624
 31
0.0
  0
ARC
  5
B3
330
1E
100
AcDbEntity
  8
MO_001_VIEW_PV
  6
C_SOLID_M
100
AcDbCircle
 10
2.599997999999999
 20
-8.947632
 30
0.0
 40
0.1
100
AcDbArc
 50
0.0
 51
89.99998900000001
  0
LINE
  5
B4
330
1E
100
AcDbEntity
  8
MO_001_VIEW_PV
  6
C_SOLID_M
100
AcDbLine
 10
0.101146
 20
-8.876471
 30
0.0
 11
2.598843
 21
-8.847646000000001
 31
0.0
  0
ARC
  5
B5
330
1E
100
AcDbEntity
  8
MO_001_VIEW_PV
  6
C_SOLID_M
100
AcDbCircle
 10
0.099998
 20
-8.285453999999999
 30
0.0
 40
0.1
100
AcDbArc
 50
180.000009
 51
270.6600669999999
  0
ARC
  5
B6
330
1E
100
AcDbEntity
  8
MO_001_VIEW_PV
  6
C_SOLID_M
100
AcDbCircle
 10
0.099998
 20
-8.776474
 30
0.0
 40
0.1
100
AcDbArc
 50
180.000009
 51
270.6600669999999
  0
ARC
  5
B7
330
1E
100
AcDbEntity
  8
MO_001_VIEW_PV
  6
C_SOLID_M
100
AcDbCircle
 10
0.099998
 20
-9.25145
 30
0.0
 40
0.1
100
AcDbArc
 50
89.339919
 51
180.000005
  0
LINE
  5
B8
330
1E
100
AcDbEntity
  8
MO_001_VIEW_PV
  6
C_SOLID_M
100
AcDbLine
 10
2.699997
 20
8.644019999999999
 30
0.0
 11
2.699997
 21
7.734657
 31
0.0
  0
ARC
  5
B9
330
1E
100
AcDbEntity
  8
MO_001_VIEW_PV
  6
C_SOLID_M
100
AcDbCircle
 10
2.599997999999999
 20
8.644019999999999
 30
0.0
 40
0.1
100
AcDbArc
 50
0.0
 51
89.99998900000001
  0
ARC
  5
BA
330
1E
100
AcDbEntity
  8
MO_001_VIEW_PV
  6
C_SOLID_M
100
AcDbCircle
 10
2.599997999999999
 20
8.193244999999999
 30
0.0
 40
0.1
100
AcDbArc
 50
269.999998
 51
0.0
  0
ARC
  5
BB
330
1E
100
AcDbEntity
  8
MO_001_VIEW_PV
  6
C_SOLID_M
100
AcDbCircle
 10
2.599997999999999
 20
7.734657
 30
0.0
 40
0.1
100
AcDbArc
 50
269.999998
 51
0.0
  0
LINE
  5
BC
330
1E
100
AcDbEntity
  8
MO_001_VIEW_PV
  6
C_SOLID_M
100
AcDbLine
 10
0.101155
 20
7.663489
 30
0.0
 11
2.598845
 21
7.634663
 31
0.0
  0
LINE
  5
BD
330
1E
100
AcDbEntity
  8
MO_001_VIEW_PV
  6
C_SOLID_M
100
AcDbLine
 10
0.101152
 20
8.122071
 30
0.0
 11
2.59885
 21
8.093246
 31
0.0
  0
LINE
  5
BE
330
1E
100
AcDbEntity
  8
MO_001_VIEW_PV
  6
C_SOLID_M
100
AcDbLine
 10
0.101148
 20
8.715184999999999
 30
0.0
 11
2.598838
 21
8.744010000000001
 31
0.0
  0
ARC
  5
BF
330
1E
100
AcDbEntity
  8
MO_001_VIEW_PV
  6
C_SOLID_M
100
AcDbCircle
 10
0.099998
 20
8.815186
 30
0.0
 40
0.1
100
AcDbArc
 50
180.000009
 51
270.6600669999999
  0
ARC
  5
C0
330
1E
100
AcDbEntity
  8
MO_001_VIEW_PV
  6
C_SOLID_M
100
AcDbCircle
 10
0.099998
 20
8.022078999999999
 30
0.0
 40
0.1
100
AcDbArc
 50
89.339919
 51
180.000005
  0
ARC
  5
C1
330
1E
100
AcDbEntity
  8
MO_001_VIEW_PV
  6
C_SOLID_M
100
AcDbCircle
 10
0.099998
 20
7.563492
 30
0.0
 40
0.1
100
AcDbArc
 50
89.339919
 51
180.000005
  0
LINE
  5
C2
330
1E
100
AcDbEntity
  8
MO_001_VIEW_PV
  6
C_SOLID_M
100
AcDbLine
 10
2.418204999999999
 20
-1.748450999999999
 30
0.0
 11
2.418204999999999
 21
-3.665885999999999
 31
0.0
  0
LINE
  5
C3
330
1E
100
AcDbEntity
  8
MO_001_VIEW_PV
  6
C_SOLID_M
100
AcDbLine
 10
2.300002999999999
 20
-7.921630999999999
 30
0.0
 11
2.300002999999999
 21
-8.360069000000001
 31
0.0
  0
LINE
  5
C4
330
1E
100
AcDbEntity
  8
MO_001_VIEW_PV
  6
C_SOLID_M
100
AcDbLine
 10
2.300002999999999
 20
7.638107
 30
0.0
 11
2.300002999999999
 21
6.756591999999999
 31
0.0
  0
LINE
  5
C5
330
1E
100
AcDbEntity
  8
MO_001_VIEW_PV
  6
C_SOLID_M
100
AcDbLine
 10
2.300002999999999
 20
5.240044
 30
0.0
 11
2.300002999999999
 21
3.604995999999999
 31
0.0
  0
LINE
  5
C6
330
1E
100
AcDbEntity
  8
MO_001_VIEW_PV
  6
C_SOLID_M
100
AcDbLine
 10
2.300002999999999
 20
1.935279999999999
 30
0.0
 11
2.300002999999999
 21
-0.12999
 31
0.0
  0
LINE
  5
C7
330
1E
100
AcDbEntity
  8
MO_001_VIEW_PV
  6
C_SOLID_M
100
AcDbLine
 10
2.300002999999999
 20
-1.744063999999999
 30
0.0
 11
2.300002999999999
 21
-3.666869999999999
 31
0.0
  0
LINE
  5
C8
330
1E
100
AcDbEntity
  8
MO_001_VIEW_PV
  6
C_SOLID_M
100
AcDbLine
 10
2.300002999999999
 20
-5.297477999999999
 30
0.0
 11
2.300002999999999
 21
-6.582985
 31
0.0
  0
LINE
  5
C9
330
1E
100
AcDbEntity
  8
MO_001_VIEW_PV
  6
C_SOLID_M
100
AcDbLine
 10
2.300002999999999
 20
7.496002
 30
0.0
 11
2.313133
 21
7.496002
 31
0.0
  0
LINE
  5
CA
330
1E
100
AcDbEntity
  8
MO_001_VIEW_PV
  6
C_SOLID_M
100
AcDbLine
 10
2.366759999999999
 20
4.634002999999999
 30
0.0
 11
2.391936999999999
 21
4.634002999999999
 31
0.0
  0
LINE
  5
CB
330
1E
100
AcDbEntity
  8
MO_001_VIEW_PV
  6
C_SOLID_M
100
AcDbLine
 10
2.393264999999999
 20
3.68
 30
0.0
 11
2.418204999999999
 21
3.68
 31
0.0
  0
LINE
  5
CC
330
1E
100
AcDbEntity
  8
MO_001_VIEW_PV
  6
C_SOLID_M
100
AcDbLine
 10
2.351456
 20
-5.915001
 30
0.0
 11
2.378807
 21
-5.915001
 31
0.0
  0
LINE
  5
CD
330
1E
100
AcDbEntity
  8
MO_001_VIEW_PV
  6
C_SOLID_M
100
AcDbLine
 10
2.300002999999999
 20
-8.150002
 30
0.0
 11
2.326270999999999
 21
-8.150002
 31
0.0
  0
LINE
  5
CE
330
1E
100
AcDbEntity
  8
MO_001_VIEW_PV
  6
C_SOLID_M
100
AcDbLine
 10
2.400824
 20
-1.747811999999999
 30
0.0
 11
2.403493999999999
 21
-3.664748999999999
 31
0.0
  0
LINE
  5
CF
330
1E
100
AcDbEntity
  8
MO_001_VIEW_PV
  6
C_SOLID_M
100
AcDbLine
 10
2.367936
 20
3.607543
 30
0.0
 11
2.366074999999999
 21
5.23815
 31
0.0
  0
LINE
  5
D0
330
1E
100
AcDbEntity
  8
MO_001_VIEW_PV
  6
C_SOLID_M
100
AcDbLine
 10
2.350856999999999
 20
-5.298512999999999
 30
0.0
 11
2.352098999999999
 21
-6.581936999999999
 31
0.0
  0
LINE
  5
D1
330
1E
100
AcDbEntity
  8
MO_001_VIEW_PV
  6
C_SOLID_M
100
AcDbLine
 10
2.313757999999999
 20
6.760649
 30
0.0
 11
2.31314
 21
7.496007999999999
 31
0.0
  0
LINE
  5
D2
330
1E
100
AcDbEntity
  8
MO_001_VIEW_PV
  6
C_SOLID_M
100
AcDbLine
 10
2.319541
 20
-0.129264
 30
0.0
 11
2.317809
 21
1.934609
 31
0.0
  0
LINE
  5
D3
330
1E
100
AcDbEntity
  8
MO_001_VIEW_PV
  6
C_SOLID_M
100
AcDbLine
 10
2.316409999999999
 20
3.600486
 30
0.0
 11
2.315036999999999
 21
5.235899999999999
 31
0.0
  0
LINE
  5
D4
330
1E
100
AcDbEntity
  8
MO_001_VIEW_PV
  6
C_SOLID_M
100
AcDbLine
 10
2.322509999999999
 20
-3.666394999999999
 30
0.0
 11
2.320896999999999
 21
-1.744841
 31
0.0
  0
LINE
  5
D5
330
1E
100
AcDbEntity
  8
MO_001_VIEW_PV
  6
C_SOLID_M
100
AcDbLine
 10
2.326274
 20
-8.149997
 30
0.0
 11
2.326083
 21
-7.922146
 31
0.0
  0
LINE
  5
D6
330
1E
100
AcDbEntity
  8
MO_001_VIEW_PV
  6
C_SOLID_M
100
AcDbLine
 10
2.324958
 20
-6.582478
 30
0.0
 11
2.323879999999999
 21
-5.297962999999999
 31
0.0
  0
LINE
  5
D7
330
1E
100
AcDbEntity
  8
MO_001_VIEW_PV
  6
C_SOLID_M
100
AcDbLine
 10
-17.77062
 20
-29.247659
 30
0.0
 11
-18.584059
 21
-19.950006
 31
0.0
  0
LINE
  5
D8
330
1E
100
AcDbEntity
  8
MO_001_VIEW_PV
  6
C_SOLID_M
100
AcDbLine
 10
-15.77823099999999
 20
-29.073348
 30
0.0
 11
-16.576419
 21
-19.95000899999999
 31
0.0
  0
LINE
  5
D9
330
1E
100
AcDbEntity
  8
MO_001_VIEW_PV
  6
C_SOLID_M
100
AcDbLine
 10
-15.77823099999999
 20
-29.073348
 30
0.0
 11
-17.77062
 21
-29.247659
 31
0.0
  0
LINE
  5
DA
330
1E
100
AcDbEntity
  8
MO_001_VIEW_PV
  6
C_SOLID_M
100
AcDbLine
 10
-17.135606
 20
-34.211202
 30
0.0
 11
-17.57138399999999
 21
-29.230228
 31
0.0
  0
LINE
  5
DB
330
1E
100
AcDbEntity
  8
MO_001_VIEW_PV
  6
C_SOLID_M
100
AcDbLine
 10
-15.54169599999999
 20
-34.071753
 30
0.0
 11
-15.977474
 21
-29.09077899999999
 31
0.0
  0
ARC
  5
DC
330
1E
100
AcDbEntity
  8
MO_001_VIEW_PV
  6
C_SOLID_M
100
AcDbCircle
 10
-16.710976
 20
-34.475182
 30
0.0
 40
0.499994
100
AcDbArc
 50
41.869633
 51
148.1303699999999
  0
ARC
  5
DD
330
1E
100
AcDbEntity
  8
MO_001_VIEW_PV
  6
C_SOLID_M
100
AcDbCircle
 10
-16.763268
 20
-33.87748
 30
0.0
 40
0.499994
100
AcDbArc
 50
221.8696279999999
 51
328.130375
  0
ARC
  5
DE
330
1E
100
AcDbEntity
  8
MO_001_VIEW_PV
  6
C_SOLID_M
100
AcDbCircle
 10
-15.96632399999999
 20
-33.80774699999999
 30
0.0
 40
0.499994
100
AcDbArc
 50
221.8696279999999
 51
328.130348
  0
LINE
  5
DF
330
1E
100
AcDbEntity
  8
MO_001_VIEW_PV
  6
C_SOLID_M
100
AcDbLine
 10
4.618201999999999
 20
1.979995999999999
 30
0.0
 11
4.618201999999999
 21
-1.949997
 31
0.0
  0
LINE
  5
E0
330
1E
100
AcDbEntity
  8
MO_001_VIEW_PV
  6
C_SOLID_M
100
AcDbLine
 10
3.618201999999999
 20
-1.949997
 30
0.0
 11
4.618201999999999
 21
-1.949997
 31
0.0
  0
LINE
  5
E1
330
1E
100
AcDbEntity
  8
MO_001_VIEW_PV
  6
C_SOLID_M
100
AcDbLine
 10
3.618201999999999
 20
1.979995999999999
 30
0.0
 11
4.618201999999999
 21
1.979995999999999
 31
0.0
  0
LINE
  5
E2
330
1E
100
AcDbEntity
  8
MO_001_VIEW_PV
  6
C_SOLID_M
100
AcDbLine
 10
2.340662
 20
5.238881
 30
0.0
 11
2.342241
 21
3.60658
 31
0.0
  0
LINE
  5
E3
330
1E
100
AcDbEntity
  8
MO_001_VIEW_PV
  6
C_SOLID_M
100
AcDbLine
 10
2.372201
 20
-0.127318
 30
0.0
 11
2.369849
 21
1.932648
 31
0.0
  0
LINE
  5
E4
330
1E
100
AcDbEntity
  8
MO_001_VIEW_PV
  6
C_SOLID_M
100
AcDbLine
 10
2.391936999999999
 20
4.634001999999999
 30
0.0
 11
2.393365
 21
3.60849
 31
0.0
  0
LINE
  5
E5
330
1E
100
AcDbEntity
  8
MO_001_VIEW_PV
  6
C_SOLID_M
100
AcDbLine
 10
2.418204999999999
 20
5.236655999999999
 30
0.0
 11
2.418204999999999
 21
3.607985999999999
 31
0.0
  0
LINE
  5
E6
330
1E
100
AcDbEntity
  8
MO_001_VIEW_PV
  6
C_SOLID_M
100
AcDbLine
 10
2.37624
 20
-3.665301999999999
 30
0.0
 11
2.374049999999999
 21
-1.746808
 31
0.0
  0
LINE
  5
E7
330
1E
100
AcDbEntity
  8
MO_001_VIEW_PV
  6
C_SOLID_M
100
AcDbLine
 10
2.3957
 20
1.931665999999999
 30
0.0
 11
2.398566
 21
-0.126346
 31
0.0
  0
LINE
  5
E8
330
1E
100
AcDbEntity
  8
MO_001_VIEW_PV
  6
C_SOLID_M
100
AcDbLine
 10
2.418204999999999
 20
1.932281
 30
0.0
 11
2.418204999999999
 21
-0.127045
 31
0.0
  0
LINE
  5
E9
330
1E
100
AcDbEntity
  8
MO_001_VIEW_PV
  6
C_SOLID_M
100
AcDbLine
 10
2.343859999999999
 20
1.933629999999999
 30
0.0
 11
2.345854999999999
 21
-0.128289
 31
0.0
  0
LINE
  5
EA
330
1E
100
AcDbEntity
  8
MO_001_VIEW_PV
  6
C_SOLID_M
100
AcDbLine
 10
2.34742
 20
-1.745818999999999
 30
0.0
 11
2.349276999999999
 21
-3.665853999999999
 31
0.0
  0
LINE
  5
EB
330
1E
100
AcDbEntity
  8
MO_001_VIEW_PV
  6
C_SOLID_M
100
AcDbLine
 10
2.378808999999999
 20
-5.914994999999999
 30
0.0
 11
2.378106
 21
-5.299075
 31
0.0
  0
LINE
  5
EC
330
1E
100
AcDbEntity
  8
MO_001_VIEW_PV
  6
C_SOLID_M
100
AcDbLine
 10
3.618201999999999
 20
6.349998
 30
0.0
 11
3.618201999999999
 21
-6.349998
 31
0.0
  0
LINE
  5
ED
330
1E
100
AcDbEntity
  8
MO_001_VIEW_PV
  6
C_SOLID_M
100
AcDbLine
 10
2.699997
 20
6.349998
 30
0.0
 11
3.618201999999999
 21
6.349998
 31
0.0
  0
LINE
  5
EE
330
1E
100
AcDbEntity
  8
MO_001_VIEW_PV
  6
C_SOLID_M
100
AcDbLine
 10
2.418204999999999
 20
-6.349998
 30
0.0
 11
3.618201999999999
 21
-6.349998
 31
0.0
  0
LINE
  5
EF
330
1E
100
AcDbEntity
  8
MO_001_VIEW_PV
  6
C_SOLID_M
100
AcDbLine
 10
2.418204999999999
 20
-6.349998
 30
0.0
 11
2.418204999999999
 21
-5.299895999999999
 31
0.0
  0
LINE
  5
F0
330
1E
100
AcDbEntity
  8
MO_001_VIEW_PV
  6
C_SOLID_M
100
AcDbLine
 10
-9.099997999999999
 20
19.949997
 30
0.0
 11
-9.099997999999999
 21
-19.949997
 31
0.0
  0
LINE
  5
F1
330
1E
100
AcDbEntity
  8
MO_001_VIEW_PV
  6
C_SOLID_M
100
AcDbLine
 10
-25.5
 20
17.5
 30
0.0
 11
-25.5
 21
-17.5
 31
0.0
  0
ARC
  5
F2
330
1E
100
AcDbEntity
  8
MO_001_VIEW_PV
  6
C_SOLID_M
100
AcDbCircle
 10
-23.699997
 20
17.5
 30
0.0
 40
1.8
100
AcDbArc
 50
100.753965
 51
180.000005
  0
LINE
  5
F3
330
1E
100
AcDbEntity
  8
MO_001_VIEW_PV
  6
C_SOLID_M
100
AcDbLine
 10
-24.07970699999999
 20
19.259493
 30
0.0
 11
-21.349267
 21
19.848736
 31
0.0
  0
ARC
  5
F4
330
1E
100
AcDbEntity
  8
MO_001_VIEW_PV
  6
C_SOLID_M
100
AcDbCircle
 10
-20.399994
 20
15.44999699999999
 30
0.0
 40
4.5
100
AcDbArc
 50
90.000002
 51
102.177963
  0
LINE
  5
F5
330
1E
100
AcDbEntity
  8
MO_001_VIEW_PV
  6
C_SOLID_M
100
AcDbLine
 10
-20.399994
 20
19.949997
 30
0.0
 11
-9.099997999999999
 21
19.949997
 31
0.0
  0
ARC
  5
F6
330
1E
100
AcDbEntity
  8
MO_001_VIEW_PV
  6
C_SOLID_M
100
AcDbCircle
 10
-23.699997
 20
-17.5
 30
0.0
 40
1.8
100
AcDbArc
 50
179.9999909999999
 51
259.2460319999999
  0
LINE
  5
F7
330
1E
100
AcDbEntity
  8
MO_001_VIEW_PV
  6
C_SOLID_M
100
AcDbLine
 10
-24.079713
 20
-19.25950499999999
 30
0.0
 11
-21.349274
 21
-19.848748
 31
0.0
  0
ARC
  5
F8
330
1E
100
AcDbEntity
  8
MO_001_VIEW_PV
  6
C_SOLID_M
100
AcDbCircle
 10
-20.399994
 20
-15.44999699999999
 30
0.0
 40
4.5
100
AcDbArc
 50
257.822037
 51
269.999998
  0
LINE
  5
F9
330
1E
100
AcDbEntity
  8
MO_001_VIEW_PV
  6
C_SOLID_M
100
AcDbLine
 10
-20.399994
 20
-19.949997
 30
0.0
 11
-9.099997999999999
 21
-19.949997
 31
0.0
  0
LINE
  5
FA
330
1E
100
AcDbEntity
  8
MO_001_VIEW_PV
  6
C_SOLID_M
100
AcDbLine
 10
-20.399994
 20
19.252861
 30
0.0
 11
-20.399994
 21
-18.966293
 31
0.0
  0
TEXT
  5
FB
330
1E
100
AcDbEntity
  8
MO_001_VIEW_PV
  6
C_SOLID_L
100
AcDbText
 10
-44.34477199999999
 20
-49.896887
 30
0.0
 40
4.167187
  1
4E X4・X8・X9付
100
AcDbText
  0
TEXT
  5
FC
330
1E
100
AcDbEntity
  8
MO_001_VIEW_PV
  6
C_SOLID_L
100
AcDbText
 10
9.655227999999999
 20
-55.89688699999999
 30
0.0
 40
4.167187
  1
単位：mm
100
AcDbText
  0
TEXT
  5
FD
330
1E
100
AcDbEntity
  8
MO_001_VIEW_PV
  6
C_SOLID_L
100
AcDbText
 10
9.655227999999999
 20
-62.147668
 30
0.0
 40
4.167187
  1
無励磁時
100
AcDbText
  0
DIMENSION
  5
FF
330
1E
100
AcDbEntity
  8
MO_001_VIEW_PV
  6
C_SOLID_M
100
AcDbDimension
  2
*D0
 10
-42.0
 20
0.0
 30
0.0
 11
-42.0
 21
0.0
 31
0.0
  1
%%C42以下
  3
STANDARD
100
AcDbAlignedDimension
 13
-20.399994
 23
19.949997
 33
0.0
 14
-20.399994
 24
-19.949997
 34
0.0
 50
89.999523
100
AcDbRotatedDimension
  0
DIMENSION
  5
101
330
1E
100
AcDbEntity
  8
MO_001_VIEW_PV
  6
C_SOLID_M
100
AcDbDimension
  2
*D1
 10
-12.75
 20
27.0
 30
0.0
 11
-12.75
 21
27.0
 31
0.0
  1
26以下
  3
STANDARD
100
AcDbAlignedDimension
 13
0.0
 23
17.5
 33
0.0
 14
-25.5
 24
17.5
 34
0.0
100
AcDbRotatedDimension
  0
DIMENSION
  5
103
330
1E
100
AcDbEntity
  8
MO_001_VIEW_PV
  6
C_SOLID_M
100
AcDbDimension
  2
*D2
 10
13.628395
 20
27.0
 30
0.0
 11
13.628395
 21
27.0
 31
0.0
  1
5以下
  3
STANDARD
100
AcDbAlignedDimension
 13
0.0
 23
17.5
 33
0.0
 14
4.618201999999999
 24
1.979995999999999
 34
0.0
100
AcDbRotatedDimension
  0
ENDSEC
  0
SECTION
  2
OBJECTS
  0
DICTIONARY
  5
1A
330
0
100
AcDbDictionary
  3
ACAD_GROUP
350
1B
  3
ACAD_MLINESTYLE
350
1C
  3
ACAD_LAYOUT
350
126
  3
ACAD_PLOTSETTINGS
350
127
1001
ACAD
1000
TREAT_AS_HARD
1070
     0
  0
DICTIONARY
  5
12C
330
1E
100
AcDbDictionary
  3
ACAD_LAYOUTSELFREF
350
12D
  0
DICTIONARY
  5
12E
330
1F
100
AcDbDictionary
  3
ACAD_LAYOUTSELFREF
350
12F
  0
DICTIONARY
  5
1B
102
{ACAD_REACTORS
330
1A
102
}
330
1A
100
AcDbDictionary
1001
ACAD
1000
TREAT_AS_HARD
1070
     0
  0
DICTIONARY
  5
1C
102
{ACAD_REACTORS
330
1A
102
}
330
1A
100
AcDbDictionary
  3
STANDARD
350
1D
1001
ACAD
1000
TREAT_AS_HARD
1070
     0
  0
DICTIONARY
  5
126
102
{ACAD_REACTORS
330
1A
102
}
330
1A
100
AcDbDictionary
1001
ACAD
1000
TREAT_AS_HARD
1070
     0
  0
DICTIONARY
  5
127
102
{ACAD_REACTORS
330
1A
102
}
330
1A
100
AcDbDictionary
1001
ACAD
1000
TREAT_AS_HARD
1070
     0
  0
XRECORD
  5
12D
102
{ACAD_REACTORS
330
12C
102
}
330
12C
100
AcDbXrecord
340
1E
  0
XRECORD
  5
12F
102
{ACAD_REACTORS
330
12E
102
}
330
12E
100
AcDbXrecord
340
1F
  0
MLINESTYLE
  5
1D
102
{ACAD_REACTORS
330
1C
102
}
330
1C
100
AcDbMlineStyle
  2
STANDARD
 70
     0
  3

 62
     0
 51
90.0
 52
90.0
 71
     2
 49
0.5
 62
   256
  6
BYLAYER
 49
-0.5
 62
   256
  6
BYLAYER
  0
ENDSEC
  0
EOF
