  0
SECTION
  2
HEADER
  9
$ACADVER
  1
AC1012
  9
$DWGCODEPAGE
  3
dos932
  9
$INSBASE
 10
0.0
 20
0.0
 30
0.0
  9
$EXTMIN
 10
-42.78024312735124
 20
-65.33657098109279
 30
-0.0015258207003583
  9
$EXTMAX
 10
91.50428634116957
 20
40.13248583301299
 30
0.0000000349246037
  9
$LIMMIN
 10
-42.77607699999999
 20
-68.45976999999999
  9
$LIMMAX
 10
93.75
 20
42.0
  9
$ORTHOMODE
 70
     0
  9
$REGENMODE
 70
     1
  9
$FILLMODE
 70
     1
  9
$QTEXTMODE
 70
     0
  9
$MIRRTEXT
 70
     1
  9
$DRAGMODE
 70
     2
  9
$LTSCALE
 40
1.0
  9
$OSMODE
 70
    37
  9
$ATTMODE
 70
     1
  9
$TEXTSIZE
 40
4.1672
  9
$TRACEWID
 40
0.05
  9
$TEXTSTYLE
  7
STANDARD
  9
$CLAYER
  8
0
  9
$CELTYPE
  6
CONTINUOUS
  9
$CECOLOR
 62
   256
  9
$CELTSCALE
 40
1.0
  9
$DELOBJ
 70
     1
  9
$DISPSILH
 70
     0
  9
$DIMSCALE
 40
1.0
  9
$DIMASZ
 40
0.18
  9
$DIMEXO
 40
0.0625
  9
$DIMDLI
 40
0.38
  9
$DIMRND
 40
0.0
  9
$DIMDLE
 40
0.0
  9
$DIMEXE
 40
0.18
  9
$DIMTP
 40
0.0
  9
$DIMTM
 40
0.0
  9
$DIMTXT
 40
0.18
  9
$DIMCEN
 40
0.09
  9
$DIMTSZ
 40
0.0
  9
$DIMTOL
 70
     0
  9
$DIMLIM
 70
     0
  9
$DIMTIH
 70
     1
  9
$DIMTOH
 70
     1
  9
$DIMSE1
 70
     0
  9
$DIMSE2
 70
     0
  9
$DIMTAD
 70
     0
  9
$DIMZIN
 70
     0
  9
$DIMBLK
  1

  9
$DIMASO
 70
     1
  9
$DIMSHO
 70
     1
  9
$DIMPOST
  1

  9
$DIMAPOST
  1

  9
$DIMALT
 70
     0
  9
$DIMALTD
 70
     2
  9
$DIMALTF
 40
25.4
  9
$DIMLFAC
 40
1.0
  9
$DIMTOFL
 70
     0
  9
$DIMTVP
 40
0.0
  9
$DIMTIX
 70
     0
  9
$DIMSOXD
 70
     0
  9
$DIMSAH
 70
     0
  9
$DIMBLK1
  1

  9
$DIMBLK2
  1

  9
$DIMSTYLE
  2
STANDARD
  9
$DIMCLRD
 70
     0
  9
$DIMCLRE
 70
     0
  9
$DIMCLRT
 70
     0
  9
$DIMTFAC
 40
1.0
  9
$DIMGAP
 40
0.09
  9
$DIMJUST
 70
     0
  9
$DIMSD1
 70
     0
  9
$DIMSD2
 70
     0
  9
$DIMTOLJ
 70
     1
  9
$DIMTZIN
 70
     0
  9
$DIMALTZ
 70
     0
  9
$DIMALTTZ
 70
     0
  9
$DIMFIT
 70
     3
  9
$DIMUPT
 70
     0
  9
$DIMUNIT
 70
     2
  9
$DIMDEC
 70
     4
  9
$DIMTDEC
 70
     4
  9
$DIMALTU
 70
     2
  9
$DIMALTTD
 70
     2
  9
$DIMTXSTY
  7
STANDARD
  9
$DIMAUNIT
 70
     0
  9
$LUNITS
 70
     2
  9
$LUPREC
 70
     6
  9
$SKETCHINC
 40
0.1
  9
$FILLETRAD
 40
0.0
  9
$AUNITS
 70
     0
  9
$AUPREC
 70
     4
  9
$MENU
  1
acad
  9
$ELEVATION
 40
0.0
  9
$PELEVATION
 40
0.0
  9
$THICKNESS
 40
0.0
  9
$LIMCHECK
 70
     0
  9
$BLIPMODE
 70
     0
  9
$CHAMFERA
 40
0.0
  9
$CHAMFERB
 40
0.0
  9
$CHAMFERC
 40
0.0
  9
$CHAMFERD
 40
0.0
  9
$SKPOLY
 70
     0
  9
$TDCREATE
 40
2376123.569110312
  9
$TDUPDATE
 40
2451687.691540509
  9
$TDINDWG
 40
0.0006337963
  9
$TDUSRTIMER
 40
0.0006332176
  9
$USRTIMER
 70
     1
  9
$ANGBASE
 50
0.0
  9
$ANGDIR
 70
     0
  9
$PDMODE
 70
     0
  9
$PDSIZE
 40
0.0
  9
$PLINEWID
 40
0.0
  9
$COORDS
 70
     1
  9
$SPLFRAME
 70
     0
  9
$SPLINETYPE
 70
     6
  9
$SPLINESEGS
 70
     8
  9
$ATTDIA
 70
     0
  9
$ATTREQ
 70
     1
  9
$HANDLING
 70
 10241
  9
$HANDSEED
  5
2AB
  9
$SURFTAB1
 70
     6
  9
$SURFTAB2
 70
     6
  9
$SURFTYPE
 70
     6
  9
$SURFU
 70
     6
  9
$SURFV
 70
     6
  9
$UCSNAME
  2

  9
$UCSORG
 10
0.0
 20
0.0
 30
0.0
  9
$UCSXDIR
 10
1.0
 20
0.0
 30
0.0
  9
$UCSYDIR
 10
0.0
 20
1.0
 30
0.0
  9
$PUCSNAME
  2

  9
$PUCSORG
 10
0.0
 20
0.0
 30
0.0
  9
$PUCSXDIR
 10
1.0
 20
0.0
 30
0.0
  9
$PUCSYDIR
 10
0.0
 20
1.0
 30
0.0
  9
$USERI1
 70
     0
  9
$USERI2
 70
     0
  9
$USERI3
 70
     0
  9
$USERI4
 70
     0
  9
$USERI5
 70
     0
  9
$USERR1
 40
0.0
  9
$USERR2
 40
0.0
  9
$USERR3
 40
0.0
  9
$USERR4
 40
0.0
  9
$USERR5
 40
0.0
  9
$WORLDVIEW
 70
     1
  9
$SHADEDGE
 70
     3
  9
$SHADEDIF
 70
    70
  9
$TILEMODE
 70
     1
  9
$MAXACTVP
 70
    16
  9
$PINSBASE
 10
0.0
 20
0.0
 30
0.0
  9
$PLIMCHECK
 70
     0
  9
$PEXTMIN
 10
-42.77607699999999
 20
-68.45976999999999
 30
1.000000000000000E+20
  9
$PEXTMAX
 10
93.75
 20
42.0
 30
-1.000000000000000E+20
  9
$PLIMMIN
 10
0.0
 20
0.0
  9
$PLIMMAX
 10
12.0
 20
9.0
  9
$UNITMODE
 70
     0
  9
$VISRETAIN
 70
     0
  9
$PLINEGEN
 70
     0
  9
$PSLTSCALE
 70
     1
  9
$TREEDEPTH
 70
  3020
  9
$PICKSTYLE
 70
     1
  9
$CMLSTYLE
  2
STANDARD
  9
$CMLJUST
 70
     0
  9
$CMLSCALE
 40
1.0
  9
$SAVEIMAGES
 70
     1
  0
ENDSEC
  0
SECTION
  2
CLASSES
  0
CLASS
  1
ACDBDICTIONARYWDFLT
  2
AcDbDictionaryWithDefault
  3
AutoCAD 2000
 90
    32768
280
     0
281
     0
  0
CLASS
  1
ACDBPLACEHOLDER
  2
AcDbPlaceHolder
  3
AutoCAD 2000
 90
    32768
280
     0
281
     0
  0
CLASS
  1
LAYOUT
  2
AcDbLayout
  3
AutoCAD 2000
 90
    32768
280
     0
281
     0
  0
CLASS
  1
LONG_TRANSACTION
  2
AcDbLongTransaction
  3
AutoCAD 2000
 90
    32768
280
     0
281
     0
  0
CLASS
  1
LWPOLYLINE
  2
AcDbPolyline
  3
AutoCAD 2000
 90
    32768
280
     0
281
     1
  0
CLASS
  1
HATCH
  2
AcDbHatch
  3
AutoCAD 2000
 90
    32768
280
     0
281
     1
  0
CLASS
  1
XRECORD
  2
AcDbXrecord
  3
AutoCAD 2000
 90
    32768
280
     0
281
     0
  0
ENDSEC
  0
SECTION
  2
TABLES
  0
TABLE
  2
VPORT
  5
7
330
0
100
AcDbSymbolTable
 70
     2
  0
VPORT
  5
2A2
330
7
100
AcDbSymbolTableRecord
100
AcDbViewportTableRecord
  2
*ACTIVE
 70
     0
 10
0.0
 20
0.0
 11
1.0
 21
1.0
 12
25.48487843632437
 22
-13.22988499999999
 13
0.0
 23
0.0
 14
6.349999999999999
 24
6.349999999999999
 15
6.349999999999999
 25
6.349999999999999
 16
0.0
 26
0.0
 36
1.0
 17
0.0
 27
0.0
 37
0.0
 40
111.602457275862
 41
1.644214162348877
 42
50.0
 43
0.0
 44
0.0
 50
0.0
 51
0.0
 71
     0
 72
   100
 73
     1
 74
     1
 75
     0
 76
     0
 77
     0
 78
     0
  0
ENDTAB
  0
TABLE
  2
LTYPE
  5
4
330
0
100
AcDbSymbolTable
 70
    37
  0
LTYPE
  5
12
330
4
100
AcDbSymbolTableRecord
100
AcDbLinetypeTableRecord
  2
BYBLOCK
 70
     0
  3

 72
    65
 73
     0
 40
0.0
  0
LTYPE
  5
13
330
4
100
AcDbSymbolTableRecord
100
AcDbLinetypeTableRecord
  2
BYLAYER
 70
     0
  3

 72
    65
 73
     0
 40
0.0
  0
LTYPE
  5
14
330
4
100
AcDbSymbolTableRecord
100
AcDbLinetypeTableRecord
  2
CONTINUOUS
 70
     0
  3
DXF Default line type
 72
    65
 73
     0
 40
0.0
  0
LTYPE
  5
20
330
4
100
AcDbSymbolTableRecord
100
AcDbLinetypeTableRecord
  2
DASHED
 70
     0
  3
DXF Dashed
 72
    65
 73
     2
 40
0.75
 49
0.5
 74
     0
 49
-0.25
 74
     0
  0
LTYPE
  5
21
330
4
100
AcDbSymbolTableRecord
100
AcDbLinetypeTableRecord
  2
HIDDEN
 70
     0
  3
DXF Hidden
 72
    65
 73
     2
 40
0.375
 49
0.25
 74
     0
 49
-0.125
 74
     0
  0
LTYPE
  5
22
330
4
100
AcDbSymbolTableRecord
100
AcDbLinetypeTableRecord
  2
CENTER
 70
     0
  3
DXF Center
 72
    65
 73
     4
 40
2.0
 49
1.25
 74
     0
 49
-0.25
 74
     0
 49
0.25
 74
     0
 49
-0.25
 74
     0
  0
LTYPE
  5
23
330
4
100
AcDbSymbolTableRecord
100
AcDbLinetypeTableRecord
  2
PHANTOM
 70
     0
  3
DXF Phantom
 72
    65
 73
     6
 40
2.5
 49
1.25
 74
     0
 49
-0.25
 74
     0
 49
0.25
 74
     0
 49
-0.25
 74
     0
 49
0.25
 74
     0
 49
-0.25
 74
     0
  0
LTYPE
  5
24
330
4
100
AcDbSymbolTableRecord
100
AcDbLinetypeTableRecord
  2
DOT
 70
     0
  3
DXF DOT
 72
    65
 73
     2
 40
0.25
 49
0.0
 74
     0
 49
-0.25
 74
     0
  0
LTYPE
  5
25
330
4
100
AcDbSymbolTableRecord
100
AcDbLinetypeTableRecord
  2
DASHDOT
 70
     0
  3
DXF Dash Dot
 72
    65
 73
     4
 40
1.0
 49
0.5
 74
     0
 49
-0.25
 74
     0
 49
0.0
 74
     0
 49
-0.25
 74
     0
  0
LTYPE
  5
26
330
4
100
AcDbSymbolTableRecord
100
AcDbLinetypeTableRecord
  2
BORDER
 70
     0
  3
DXF Border
 72
    65
 73
     6
 40
1.75
 49
0.5
 74
     0
 49
-0.25
 74
     0
 49
0.5
 74
     0
 49
-0.25
 74
     0
 49
0.0
 74
     0
 49
-0.25
 74
     0
  0
LTYPE
  5
27
330
4
100
AcDbSymbolTableRecord
100
AcDbLinetypeTableRecord
  2
DIVIDE
 70
     0
  3
DXF Divide
 72
    65
 73
     6
 40
1.25
 49
0.5
 74
     0
 49
-0.25
 74
     0
 49
0.0
 74
     0
 49
-0.25
 74
     0
 49
0.0
 74
     0
 49
-0.25
 74
     0
  0
LTYPE
  5
28
330
4
100
AcDbSymbolTableRecord
100
AcDbLinetypeTableRecord
  2
C_SOLID_L
 70
     0
  3
CADAM Solid Light
 72
    65
 73
     0
 40
0.0
  0
LTYPE
  5
29
330
4
100
AcDbSymbolTableRecord
100
AcDbLinetypeTableRecord
  2
C_SOLID_M
 70
     0
  3
CADAM Solid Medium
 72
    65
 73
     0
 40
0.0
  0
LTYPE
  5
2A
330
4
100
AcDbSymbolTableRecord
100
AcDbLinetypeTableRecord
  2
C_SOLID_H
 70
     0
  3
CADAM Solid Heavy
 72
    65
 73
     0
 40
0.0
  0
LTYPE
  5
2B
330
4
100
AcDbSymbolTableRecord
100
AcDbLinetypeTableRecord
  2
C_DASHED_L
 70
     0
  3
CADAM Dashed Light
 72
    65
 73
     2
 40
0.375
 49
0.25
 74
     0
 49
-0.125
 74
     0
  0
LTYPE
  5
2C
330
4
100
AcDbSymbolTableRecord
100
AcDbLinetypeTableRecord
  2
C_DASHED_M
 70
     0
  3
CADAM Dashed Medium
 72
    65
 73
     2
 40
0.5
 49
0.375
 74
     0
 49
-0.125
 74
     0
  0
LTYPE
  5
2D
330
4
100
AcDbSymbolTableRecord
100
AcDbLinetypeTableRecord
  2
C_CENTER_L
 70
     0
  3
CADAM Center Light
 72
    65
 73
     4
 40
2.0
 49
1.25
 74
     0
 49
-0.25
 74
     0
 49
0.25
 74
     0
 49
-0.25
 74
     0
  0
LTYPE
  5
2E
330
4
100
AcDbSymbolTableRecord
100
AcDbLinetypeTableRecord
  2
C_PHANTOM_L
 70
     0
  3
CADAM Phantom Light
 72
    65
 73
     6
 40
2.5
 49
1.25
 74
     0
 49
-0.25
 74
     0
 49
0.25
 74
     0
 49
-0.25
 74
     0
 49
0.25
 74
     0
 49
-0.25
 74
     0
  0
LTYPE
  5
2F
330
4
100
AcDbSymbolTableRecord
100
AcDbLinetypeTableRecord
  2
C_BREAK_M
 70
     0
  3
CADAM Break Medium
 72
    65
 73
     4
 40
1.0
 49
0.5
 74
     0
 49
-0.25
 74
     0
 49
0.0
 74
     0
 49
-0.25
 74
     0
  0
LTYPE
  5
30
330
4
100
AcDbSymbolTableRecord
100
AcDbLinetypeTableRecord
  2
C_NC
 70
     0
  3
CADAM NC
 72
    65
 73
     0
 40
0.0
  0
LTYPE
  5
31
330
4
100
AcDbSymbolTableRecord
100
AcDbLinetypeTableRecord
  2
DSH1
 70
     0
  3
CADAM Style2 Type 1 Dashed Line
 72
    65
 73
     2
 40
0.075
 49
0.04
 74
     0
 49
-0.035
 74
     0
  0
LTYPE
  5
32
330
4
100
AcDbSymbolTableRecord
100
AcDbLinetypeTableRecord
  2
DSH2
 70
     0
  3
CADAM Style2 Type 2 Dashed Line
 72
    65
 73
     2
 40
0.15
 49
0.11
 74
     0
 49
-0.04
 74
     0
  0
LTYPE
  5
33
330
4
100
AcDbSymbolTableRecord
100
AcDbLinetypeTableRecord
  2
DSH3
 70
     0
  3
CADAM Style2 Type 3 Dashed Line
 72
    65
 73
     2
 40
0.2
 49
0.15
 74
     0
 49
-0.05
 74
     0
  0
LTYPE
  5
34
330
4
100
AcDbSymbolTableRecord
100
AcDbLinetypeTableRecord
  2
DSH4
 70
     0
  3
CADAM Style2 Type 4 Dashed Line
 72
    65
 73
     2
 40
0.36
 49
0.28
 74
     0
 49
-0.08
 74
     0
  0
LTYPE
  5
35
330
4
100
AcDbSymbolTableRecord
100
AcDbLinetypeTableRecord
  2
DSH5
 70
     0
  3
CADAM Style2 Type 5 Dashed Line
 72
    65
 73
     2
 40
0.47
 49
0.39
 74
     0
 49
-0.08
 74
     0
  0
LTYPE
  5
36
330
4
100
AcDbSymbolTableRecord
100
AcDbLinetypeTableRecord
  2
DSH6
 70
     0
  3
CADAM Style2 Type 6 Dashed Line
 72
    65
 73
     2
 40
0.9
 49
0.8100000000000001
 74
     0
 49
-0.09
 74
     0
  0
LTYPE
  5
37
330
4
100
AcDbSymbolTableRecord
100
AcDbLinetypeTableRecord
  2
PL1
 70
     0
  3
Style 2 Type 1 Phantom Line
 72
    65
 73
     6
 40
1.0
 49
0.6
 74
     0
 49
-0.08
 74
     0
 49
0.08
 74
     0
 49
-0.08
 74
     0
 49
0.08
 74
     0
 49
-0.08
 74
     0
  0
LTYPE
  5
38
330
4
100
AcDbSymbolTableRecord
100
AcDbLinetypeTableRecord
  2
PL2
 70
     0
  3
Style 2 Type 2 Phantom Line
 72
    65
 73
     6
 40
1.08
 49
0.6
 74
     0
 49
-0.08
 74
     0
 49
0.12
 74
     0
 49
-0.08
 74
     0
 49
0.12
 74
     0
 49
-0.08
 74
     0
  0
LTYPE
  5
39
330
4
100
AcDbSymbolTableRecord
100
AcDbLinetypeTableRecord
  2
PL3
 70
     0
  3
Style 2 Type 3 Phantom Line
 72
    65
 73
     6
 40
2.0
 49
1.439999999999999
 74
     0
 49
-0.08
 74
     0
 49
0.16
 74
     0
 49
-0.08
 74
     0
 49
0.16
 74
     0
 49
-0.08
 74
     0
  0
LTYPE
  5
3A
330
4
100
AcDbSymbolTableRecord
100
AcDbLinetypeTableRecord
  2
CL1
 70
     0
  3
CADAM Style 2 Type 1 Center Line
 72
    65
 73
     4
 40
0.7
 49
0.45
 74
     0
 49
-0.06
 74
     0
 49
0.13
 74
     0
 49
-0.06
 74
     0
  0
LTYPE
  5
3B
330
4
100
AcDbSymbolTableRecord
100
AcDbLinetypeTableRecord
  2
CL2
 70
     0
  3
CADAM Style 2 Type 2 Center Line
 72
    65
 73
     4
 40
1.199999999999999
 49
1.01
 74
     0
 49
-0.06
 74
     0
 49
0.11
 74
     0
 49
-0.06
 74
     0
  0
LTYPE
  5
3C
330
4
100
AcDbSymbolTableRecord
100
AcDbLinetypeTableRecord
  2
CL3
 70
     0
  3
CADAM Style 2 Type 3 Center Line
 72
    65
 73
     4
 40
1.199999999999999
 49
0.98
 74
     0
 49
-0.06
 74
     0
 49
0.1
 74
     0
 49
-0.06
 74
     0
  0
LTYPE
  5
3D
330
4
100
AcDbSymbolTableRecord
100
AcDbLinetypeTableRecord
  2
CL4
 70
     0
  3
CADAM Style 2 Type 4 Center Line
 72
    65
 73
     4
 40
2.2
 49
1.929999999999999
 74
     0
 49
-0.07
 74
     0
 49
0.13
 74
     0
 49
-0.07
 74
     0
  0
LTYPE
  5
3E
330
4
100
AcDbSymbolTableRecord
100
AcDbLinetypeTableRecord
  2
CL5
 70
     0
  3
CADAM Style 2 Type 5 Center Line
 72
    65
 73
     4
 40
2.2
 49
1.879999999999999
 74
     0
 49
-0.07
 74
     0
 49
0.18
 74
     0
 49
-0.07
 74
     0
  0
LTYPE
  5
3F
330
4
100
AcDbSymbolTableRecord
100
AcDbLinetypeTableRecord
  2
SBK1
 70
     0
  3
CADAM Style 2 Type 1 SetBack Line
 72
    65
 73
     8
 40
2.7
 49
0.1
 74
     0
 49
-0.08
 74
     0
 49
0.1
 74
     0
 49
-0.8
 74
     0
 49
0.0
 74
     0
 49
0.0
 74
     0
 49
0.0
 74
     0
 49
0.0
 74
     0
  0
LTYPE
  5
40
330
4
100
AcDbSymbolTableRecord
100
AcDbLinetypeTableRecord
  2
SBK2
 70
     0
  3
CADAM Style 2 Type 2 SetBack Line
 72
    65
 73
     8
 40
3.709999999999999
 49
0.13
 74
     0
 49
-0.08
 74
     0
 49
0.13
 74
     0
 49
-0.8
 74
     0
 49
0.0
 74
     0
 49
0.0
 74
     0
 49
0.0
 74
     0
 49
0.0
 74
     0
  0
LTYPE
  5
41
330
4
100
AcDbSymbolTableRecord
100
AcDbLinetypeTableRecord
  2
STCH
 70
     0
  3
CADAM Style2 Stitch Line
 72
    65
 73
     2
 40
0.25
 49
0.0
 74
     0
 49
-0.25
 74
     0
  0
LTYPE
  5
42
330
4
100
AcDbSymbolTableRecord
100
AcDbLinetypeTableRecord
  2
MTCH
 70
     0
  3
CADAM Style2 Match Line
 72
    65
 73
     6
 40
2.0
 49
1.439999999999999
 74
     0
 49
-0.8
 74
     0
 49
0.16
 74
     0
 49
-0.08
 74
     0
 49
0.16
 74
     0
 49
-0.08
 74
     0
  0
LTYPE
  5
43
330
4
100
AcDbSymbolTableRecord
100
AcDbLinetypeTableRecord
  2
SLD
 70
     0
  3
CADAM Solid_EXT2
 72
    65
 73
     0
 40
0.0
  0
ENDTAB
  0
TABLE
  2
LAYER
  5
2
330
0
100
AcDbSymbolTable
 70
     7
  0
LAYER
  5
15
330
2
100
AcDbSymbolTableRecord
100
AcDbLayerTableRecord
  2
0
 70
     0
 62
     7
  6
CONTINUOUS
  0
LAYER
  5
44
330
2
100
AcDbSymbolTableRecord
100
AcDbLayerTableRecord
  2
MO_001_NOSHOW
 70
     1
 62
     7
  6
CONTINUOUS
  0
LAYER
  5
45
330
2
100
AcDbSymbolTableRecord
100
AcDbLayerTableRecord
  2
MO_001_VIEW_PV
 70
     0
 62
     7
  6
CONTINUOUS
  0
LAYER
  5
46
330
2
100
AcDbSymbolTableRecord
100
AcDbLayerTableRecord
  2
OVERLAY_MAP
 70
     1
 62
     7
  6
CONTINUOUS
  0
LAYER
  5
47
330
2
100
AcDbSymbolTableRecord
100
AcDbLayerTableRecord
  2
DITTOS
 70
     0
 62
     7
  6
CONTINUOUS
  0
LAYER
  5
48
330
2
100
AcDbSymbolTableRecord
100
AcDbLayerTableRecord
  2
SYMBOLS
 70
     0
 62
     7
  6
CONTINUOUS
  0
LAYER
  5
49
330
2
100
AcDbSymbolTableRecord
100
AcDbLayerTableRecord
  2
SETS
 70
     0
 62
     7
  6
CONTINUOUS
  0
ENDTAB
  0
TABLE
  2
STYLE
  5
3
330
0
100
AcDbSymbolTable
 70
     1
  0
STYLE
  5
18
330
3
100
AcDbSymbolTableRecord
100
AcDbTextStyleTableRecord
  2
STANDARD
 70
     0
 40
4.1672
 41
1.0
 50
0.0
 71
     0
 42
4.1672
  3
monotxt
  4
BIGFONT
  0
ENDTAB
  0
TABLE
  2
VIEW
  5
5
330
0
100
AcDbSymbolTable
 70
     0
  0
ENDTAB
  0
TABLE
  2
UCS
  5
6
330
0
100
AcDbSymbolTable
 70
     1
  0
UCS
  5
4A
330
6
100
AcDbSymbolTableRecord
100
AcDbUCSTableRecord
  2
MO_001_VIEW_PV_P
 70
     0
 10
0.0
 20
0.0
 30
0.0
 11
1.0
 21
0.0
 31
0.0
 12
-0.0000000002051034
 22
1.0
 32
0.0
  0
ENDTAB
  0
TABLE
  2
APPID
  5
8
330
0
100
AcDbSymbolTable
 70
     1
  0
APPID
  5
17
330
8
100
AcDbSymbolTableRecord
100
AcDbRegAppTableRecord
  2
ACAD
 70
     0
  0
ENDTAB
  0
TABLE
  2
DIMSTYLE
  5
9
330
0
100
AcDbSymbolTable
 70
     1
  0
DIMSTYLE
105
19
102
{ACAD_REACTORS
330
203
330
205
330
207
330
209
330
20B
330
20D
330
20F
330
211
330
213
330
215
330
217
330
219
102
}
330
9
100
AcDbSymbolTableRecord
100
AcDbDimStyleTableRecord
  2
STANDARD
 70
     0
  3

  4

  5

  6

  7

 40
1.0
 41
0.18
 42
0.0625
 43
0.38
 44
0.18
 45
0.0
 46
0.0
 47
0.0
 48
0.0
140
0.18
141
0.09
142
0.0
143
25.4
144
1.0
145
0.0
146
1.0
147
0.09
 71
     0
 72
     0
 73
     1
 74
     1
 75
     0
 76
     0
 77
     0
 78
     0
170
     0
171
     2
172
     0
173
     0
174
     0
175
     0
176
     0
177
     0
178
     0
270
     2
271
     4
272
     4
273
     2
274
     2
340
18
275
     0
280
     0
281
     0
282
     0
283
     1
284
     0
285
     0
286
     0
287
     3
288
     0
  0
ENDTAB
  0
TABLE
  2
BLOCK_RECORD
  5
C
330
0
100
AcDbSymbolTable
 70
    12
  0
BLOCK_RECORD
  5
1E
102
{ACAD_XDICTIONARY
360
2A3
102
}
330
C
100
AcDbSymbolTableRecord
100
AcDbBlockTableRecord
  2
*MODEL_SPACE
  0
BLOCK_RECORD
  5
1F
102
{ACAD_XDICTIONARY
360
2A5
102
}
330
C
100
AcDbSymbolTableRecord
100
AcDbBlockTableRecord
  2
*PAPER_SPACE
  0
BLOCK_RECORD
  5
202
330
C
100
AcDbSymbolTableRecord
100
AcDbBlockTableRecord
  2
*D0
  0
BLOCK_RECORD
  5
204
330
C
100
AcDbSymbolTableRecord
100
AcDbBlockTableRecord
  2
*D1
  0
BLOCK_RECORD
  5
206
330
C
100
AcDbSymbolTableRecord
100
AcDbBlockTableRecord
  2
*D2
  0
BLOCK_RECORD
  5
208
330
C
100
AcDbSymbolTableRecord
100
AcDbBlockTableRecord
  2
*D3
  0
BLOCK_RECORD
  5
20A
330
C
100
AcDbSymbolTableRecord
100
AcDbBlockTableRecord
  2
*D4
  0
BLOCK_RECORD
  5
20C
330
C
100
AcDbSymbolTableRecord
100
AcDbBlockTableRecord
  2
*D5
  0
BLOCK_RECORD
  5
20E
330
C
100
AcDbSymbolTableRecord
100
AcDbBlockTableRecord
  2
*D6
  0
BLOCK_RECORD
  5
210
330
C
100
AcDbSymbolTableRecord
100
AcDbBlockTableRecord
  2
*D7
  0
BLOCK_RECORD
  5
212
330
C
100
AcDbSymbolTableRecord
100
AcDbBlockTableRecord
  2
*D8
  0
BLOCK_RECORD
  5
214
330
C
100
AcDbSymbolTableRecord
100
AcDbBlockTableRecord
  2
*D9
  0
BLOCK_RECORD
  5
216
330
C
100
AcDbSymbolTableRecord
100
AcDbBlockTableRecord
  2
*D10
  0
BLOCK_RECORD
  5
218
330
C
100
AcDbSymbolTableRecord
100
AcDbBlockTableRecord
  2
*D11
  0
ENDTAB
  0
ENDSEC
  0
SECTION
  2
BLOCKS
  0
BLOCK
  5
E
330
1E
100
AcDbEntity
  8
0
100
AcDbBlockBegin
  2
*MODEL_SPACE
 70
     0
 10
0.0
 20
0.0
 30
0.0
  3
*MODEL_SPACE
  1

  0
ENDBLK
  5
F
330
1E
100
AcDbEntity
  8
0
100
AcDbBlockEnd
  0
BLOCK
  5
10
330
1F
100
AcDbEntity
 67
     1
  8
0
100
AcDbBlockBegin
  2
*PAPER_SPACE
 70
     0
 10
0.0
 20
0.0
 30
0.0
  3
*PAPER_SPACE
  1

  0
ENDBLK
  5
11
330
1F
100
AcDbEntity
 67
     1
  8
0
100
AcDbBlockEnd
  0
BLOCK
  5
220
330
202
100
AcDbEntity
  8
0
100
AcDbBlockBegin
  2
*D0
 70
     1
 10
0.0
 20
0.0
 30
0.0
  3
*D0
  1

  0
LINE
  5
221
330
202
100
AcDbEntity
  8
MO_001_VIEW_PV
  6
BYBLOCK
100
AcDbLine
 10
36.0
 20
-13.5
 30
0.0
 11
36.0
 21
13.5
 31
0.0
  0
SOLID
  5
222
330
202
100
AcDbEntity
  8
MO_001_VIEW_PV
  6
BYBLOCK
100
AcDbTrace
 10
35.416488
 20
-10.18173999999999
 30
0.0
 11
36.0
 21
-12.992
 31
0.0
 12
36.583512
 22
-10.18173999999999
 32
0.0
 13
36.583512
 23
-10.18173999999999
 33
0.0
  0
SOLID
  5
223
330
202
100
AcDbEntity
  8
MO_001_VIEW_PV
  6
BYBLOCK
100
AcDbTrace
 10
36.583512
 20
10.18173999999999
 30
0.0
 11
36.0
 21
12.992
 31
0.0
 12
35.416488
 22
10.18173999999999
 32
0.0
 13
35.416488
 23
10.18173999999999
 33
0.0
  0
LINE
  5
224
330
202
100
AcDbEntity
  8
MO_001_VIEW_PV
  6
BYBLOCK
100
AcDbLine
 10
56.0
 20
-13.5
 30
0.0
 11
33.714001
 21
-13.5
 31
0.0
  0
LINE
  5
225
330
202
100
AcDbEntity
  8
MO_001_VIEW_PV
  6
BYBLOCK
100
AcDbLine
 10
56.0
 20
13.5
 30
0.0
 11
33.714001
 21
13.5
 31
0.0
  0
TEXT
  5
226
330
202
100
AcDbEntity
  8
MO_001_VIEW_PV
  6
BYBLOCK
100
AcDbText
 10
33.375
 20
0.214286
 30
0.0
 40
1.5
  1
%%P0.3
 50
90.0
100
AcDbText
  0
TEXT
  5
227
330
202
100
AcDbEntity
  8
MO_001_VIEW_PV
  6
BYBLOCK
100
AcDbText
 10
35.25
 20
-5.571429
 30
0.0
 40
3.0
  1
27
 50
90.0
100
AcDbText
  0
ENDBLK
  5
228
330
202
100
AcDbEntity
  8
0
100
AcDbBlockEnd
  0
BLOCK
  5
229
330
204
100
AcDbEntity
  8
0
100
AcDbBlockBegin
  2
*D1
 70
     1
 10
0.0
 20
0.0
 30
0.0
  3
*D1
  1

  0
TEXT
  5
22A
330
204
100
AcDbEntity
  8
MO_001_VIEW_PV
  6
BYBLOCK
100
AcDbText
 10
52.92857099999999
 20
36.75
 30
0.0
 40
3.0
  1
%%C40以下
100
AcDbText
  0
LINE
  5
22B
330
204
100
AcDbEntity
  8
MO_001_VIEW_PV
  6
BYBLOCK
100
AcDbLine
 10
40.400002
 20
36.0
 30
0.0
 11
79.599998
 21
36.0
 31
0.0
  0
SOLID
  5
22C
330
204
100
AcDbEntity
  8
MO_001_VIEW_PV
  6
BYBLOCK
100
AcDbTrace
 10
43.718262
 20
36.583512
 30
0.0
 11
40.908002
 21
36.0
 31
0.0
 12
43.718262
 22
35.416488
 32
0.0
 13
43.718262
 23
35.416488
 33
0.0
  0
SOLID
  5
22D
330
204
100
AcDbEntity
  8
MO_001_VIEW_PV
  6
BYBLOCK
100
AcDbTrace
 10
76.281738
 20
35.416488
 30
0.0
 11
79.091998
 21
36.0
 31
0.0
 12
76.281738
 22
36.583512
 32
0.0
 13
76.281738
 23
36.583512
 33
0.0
  0
LINE
  5
22E
330
204
100
AcDbEntity
  8
MO_001_VIEW_PV
  6
BYBLOCK
100
AcDbLine
 10
40.400002
 20
0.0
 30
0.0
 11
40.400002
 21
38.285999
 31
0.0
  0
LINE
  5
22F
330
204
100
AcDbEntity
  8
MO_001_VIEW_PV
  6
BYBLOCK
100
AcDbLine
 10
79.599998
 20
0.0
 30
0.0
 11
79.599998
 21
38.285999
 31
0.0
  0
ENDBLK
  5
230
330
204
100
AcDbEntity
  8
0
100
AcDbBlockEnd
  0
BLOCK
  5
231
330
206
100
AcDbEntity
  8
0
100
AcDbBlockBegin
  2
*D2
 70
     1
 10
0.0
 20
0.0
 30
0.0
  3
*D2
  1

  0
TEXT
  5
232
330
206
100
AcDbEntity
  8
MO_001_VIEW_PV
  6
BYBLOCK
100
AcDbText
 10
52.92857099999999
 20
30.75
 30
0.0
 40
3.0
  1
%%C21以下
100
AcDbText
  0
LINE
  5
233
330
206
100
AcDbEntity
  8
MO_001_VIEW_PV
  6
BYBLOCK
100
AcDbLine
 10
50.75
 20
30.0
 30
0.0
 11
69.25
 21
30.0
 31
0.0
  0
SOLID
  5
234
330
206
100
AcDbEntity
  8
MO_001_VIEW_PV
  6
BYBLOCK
100
AcDbTrace
 10
54.06825999999999
 20
30.583512
 30
0.0
 11
51.258
 21
30.0
 31
0.0
 12
54.06825999999999
 22
29.416488
 32
0.0
 13
54.06825999999999
 23
29.416488
 33
0.0
  0
SOLID
  5
235
330
206
100
AcDbEntity
  8
MO_001_VIEW_PV
  6
BYBLOCK
100
AcDbTrace
 10
65.93174000000001
 20
29.416488
 30
0.0
 11
68.742
 21
30.0
 31
0.0
 12
65.93174000000001
 22
30.583512
 32
0.0
 13
65.93174000000001
 23
30.583512
 33
0.0
  0
LINE
  5
236
330
206
100
AcDbEntity
  8
MO_001_VIEW_PV
  6
BYBLOCK
100
AcDbLine
 10
50.75
 20
0.0
 30
0.0
 11
50.75
 21
32.28599899999999
 31
0.0
  0
LINE
  5
237
330
206
100
AcDbEntity
  8
MO_001_VIEW_PV
  6
BYBLOCK
100
AcDbLine
 10
69.25
 20
0.0
 30
0.0
 11
69.25
 21
32.28599899999999
 31
0.0
  0
ENDBLK
  5
238
330
206
100
AcDbEntity
  8
0
100
AcDbBlockEnd
  0
BLOCK
  5
239
330
208
100
AcDbEntity
  8
0
100
AcDbBlockBegin
  2
*D3
 70
     1
 10
0.0
 20
0.0
 30
0.0
  3
*D3
  1

  0
TEXT
  5
23A
330
208
100
AcDbEntity
  8
MO_001_VIEW_PV
  6
BYBLOCK
100
AcDbText
 10
24.375
 20
21.314544
 30
0.0
 40
1.5
  1
%%P0.03
 50
90.0
100
AcDbText
  0
TEXT
  5
23B
330
208
100
AcDbEntity
  8
MO_001_VIEW_PV
  6
BYBLOCK
100
AcDbText
 10
26.25
 20
6.528828999999999
 30
0.0
 40
3.0
  1
%%C5.56
 50
90.0
100
AcDbText
  0
LINE
  5
23C
330
208
100
AcDbEntity
  8
MO_001_VIEW_PV
  6
BYBLOCK
100
AcDbLine
 10
27.0
 20
-2.779999
 30
0.0
 11
27.0
 21
2.779999
 31
0.0
  0
LINE
  5
23D
330
208
100
AcDbEntity
  8
MO_001_VIEW_PV
  6
BYBLOCK
100
AcDbLine
 10
27.0
 20
-2.779999
 30
0.0
 11
27.0
 21
-9.129998999999999
 31
0.0
  0
LINE
  5
23E
330
208
100
AcDbEntity
  8
MO_001_VIEW_PV
  6
BYBLOCK
100
AcDbLine
 10
27.0
 20
2.779999
 30
0.0
 11
27.0
 21
9.129998999999999
 31
0.0
  0
SOLID
  5
23F
330
208
100
AcDbEntity
  8
MO_001_VIEW_PV
  6
BYBLOCK
100
AcDbTrace
 10
27.58351199999999
 20
-6.098258999999999
 30
0.0
 11
27.0
 21
-3.287998999999999
 31
0.0
 12
26.416488
 22
-6.098258999999999
 32
0.0
 13
26.416488
 23
-6.098258999999999
 33
0.0
  0
SOLID
  5
240
330
208
100
AcDbEntity
  8
MO_001_VIEW_PV
  6
BYBLOCK
100
AcDbTrace
 10
26.416488
 20
6.098258999999999
 30
0.0
 11
27.0
 21
3.287998999999999
 31
0.0
 12
27.58351199999999
 22
6.098258999999999
 32
0.0
 13
27.58351199999999
 23
6.098258999999999
 33
0.0
  0
LINE
  5
241
330
208
100
AcDbEntity
  8
MO_001_VIEW_PV
  6
BYBLOCK
100
AcDbLine
 10
12.51820099999999
 20
-2.779999
 30
0.0
 11
29.285999
 21
-2.779999
 31
0.0
  0
LINE
  5
242
330
208
100
AcDbEntity
  8
MO_001_VIEW_PV
  6
BYBLOCK
100
AcDbLine
 10
12.51820099999999
 20
2.779999
 30
0.0
 11
29.285999
 21
2.779999
 31
0.0
  0
LINE
  5
243
330
208
100
AcDbEntity
  8
MO_001_VIEW_PV
  6
BYBLOCK
100
AcDbLine
 10
27.0
 20
2.779999
 30
0.0
 11
27.0
 21
29.135971
 31
0.0
  0
ENDBLK
  5
244
330
208
100
AcDbEntity
  8
0
100
AcDbBlockEnd
  0
BLOCK
  5
245
330
20A
100
AcDbEntity
  8
0
100
AcDbBlockBegin
  2
*D4
 70
     1
 10
0.0
 20
0.0
 30
0.0
  3
*D4
  1

  0
LINE
  5
246
330
20A
100
AcDbEntity
  8
MO_001_VIEW_PV
  6
BYBLOCK
100
AcDbLine
 10
4.218205
 20
-32.0
 30
0.0
 11
12.81820399999999
 21
-32.0
 31
0.0
  0
LINE
  5
247
330
20A
100
AcDbEntity
  8
MO_001_VIEW_PV
  6
BYBLOCK
100
AcDbLine
 10
4.218205
 20
-32.0
 30
0.0
 11
-2.131793999999999
 21
-32.0
 31
0.0
  0
LINE
  5
248
330
20A
100
AcDbEntity
  8
MO_001_VIEW_PV
  6
BYBLOCK
100
AcDbLine
 10
12.81820399999999
 20
-32.0
 30
0.0
 11
19.16820399999999
 21
-32.0
 31
0.0
  0
SOLID
  5
249
330
20A
100
AcDbEntity
  8
MO_001_VIEW_PV
  6
BYBLOCK
100
AcDbTrace
 10
0.8999450000000001
 20
-32.58351199999999
 30
0.0
 11
3.710205
 21
-32.0
 31
0.0
 12
0.8999450000000001
 22
-31.416488
 32
0.0
 13
0.8999450000000001
 23
-31.416488
 33
0.0
  0
SOLID
  5
24A
330
20A
100
AcDbEntity
  8
MO_001_VIEW_PV
  6
BYBLOCK
100
AcDbTrace
 10
16.136464
 20
-31.416488
 30
0.0
 11
13.326204
 21
-32.0
 31
0.0
 12
16.136464
 22
-32.58351199999999
 32
0.0
 13
16.136464
 23
-32.58351199999999
 33
0.0
  0
LINE
  5
24B
330
20A
100
AcDbEntity
  8
MO_001_VIEW_PV
  6
BYBLOCK
100
AcDbLine
 10
4.218205
 20
1.980002999999999
 30
0.0
 11
4.218205
 21
-34.285999
 31
0.0
  0
LINE
  5
24C
330
20A
100
AcDbEntity
  8
MO_001_VIEW_PV
  6
BYBLOCK
100
AcDbLine
 10
12.81820399999999
 20
-2.480002999999999
 30
0.0
 11
12.81820399999999
 21
-34.285999
 31
0.0
  0
TEXT
  5
24D
330
20A
100
AcDbEntity
  8
MO_001_VIEW_PV
  6
BYBLOCK
100
AcDbText
 10
17.22857099999999
 20
-31.25
 30
0.0
 40
3.0
  1
8.3以上
100
AcDbText
  0
LINE
  5
24E
330
20A
100
AcDbEntity
  8
MO_001_VIEW_PV
  6
BYBLOCK
100
AcDbLine
 10
12.81820399999999
 20
-32.0
 30
0.0
 11
32.335712
 21
-32.0
 31
0.0
  0
ENDBLK
  5
24F
330
20A
100
AcDbEntity
  8
0
100
AcDbBlockEnd
  0
BLOCK
  5
250
330
20C
100
AcDbEntity
  8
0
100
AcDbBlockBegin
  2
*D5
 70
     1
 10
0.0
 20
0.0
 30
0.0
  3
*D5
  1

  0
TEXT
  5
251
330
20C
100
AcDbEntity
  8
MO_001_VIEW_PV
  6
BYBLOCK
100
AcDbText
 10
-17.571429
 20
30.75
 30
0.0
 40
3.0
  1
25以下
100
AcDbText
  0
LINE
  5
252
330
20C
100
AcDbEntity
  8
MO_001_VIEW_PV
  6
BYBLOCK
100
AcDbLine
 10
-24.48033699999999
 20
30.0
 30
0.0
 11
0.0
 21
30.0
 31
0.0
  0
SOLID
  5
253
330
20C
100
AcDbEntity
  8
MO_001_VIEW_PV
  6
BYBLOCK
100
AcDbTrace
 10
-21.16207699999999
 20
30.583512
 30
0.0
 11
-23.972337
 21
30.0
 31
0.0
 12
-21.16207699999999
 22
29.416488
 32
0.0
 13
-21.16207699999999
 23
29.416488
 33
0.0
  0
SOLID
  5
254
330
20C
100
AcDbEntity
  8
MO_001_VIEW_PV
  6
BYBLOCK
100
AcDbTrace
 10
-3.318259999999999
 20
29.416488
 30
0.0
 11
-0.508
 21
30.0
 31
0.0
 12
-3.318259999999999
 22
30.583512
 32
0.0
 13
-3.318259999999999
 23
30.583512
 33
0.0
  0
LINE
  5
255
330
20C
100
AcDbEntity
  8
MO_001_VIEW_PV
  6
BYBLOCK
100
AcDbLine
 10
-24.48033699999999
 20
9.233032000000001
 30
0.0
 11
-24.48033699999999
 21
32.28599899999999
 31
0.0
  0
LINE
  5
256
330
20C
100
AcDbEntity
  8
MO_001_VIEW_PV
  6
BYBLOCK
100
AcDbLine
 10
0.0
 20
17.5
 30
0.0
 11
0.0
 21
32.28599899999999
 31
0.0
  0
ENDBLK
  5
257
330
20C
100
AcDbEntity
  8
0
100
AcDbBlockEnd
  0
BLOCK
  5
258
330
20E
100
AcDbEntity
  8
0
100
AcDbBlockBegin
  2
*D6
 70
     1
 10
0.0
 20
0.0
 30
0.0
  3
*D6
  1

  0
TEXT
  5
259
330
20E
100
AcDbEntity
  8
MO_001_VIEW_PV
  6
BYBLOCK
100
AcDbText
 10
-33.026078
 20
26.625
 30
0.0
 40
1.5
  1
%%P0.3
100
AcDbText
  0
TEXT
  5
25A
330
20E
100
AcDbEntity
  8
MO_001_VIEW_PV
  6
BYBLOCK
100
AcDbText
 10
-41.811793
 20
24.75
 30
0.0
 40
3.0
  1
1.4
100
AcDbText
  0
LINE
  5
25B
330
20E
100
AcDbEntity
  8
MO_001_VIEW_PV
  6
BYBLOCK
100
AcDbLine
 10
-24.48033699999999
 20
24.0
 30
0.0
 11
-23.081799
 21
24.0
 31
0.0
  0
LINE
  5
25C
330
20E
100
AcDbEntity
  8
MO_001_VIEW_PV
  6
BYBLOCK
100
AcDbLine
 10
-24.48033699999999
 20
24.0
 30
0.0
 11
-30.830337
 21
24.0
 31
0.0
  0
SOLID
  5
25D
330
20E
100
AcDbEntity
  8
MO_001_VIEW_PV
  6
BYBLOCK
100
AcDbTrace
 10
-27.79859699999999
 20
23.416488
 30
0.0
 11
-24.988337
 21
24.0
 31
0.0
 12
-27.79859699999999
 22
24.583512
 32
0.0
 13
-27.79859699999999
 23
24.583512
 33
0.0
  0
LINE
  5
25E
330
20E
100
AcDbEntity
  8
MO_001_VIEW_PV
  6
BYBLOCK
100
AcDbLine
 10
-24.48033699999999
 20
9.233032000000001
 30
0.0
 11
-24.48033699999999
 21
26.285999
 31
0.0
  0
LINE
  5
25F
330
20E
100
AcDbEntity
  8
MO_001_VIEW_PV
  6
BYBLOCK
100
AcDbLine
 10
-23.081799
 20
17.449997
 30
0.0
 11
-23.081799
 21
26.285999
 31
0.0
  0
LINE
  5
260
330
20E
100
AcDbEntity
  8
MO_001_VIEW_PV
  6
BYBLOCK
100
AcDbLine
 10
-42.77607699999999
 20
24.0
 30
0.0
 11
-24.48033699999999
 21
24.0
 31
0.0
  0
ENDBLK
  5
261
330
20E
100
AcDbEntity
  8
0
100
AcDbBlockEnd
  0
BLOCK
  5
262
330
210
100
AcDbEntity
  8
0
100
AcDbBlockBegin
  2
*D7
 70
     1
 10
0.0
 20
0.0
 30
0.0
  3
*D7
  1

  0
TEXT
  5
263
330
210
100
AcDbEntity
  8
MO_001_VIEW_PV
  6
BYBLOCK
100
AcDbText
 10
-10.285714
 20
26.625
 30
0.0
 40
1.5
  1
%%P0.1
100
AcDbText
  0
TEXT
  5
264
330
210
100
AcDbEntity
  8
MO_001_VIEW_PV
  6
BYBLOCK
100
AcDbText
 10
-19.071429
 20
24.75
 30
0.0
 40
3.0
  1
1.6
100
AcDbText
  0
LINE
  5
265
330
210
100
AcDbEntity
  8
MO_001_VIEW_PV
  6
BYBLOCK
100
AcDbLine
 10
-23.081799
 20
24.0
 30
0.0
 11
-21.48179999999999
 21
24.0
 31
0.0
  0
LINE
  5
266
330
210
100
AcDbEntity
  8
MO_001_VIEW_PV
  6
BYBLOCK
100
AcDbLine
 10
-21.48179999999999
 20
24.0
 30
0.0
 11
-15.1318
 21
24.0
 31
0.0
  0
SOLID
  5
267
330
210
100
AcDbEntity
  8
MO_001_VIEW_PV
  6
BYBLOCK
100
AcDbTrace
 10
-23.081799
 20
24.635
 30
0.0
 11
-23.081799
 21
23.365
 31
0.0
 12
-23.081799
 22
24.635
 32
0.0
 13
-23.081799
 23
24.635
 33
0.0
  0
SOLID
  5
268
330
210
100
AcDbEntity
  8
MO_001_VIEW_PV
  6
BYBLOCK
100
AcDbTrace
 10
-18.16354
 20
24.583512
 30
0.0
 11
-20.9738
 21
24.0
 31
0.0
 12
-18.16354
 22
23.416488
 32
0.0
 13
-18.16354
 23
23.416488
 33
0.0
  0
LINE
  5
269
330
210
100
AcDbEntity
  8
MO_001_VIEW_PV
  6
BYBLOCK
100
AcDbLine
 10
-23.081799
 20
17.449997
 30
0.0
 11
-23.081799
 21
26.285999
 31
0.0
  0
LINE
  5
26A
330
210
100
AcDbEntity
  8
MO_001_VIEW_PV
  6
BYBLOCK
100
AcDbLine
 10
-21.48179999999999
 20
17.449997
 30
0.0
 11
-21.48179999999999
 21
26.285999
 31
0.0
  0
LINE
  5
26B
330
210
100
AcDbEntity
  8
MO_001_VIEW_PV
  6
BYBLOCK
100
AcDbLine
 10
-21.48179999999999
 20
24.0
 30
0.0
 11
-3.964285999999999
 21
24.0
 31
0.0
  0
ENDBLK
  5
26C
330
210
100
AcDbEntity
  8
0
100
AcDbBlockEnd
  0
BLOCK
  5
26D
330
212
100
AcDbEntity
  8
0
100
AcDbBlockBegin
  2
*D8
 70
     1
 10
0.0
 20
0.0
 30
0.0
  3
*D8
  1

  0
TEXT
  5
26E
330
212
100
AcDbEntity
  8
MO_001_VIEW_PV
  6
BYBLOCK
100
AcDbText
 10
-14.785714
 20
38.625
 30
0.0
 40
1.5
  1
%%P1.0
100
AcDbText
  0
TEXT
  5
26F
330
212
100
AcDbEntity
  8
MO_001_VIEW_PV
  6
BYBLOCK
100
AcDbText
 10
-26.571429
 20
36.75
 30
0.0
 40
3.0
  1
36.0
100
AcDbText
  0
LINE
  5
270
330
212
100
AcDbEntity
  8
MO_001_VIEW_PV
  6
BYBLOCK
100
AcDbLine
 10
0.0
 20
36.0
 30
0.0
 11
-35.981796
 21
36.0
 31
0.0
  0
SOLID
  5
271
330
212
100
AcDbEntity
  8
MO_001_VIEW_PV
  6
BYBLOCK
100
AcDbTrace
 10
-3.318259999999999
 20
35.416488
 30
0.0
 11
-0.508
 21
36.0
 31
0.0
 12
-3.318259999999999
 22
36.583512
 32
0.0
 13
-3.318259999999999
 23
36.583512
 33
0.0
  0
SOLID
  5
272
330
212
100
AcDbEntity
  8
MO_001_VIEW_PV
  6
BYBLOCK
100
AcDbTrace
 10
-32.663536
 20
36.583512
 30
0.0
 11
-35.473796
 21
36.0
 31
0.0
 12
-32.663536
 22
35.416488
 32
0.0
 13
-32.663536
 23
35.416488
 33
0.0
  0
LINE
  5
273
330
212
100
AcDbEntity
  8
MO_001_VIEW_PV
  6
BYBLOCK
100
AcDbLine
 10
0.0
 20
17.5
 30
0.0
 11
0.0
 21
38.285999
 31
0.0
  0
LINE
  5
274
330
212
100
AcDbEntity
  8
MO_001_VIEW_PV
  6
BYBLOCK
100
AcDbLine
 10
-35.981796
 20
28.083553
 30
0.0
 11
-35.981796
 21
38.285999
 31
0.0
  0
LINE
  5
275
330
212
100
AcDbEntity
  8
MO_001_VIEW_PV
  6
BYBLOCK
100
AcDbLine
 10
-35.981796
 20
2.634415
 30
0.0
 11
-35.981796
 21
22.432878
 31
0.0
  0
ENDBLK
  5
276
330
212
100
AcDbEntity
  8
0
100
AcDbBlockEnd
  0
BLOCK
  5
277
330
214
100
AcDbEntity
  8
0
100
AcDbBlockBegin
  2
*D9
 70
     1
 10
0.0
 20
0.0
 30
0.0
  3
*D9
  1

  0
TEXT
  5
278
330
214
100
AcDbEntity
  8
MO_001_VIEW_PV
  6
BYBLOCK
100
AcDbText
 10
12.214286
 20
38.625
 30
0.0
 40
1.5
  1
%%P0.5
100
AcDbText
  0
TEXT
  5
279
330
214
100
AcDbEntity
  8
MO_001_VIEW_PV
  6
BYBLOCK
100
AcDbText
 10
0.428571
 20
36.75
 30
0.0
 40
3.0
  1
18.3
100
AcDbText
  0
LINE
  5
27A
330
214
100
AcDbEntity
  8
MO_001_VIEW_PV
  6
BYBLOCK
100
AcDbLine
 10
0.0
 20
36.0
 30
0.0
 11
18.299995
 21
36.0
 31
0.0
  0
SOLID
  5
27B
330
214
100
AcDbEntity
  8
MO_001_VIEW_PV
  6
BYBLOCK
100
AcDbTrace
 10
3.318259999999999
 20
36.583512
 30
0.0
 11
0.508
 21
36.0
 31
0.0
 12
3.318259999999999
 22
35.416488
 32
0.0
 13
3.318259999999999
 23
35.416488
 33
0.0
  0
SOLID
  5
27C
330
214
100
AcDbEntity
  8
MO_001_VIEW_PV
  6
BYBLOCK
100
AcDbTrace
 10
14.981735
 20
35.416488
 30
0.0
 11
17.791995
 21
36.0
 31
0.0
 12
14.981735
 22
36.583512
 32
0.0
 13
14.981735
 23
36.583512
 33
0.0
  0
LINE
  5
27D
330
214
100
AcDbEntity
  8
MO_001_VIEW_PV
  6
BYBLOCK
100
AcDbLine
 10
0.0
 20
17.5
 30
0.0
 11
0.0
 21
38.285999
 31
0.0
  0
LINE
  5
27E
330
214
100
AcDbEntity
  8
MO_001_VIEW_PV
  6
BYBLOCK
100
AcDbLine
 10
18.299995
 20
34.229263
 30
0.0
 11
18.299995
 21
38.285999
 31
0.0
  0
LINE
  5
27F
330
214
100
AcDbEntity
  8
MO_001_VIEW_PV
  6
BYBLOCK
100
AcDbLine
 10
-0.5357140000000001
 20
36.0
 30
0.0
 11
0.0
 21
36.0
 31
0.0
  0
LINE
  5
280
330
214
100
AcDbEntity
  8
MO_001_VIEW_PV
  6
BYBLOCK
100
AcDbLine
 10
18.299995
 20
36.0
 30
0.0
 11
18.535715
 21
36.0
 31
0.0
  0
LINE
  5
281
330
214
100
AcDbEntity
  8
MO_001_VIEW_PV
  6
BYBLOCK
100
AcDbLine
 10
18.299995
 20
14.800003
 30
0.0
 11
18.299995
 21
28.05555
 31
0.0
  0
ENDBLK
  5
282
330
214
100
AcDbEntity
  8
0
100
AcDbBlockEnd
  0
BLOCK
  5
283
330
216
100
AcDbEntity
  8
0
100
AcDbBlockBegin
  2
*D10
 70
     1
 10
0.0
 20
0.0
 30
0.0
  3
*D10
  1

  0
TEXT
  5
284
330
216
100
AcDbEntity
  8
MO_001_VIEW_PV
  6
BYBLOCK
100
AcDbText
 10
24.831382
 20
32.625
 30
0.0
 40
1.5
  1
%%P0.5
100
AcDbText
  0
TEXT
  5
285
330
216
100
AcDbEntity
  8
MO_001_VIEW_PV
  6
BYBLOCK
100
AcDbText
 10
13.045667
 20
30.75
 30
0.0
 40
3.0
  1
12.8
100
AcDbText
  0
LINE
  5
286
330
216
100
AcDbEntity
  8
MO_001_VIEW_PV
  6
BYBLOCK
100
AcDbLine
 10
0.0
 20
30.0
 30
0.0
 11
12.81820399999999
 21
30.0
 31
0.0
  0
SOLID
  5
287
330
216
100
AcDbEntity
  8
MO_001_VIEW_PV
  6
BYBLOCK
100
AcDbTrace
 10
3.318259999999999
 20
30.583512
 30
0.0
 11
0.508
 21
30.0
 31
0.0
 12
3.318259999999999
 22
29.416488
 32
0.0
 13
3.318259999999999
 23
29.416488
 33
0.0
  0
SOLID
  5
288
330
216
100
AcDbEntity
  8
MO_001_VIEW_PV
  6
BYBLOCK
100
AcDbTrace
 10
9.499944000000001
 20
29.416488
 30
0.0
 11
12.310204
 21
30.0
 31
0.0
 12
9.499944000000001
 22
30.583512
 32
0.0
 13
9.499944000000001
 23
30.583512
 33
0.0
  0
LINE
  5
289
330
216
100
AcDbEntity
  8
MO_001_VIEW_PV
  6
BYBLOCK
100
AcDbLine
 10
0.0
 20
17.5
 30
0.0
 11
0.0
 21
32.28599899999999
 31
0.0
  0
LINE
  5
28A
330
216
100
AcDbEntity
  8
MO_001_VIEW_PV
  6
BYBLOCK
100
AcDbLine
 10
12.81820399999999
 20
2.480002999999999
 30
0.0
 11
12.81820399999999
 21
32.28599899999999
 31
0.0
  0
LINE
  5
28B
330
216
100
AcDbEntity
  8
MO_001_VIEW_PV
  6
BYBLOCK
100
AcDbLine
 10
12.81820399999999
 20
30.0
 30
0.0
 11
31.152811
 21
30.0
 31
0.0
  0
ENDBLK
  5
28C
330
216
100
AcDbEntity
  8
0
100
AcDbBlockEnd
  0
BLOCK
  5
28D
330
218
100
AcDbEntity
  8
0
100
AcDbBlockBegin
  2
*D11
 70
     1
 10
0.0
 20
0.0
 30
0.0
  3
*D11
  1

  0
TEXT
  5
28E
330
218
100
AcDbEntity
  8
MO_001_VIEW_PV
  6
BYBLOCK
100
AcDbText
 10
86.25
 20
2.327688
 30
0.0
 40
3.0
  1
長さ250以上
 50
90.0
100
AcDbText
  0
LINE
  5
28F
330
218
100
AcDbEntity
  8
MO_001_VIEW_PV
  6
BYBLOCK
100
AcDbLine
 10
87.0
 20
-43.30634299999999
 30
0.0
 11
87.0
 21
-18.002712
 31
0.0
  0
SOLID
  5
290
330
218
100
AcDbEntity
  8
MO_001_VIEW_PV
  6
BYBLOCK
100
AcDbTrace
 10
86.416488
 20
-39.988083
 30
0.0
 11
87.0
 21
-42.798343
 31
0.0
 12
87.58351199999999
 22
-39.988083
 32
0.0
 13
87.58351199999999
 23
-39.988083
 33
0.0
  0
SOLID
  5
291
330
218
100
AcDbEntity
  8
MO_001_VIEW_PV
  6
BYBLOCK
100
AcDbTrace
 10
87.58351199999999
 20
-21.320972
 30
0.0
 11
87.0
 21
-18.51071199999999
 31
0.0
 12
86.416488
 22
-21.320972
 32
0.0
 13
86.416488
 23
-21.320972
 33
0.0
  0
LINE
  5
292
330
218
100
AcDbEntity
  8
MO_001_VIEW_PV
  6
BYBLOCK
100
AcDbLine
 10
67.023979
 20
-43.30634299999999
 30
0.0
 11
89.28600300000001
 21
-43.30634299999999
 31
0.0
  0
LINE
  5
293
330
218
100
AcDbEntity
  8
MO_001_VIEW_PV
  6
BYBLOCK
100
AcDbLine
 10
67.75000799999999
 20
-18.002712
 30
0.0
 11
89.28600300000001
 21
-18.002712
 31
0.0
  0
LINE
  5
294
330
218
100
AcDbEntity
  8
MO_001_VIEW_PV
  6
BYBLOCK
100
AcDbLine
 10
87.0
 20
-18.002712
 30
0.0
 11
87.0
 21
23.43482999999999
 31
0.0
  0
ENDBLK
  5
295
330
218
100
AcDbEntity
  8
0
100
AcDbBlockEnd
  0
ENDSEC
  0
SECTION
  2
ENTITIES
  0
TEXT
  5
4B
330
1E
100
AcDbEntity
  8
OVERLAY_MAP
  6
C_SOLID_L
100
AcDbText
 10
0.0
 20
6.349999999999999
 30
0.0
 40
4.1672
  1
Model Overlay Name
100
AcDbText
  0
TEXT
  5
4C
330
1E
100
AcDbEntity
  8
OVERLAY_MAP
  6
C_SOLID_L
100
AcDbText
 10
126.999998
 20
0.0
 30
0.0
 40
4.1672
  1
Number
100
AcDbText
  0
TEXT
  5
4D
330
1E
100
AcDbEntity
  8
OVERLAY_MAP
  6
C_SOLID_L
100
AcDbText
 10
177.7999969999999
 20
0.0
 30
0.0
 40
4.1672
  1
File Text
100
AcDbText
  0
TEXT
  5
4E
330
1E
100
AcDbEntity
  8
OVERLAY_MAP
  6
C_SOLID_L
100
AcDbText
 10
0.0
 20
-6.349999999999999
 30
0.0
 40
4.1672
  1
ro 4e349 
100
AcDbText
  0
TEXT
  5
4F
330
1E
100
AcDbEntity
  8
OVERLAY_MAP
  6
C_SOLID_L
100
AcDbText
 10
126.999998
 20
-6.349999999999999
 30
0.0
 40
4.1672
  1
001
100
AcDbText
  0
TEXT
  5
50
330
1E
100
AcDbEntity
  8
OVERLAY_MAP
  6
C_SOLID_L
100
AcDbText
 10
177.7999969999999
 20
-6.349999999999999
 30
0.0
 40
4.1672
  1
                                                                   00139
100
AcDbText
  0
LINE
  5
51
330
1E
100
AcDbEntity
  8
MO_001_VIEW_PV
  6
C_CENTER_L
100
AcDbLine
 10
39.0
 20
0.0
 30
0.0
 11
81.0
 21
0.0
 31
0.0
  0
LINE
  5
52
330
1E
100
AcDbEntity
  8
MO_001_VIEW_PV
  6
C_CENTER_L
100
AcDbLine
 10
60.0
 20
22.6
 30
0.0
 11
60.0
 21
-22.6
 31
0.0
  0
CIRCLE
  5
53
330
1E
100
AcDbEntity
  8
MO_001_VIEW_PV
  6
C_SOLID_M
100
AcDbCircle
 10
60.0
 20
0.0
 30
0.0
 40
2.779999999999999
  0
CIRCLE
  5
54
330
1E
100
AcDbEntity
  8
MO_001_VIEW_PV
  6
C_SOLID_M
100
AcDbCircle
 10
60.0
 20
0.0
 30
0.0
 40
19.6
  0
CIRCLE
  5
55
330
1E
100
AcDbEntity
  8
MO_001_VIEW_PV
  6
C_SOLID_M
100
AcDbCircle
 10
60.0
 20
0.0
 30
0.0
 40
2.634411
  0
CIRCLE
  5
56
330
1E
100
AcDbEntity
  8
MO_001_VIEW_PV
  6
C_SOLID_M
100
AcDbCircle
 10
60.0
 20
0.0
 30
0.0
 40
17.77499999999999
  0
CIRCLE
  5
57
330
1E
100
AcDbEntity
  8
MO_001_VIEW_PV
  6
C_SOLID_M
100
AcDbCircle
 10
60.0
 20
13.5
 30
0.0
 40
2.0
  0
CIRCLE
  5
58
330
1E
100
AcDbEntity
  8
MO_001_VIEW_PV
  6
C_SOLID_M
100
AcDbCircle
 10
60.0
 20
13.5
 30
0.0
 40
1.3
  0
LINE
  5
59
330
1E
100
AcDbEntity
  8
MO_001_VIEW_PV
  6
C_CENTER_L
100
AcDbLine
 10
56.0
 20
13.5
 30
0.0
 11
64.0
 21
13.5
 31
0.0
  0
CIRCLE
  5
5A
330
1E
100
AcDbEntity
  8
MO_001_VIEW_PV
  6
C_SOLID_M
100
AcDbCircle
 10
60.0
 20
-13.5
 30
0.0
 40
2.0
  0
CIRCLE
  5
5B
330
1E
100
AcDbEntity
  8
MO_001_VIEW_PV
  6
C_SOLID_M
100
AcDbCircle
 10
60.0
 20
-13.5
 30
0.0
 40
1.3
  0
LINE
  5
5C
330
1E
100
AcDbEntity
  8
MO_001_VIEW_PV
  6
C_CENTER_L
100
AcDbLine
 10
56.0
 20
-13.5
 30
0.0
 11
64.0
 21
-13.5
 31
0.0
  0
CIRCLE
  5
5D
330
1E
100
AcDbEntity
  8
MO_001_VIEW_PV
  6
C_SOLID_M
100
AcDbCircle
 10
60.0
 20
0.0
 30
0.0
 40
17.5
  0
ARC
  5
5E
330
1E
100
AcDbEntity
  8
MO_001_VIEW_PV
  6
C_SOLID_M
100
AcDbCircle
 10
60.0
 20
0.0
 30
0.0
 40
8.75
100
AcDbArc
 50
84.75420500000002
 51
95.245793
  0
CIRCLE
  5
5F
330
1E
100
AcDbEntity
  8
MO_001_VIEW_PV
  6
C_SOLID_M
100
AcDbCircle
 10
73.5
 20
0.0
 30
0.0
 40
2.2
  0
CIRCLE
  5
60
330
1E
100
AcDbEntity
  8
MO_001_VIEW_PV
  6
C_SOLID_M
100
AcDbCircle
 10
46.5
 20
0.0
 30
0.0
 40
2.2
  0
ARC
  5
61
330
1E
100
AcDbEntity
  8
MO_001_VIEW_PV
  6
C_SOLID_M
100
AcDbCircle
 10
60.0
 20
0.0
 30
0.0
 40
10.0
100
AcDbArc
 50
95.99160799999999
 51
108.008397
  0
ARC
  5
62
330
1E
100
AcDbEntity
  8
MO_001_VIEW_PV
  6
C_SOLID_M
100
AcDbCircle
 10
58.98748799999999
 20
9.647011
 30
0.0
 40
0.3
100
AcDbArc
 50
357.8550029999999
 51
95.991622
  0
ARC
  5
63
330
1E
100
AcDbEntity
  8
MO_001_VIEW_PV
  6
C_SOLID_M
100
AcDbCircle
 10
61.012512
 20
9.647011
 30
0.0
 40
0.3
100
AcDbArc
 50
84.008383
 51
182.1449989999999
  0
ARC
  5
64
330
1E
100
AcDbEntity
  8
MO_001_VIEW_PV
  6
C_SOLID_M
100
AcDbCircle
 10
60.0
 20
0.0
 30
0.0
 40
10.0
100
AcDbArc
 50
95.99160799999999
 51
108.008397
  0
LINE
  5
65
330
1E
100
AcDbEntity
  8
MO_001_VIEW_PV
  6
C_SOLID_M
100
AcDbLine
 10
59.287281
 20
9.635782999999999
 30
0.0
 11
59.271756
 21
9.221289
 31
0.0
  0
LINE
  5
66
330
1E
100
AcDbEntity
  8
MO_001_VIEW_PV
  6
C_SOLID_M
100
AcDbLine
 10
60.712718
 20
9.635782
 30
0.0
 11
60.728243
 21
9.221289
 31
0.0
  0
CIRCLE
  5
67
330
1E
100
AcDbEntity
  8
MO_001_VIEW_PV
  6
C_SOLID_M
100
AcDbCircle
 10
60.0
 20
-13.5
 30
0.0
 40
2.2
  0
CIRCLE
  5
68
330
1E
100
AcDbEntity
  8
MO_001_VIEW_PV
  6
C_SOLID_M
100
AcDbCircle
 10
60.0
 20
13.5
 30
0.0
 40
2.2
  0
ARC
  5
69
330
1E
100
AcDbEntity
  8
MO_001_VIEW_PV
  6
C_SOLID_M
100
AcDbCircle
 10
60.0
 20
0.0
 30
0.0
 40
9.25
100
AcDbArc
 50
85.03849800000001
 51
94.96150699999999
  0
LINE
  5
6A
330
1E
100
AcDbEntity
  8
MO_001_VIEW_PV
  6
C_SOLID_M
100
AcDbLine
 10
59.19999699999999
 20
9.215341
 30
0.0
 11
59.19999699999999
 21
8.713352
 31
0.0
  0
LINE
  5
6B
330
1E
100
AcDbEntity
  8
MO_001_VIEW_PV
  6
C_SOLID_M
100
AcDbLine
 10
60.800003
 20
9.215341
 30
0.0
 11
60.800003
 21
8.713352
 31
0.0
  0
ARC
  5
6C
330
1E
100
AcDbEntity
  8
MO_001_VIEW_PV
  6
C_SOLID_M
100
AcDbCircle
 10
60.0
 20
0.0
 30
0.0
 40
8.75
100
AcDbArc
 50
108.754206
 51
119.245787
  0
ARC
  5
6D
330
1E
100
AcDbEntity
  8
MO_001_VIEW_PV
  6
C_SOLID_M
100
AcDbCircle
 10
60.0
 20
0.0
 30
0.0
 40
10.0
100
AcDbArc
 50
119.9916019999999
 51
132.0083909999999
  0
ARC
  5
6E
330
1E
100
AcDbEntity
  8
MO_001_VIEW_PV
  6
C_SOLID_M
100
AcDbCircle
 10
55.15123
 20
8.401157000000001
 30
0.0
 40
0.3
100
AcDbArc
 50
21.85500199999999
 51
119.9916159999999
  0
ARC
  5
6F
330
1E
100
AcDbEntity
  8
MO_001_VIEW_PV
  6
C_SOLID_M
100
AcDbCircle
 10
57.00118299999999
 20
9.224809
 30
0.0
 40
0.3
100
AcDbArc
 50
108.008384
 51
206.144999
  0
ARC
  5
70
330
1E
100
AcDbEntity
  8
MO_001_VIEW_PV
  6
C_SOLID_M
100
AcDbCircle
 10
60.0
 20
0.0
 30
0.0
 40
10.0
100
AcDbArc
 50
119.9916019999999
 51
132.0083909999999
  0
LINE
  5
71
330
1E
100
AcDbEntity
  8
MO_001_VIEW_PV
  6
C_SOLID_M
100
AcDbLine
 10
55.429675
 20
8.512833999999999
 30
0.0
 11
55.58408199999999
 21
8.12786
 31
0.0
  0
LINE
  5
72
330
1E
100
AcDbEntity
  8
MO_001_VIEW_PV
  6
C_SOLID_M
100
AcDbLine
 10
56.731888
 20
9.092621000000001
 30
0.0
 11
56.914662
 21
8.720273999999999
 31
0.0
  0
ARC
  5
73
330
1E
100
AcDbEntity
  8
MO_001_VIEW_PV
  6
C_SOLID_M
100
AcDbCircle
 10
60.0
 20
0.0
 30
0.0
 40
9.25
100
AcDbArc
 50
109.0384989999999
 51
118.9615
  0
LINE
  5
74
330
1E
100
AcDbEntity
  8
MO_001_VIEW_PV
  6
C_SOLID_M
100
AcDbLine
 10
55.520937
 20
8.093241
 30
0.0
 11
55.725113
 21
7.634651999999999
 31
0.0
  0
LINE
  5
75
330
1E
100
AcDbEntity
  8
MO_001_VIEW_PV
  6
C_SOLID_M
100
AcDbLine
 10
56.98260799999999
 20
8.744018999999999
 30
0.0
 11
57.186785
 21
8.285429999999999
 31
0.0
  0
ARC
  5
76
330
1E
100
AcDbEntity
  8
MO_001_VIEW_PV
  6
C_SOLID_M
100
AcDbCircle
 10
60.0
 20
0.0
 30
0.0
 40
8.75
100
AcDbArc
 50
132.754207
 51
143.245787
  0
ARC
  5
77
330
1E
100
AcDbEntity
  8
MO_001_VIEW_PV
  6
C_SOLID_M
100
AcDbCircle
 10
60.0
 20
0.0
 30
0.0
 40
10.0
100
AcDbArc
 50
143.991603
 51
156.0083919999999
  0
ARC
  5
78
330
1E
100
AcDbEntity
  8
MO_001_VIEW_PV
  6
C_SOLID_M
100
AcDbCircle
 10
52.153366
 20
5.702666999999999
 30
0.0
 40
0.3
100
AcDbArc
 50
45.85500099999999
 51
143.9916169999999
  0
ARC
  5
79
330
1E
100
AcDbEntity
  8
MO_001_VIEW_PV
  6
C_SOLID_M
100
AcDbCircle
 10
53.508377
 20
7.207552999999999
 30
0.0
 40
0.3
100
AcDbArc
 50
132.0083769999999
 51
230.1449999999999
  0
ARC
  5
7A
330
1E
100
AcDbEntity
  8
MO_001_VIEW_PV
  6
C_SOLID_M
100
AcDbCircle
 10
60.0
 20
0.0
 30
0.0
 40
10.0
100
AcDbArc
 50
143.991603
 51
156.0083919999999
  0
LINE
  5
7B
330
1E
100
AcDbEntity
  8
MO_001_VIEW_PV
  6
C_SOLID_M
100
AcDbLine
 10
52.362321
 20
5.917937999999999
 30
0.0
 11
52.65996099999999
 21
5.629051
 31
0.0
  0
LINE
  5
7C
330
1E
100
AcDbEntity
  8
MO_001_VIEW_PV
  6
C_SOLID_M
100
AcDbLine
 10
53.31613199999999
 20
6.977250999999999
 30
0.0
 11
53.63454499999999
 21
6.711441
 31
0.0
  0
ARC
  5
7D
330
1E
100
AcDbEntity
  8
MO_001_VIEW_PV
  6
C_SOLID_M
100
AcDbCircle
 10
60.0
 20
0.0
 30
0.0
 40
9.25
100
AcDbArc
 50
133.0384929999999
 51
142.961501
  0
LINE
  5
7E
330
1E
100
AcDbEntity
  8
MO_001_VIEW_PV
  6
C_SOLID_M
100
AcDbLine
 10
52.616365
 20
5.571747
 30
0.0
 11
52.989411
 21
5.235853999999999
 31
0.0
  0
LINE
  5
7F
330
1E
100
AcDbEntity
  8
MO_001_VIEW_PV
  6
C_SOLID_M
100
AcDbLine
 10
53.686973
 20
6.760777
 30
0.0
 11
54.06001899999999
 21
6.424884999999999
 31
0.0
  0
ARC
  5
80
330
1E
100
AcDbEntity
  8
MO_001_VIEW_PV
  6
C_SOLID_M
100
AcDbCircle
 10
60.0
 20
0.0
 30
0.0
 40
8.75
100
AcDbArc
 50
156.754207
 51
167.2457879999999
  0
ARC
  5
81
330
1E
100
AcDbEntity
  8
MO_001_VIEW_PV
  6
C_SOLID_M
100
AcDbCircle
 10
60.0
 20
0.0
 30
0.0
 40
10.0
100
AcDbArc
 50
167.9916039999999
 51
180.008392
  0
ARC
  5
82
330
1E
100
AcDbEntity
  8
MO_001_VIEW_PV
  6
C_SOLID_M
100
AcDbCircle
 10
50.512268
 20
2.018133
 30
0.0
 40
0.3
100
AcDbArc
 50
69.855002
 51
167.991617
  0
ARC
  5
83
330
1E
100
AcDbEntity
  8
MO_001_VIEW_PV
  6
C_SOLID_M
100
AcDbCircle
 10
51.138031
 20
3.944045999999999
 30
0.0
 40
0.3
100
AcDbArc
 50
156.008378
 51
254.1450009999999
  0
ARC
  5
84
330
1E
100
AcDbEntity
  8
MO_001_VIEW_PV
  6
C_SOLID_M
100
AcDbCircle
 10
60.0
 20
0.0
 30
0.0
 40
10.0
100
AcDbArc
 50
167.9916039999999
 51
180.008392
  0
LINE
  5
85
330
1E
100
AcDbEntity
  8
MO_001_VIEW_PV
  6
C_SOLID_M
100
AcDbLine
 10
50.615591
 20
2.299781
 30
0.0
 11
51.004996
 21
2.156931999999999
 31
0.0
  0
LINE
  5
86
330
1E
100
AcDbEntity
  8
MO_001_VIEW_PV
  6
C_SOLID_M
100
AcDbLine
 10
51.056081
 20
3.655455999999999
 30
0.0
 11
51.455081
 21
3.542136
 31
0.0
  0
ARC
  5
87
330
1E
100
AcDbEntity
  8
MO_001_VIEW_PV
  6
C_SOLID_M
100
AcDbCircle
 10
60.0
 20
0.0
 30
0.0
 40
9.25
100
AcDbArc
 50
157.0384939999999
 51
166.9615019999999
  0
LINE
  5
88
330
1E
100
AcDbEntity
  8
MO_001_VIEW_PV
  6
C_SOLID_M
100
AcDbLine
 10
50.98848
 20
2.08685
 30
0.0
 11
51.46589500000001
 21
1.931727999999999
 31
0.0
  0
LINE
  5
89
330
1E
100
AcDbEntity
  8
MO_001_VIEW_PV
  6
C_SOLID_M
100
AcDbLine
 10
51.482907
 20
3.608538999999999
 30
0.0
 11
51.960322
 21
3.453416999999999
 31
0.0
  0
ARC
  5
8A
330
1E
100
AcDbEntity
  8
MO_001_VIEW_PV
  6
C_SOLID_M
100
AcDbCircle
 10
60.0
 20
0.0
 30
0.0
 40
8.75
100
AcDbArc
 50
180.754212
 51
191.2457919999999
  0
ARC
  5
8B
330
1E
100
AcDbEntity
  8
MO_001_VIEW_PV
  6
C_SOLID_M
100
AcDbCircle
 10
60.0
 20
0.0
 30
0.0
 40
10.0
100
AcDbArc
 50
191.991608
 51
204.0083969999999
  0
ARC
  5
8C
330
1E
100
AcDbEntity
  8
MO_001_VIEW_PV
  6
C_SOLID_M
100
AcDbCircle
 10
50.51167299999999
 20
-2.015352999999999
 30
0.0
 40
0.3
100
AcDbArc
 50
93.855002
 51
191.9916179999999
  0
ARC
  5
8D
330
1E
100
AcDbEntity
  8
MO_001_VIEW_PV
  6
C_SOLID_M
100
AcDbCircle
 10
50.30000300000001
 20
-0.001422
 30
0.0
 40
0.3
100
AcDbArc
 50
180.008382
 51
278.144998
  0
ARC
  5
8E
330
1E
100
AcDbEntity
  8
MO_001_VIEW_PV
  6
C_SOLID_M
100
AcDbCircle
 10
60.0
 20
0.0
 30
0.0
 40
10.0
100
AcDbArc
 50
191.991608
 51
204.0083969999999
  0
LINE
  5
8F
330
1E
100
AcDbEntity
  8
MO_001_VIEW_PV
  6
C_SOLID_M
100
AcDbLine
 10
50.491497
 20
-1.716028999999999
 30
0.0
 11
50.905346
 21
-1.688142999999999
 31
0.0
  0
LINE
  5
90
330
1E
100
AcDbEntity
  8
MO_001_VIEW_PV
  6
C_SOLID_M
100
AcDbLine
 10
50.34251199999999
 20
-0.298395
 30
0.0
 11
50.753108
 21
-0.239629
 31
0.0
  0
ARC
  5
91
330
1E
100
AcDbEntity
  8
MO_001_VIEW_PV
  6
C_SOLID_M
100
AcDbCircle
 10
60.0
 20
0.0
 30
0.0
 40
9.25
100
AcDbArc
 50
181.038498
 51
190.961506
  0
LINE
  5
92
330
1E
100
AcDbEntity
  8
MO_001_VIEW_PV
  6
C_SOLID_M
100
AcDbLine
 10
50.918771
 20
-1.758885999999999
 30
0.0
 11
51.418005
 21
-1.706413999999999
 31
0.0
  0
LINE
  5
93
330
1E
100
AcDbEntity
  8
MO_001_VIEW_PV
  6
C_SOLID_M
100
AcDbLine
 10
50.751526
 20
-0.167651
 30
0.0
 11
51.250759
 21
-0.11518
 31
0.0
  0
ARC
  5
94
330
1E
100
AcDbEntity
  8
MO_001_VIEW_PV
  6
C_SOLID_M
100
AcDbCircle
 10
60.0
 20
0.0
 30
0.0
 40
8.75
100
AcDbArc
 50
204.754212
 51
215.245793
  0
ARC
  5
95
330
1E
100
AcDbEntity
  8
MO_001_VIEW_PV
  6
C_SOLID_M
100
AcDbCircle
 10
60.0
 20
0.0
 30
0.0
 40
10.0
100
AcDbArc
 50
215.9916089999999
 51
228.008397
  0
ARC
  5
96
330
1E
100
AcDbEntity
  8
MO_001_VIEW_PV
  6
C_SOLID_M
100
AcDbCircle
 10
52.151703
 20
-5.700366999999999
 30
0.0
 40
0.3
100
AcDbArc
 50
117.854996
 51
215.991619
  0
ARC
  5
97
330
1E
100
AcDbEntity
  8
MO_001_VIEW_PV
  6
C_SOLID_M
100
AcDbCircle
 10
51.139191
 20
-3.946644999999999
 30
0.0
 40
0.3
100
AcDbArc
 50
204.008383
 51
302.144999
  0
ARC
  5
98
330
1E
100
AcDbEntity
  8
MO_001_VIEW_PV
  6
C_SOLID_M
100
AcDbCircle
 10
60.0
 20
0.0
 30
0.0
 40
10.0
100
AcDbArc
 50
215.9916089999999
 51
228.008397
  0
LINE
  5
99
330
1E
100
AcDbEntity
  8
MO_001_VIEW_PV
  6
C_SOLID_M
100
AcDbLine
 10
52.011525
 20
-5.435120999999999
 30
0.0
 11
52.378246
 21
-5.241322
 31
0.0
  0
LINE
  5
9A
330
1E
100
AcDbEntity
  8
MO_001_VIEW_PV
  6
C_SOLID_M
100
AcDbLine
 10
51.298813
 20
-4.200656999999999
 30
0.0
 11
51.650015
 21
-3.979962999999999
 31
0.0
  0
ARC
  5
9B
330
1E
100
AcDbEntity
  8
MO_001_VIEW_PV
  6
C_SOLID_M
100
AcDbCircle
 10
60.0
 20
0.0
 30
0.0
 40
9.25
100
AcDbArc
 50
205.0384989999999
 51
214.9615069999999
  0
LINE
  5
9C
330
1E
100
AcDbEntity
  8
MO_001_VIEW_PV
  6
C_SOLID_M
100
AcDbLine
 10
52.419277
 20
-5.300492
 30
0.0
 11
52.854014
 21
-5.049495999999999
 31
0.0
  0
LINE
  5
9D
330
1E
100
AcDbEntity
  8
MO_001_VIEW_PV
  6
C_SOLID_M
100
AcDbLine
 10
51.619278
 20
-3.914852999999999
 30
0.0
 11
52.054015
 21
-3.663857
 31
0.0
  0
ARC
  5
9E
330
1E
100
AcDbEntity
  8
MO_001_VIEW_PV
  6
C_SOLID_M
100
AcDbCircle
 10
60.0
 20
0.0
 30
0.0
 40
8.75
100
AcDbArc
 50
228.7542129999999
 51
239.2457939999999
  0
ARC
  5
9F
330
1E
100
AcDbEntity
  8
MO_001_VIEW_PV
  6
C_SOLID_M
100
AcDbCircle
 10
60.0
 20
0.0
 30
0.0
 40
10.0
100
AcDbArc
 50
239.991609
 51
252.008398
  0
ARC
  5
A0
330
1E
100
AcDbEntity
  8
MO_001_VIEW_PV
  6
C_SOLID_M
100
AcDbCircle
 10
55.148773
 20
-8.399736
 30
0.0
 40
0.3
100
AcDbArc
 50
141.8549969999999
 51
239.9916189999999
  0
ARC
  5
A1
330
1E
100
AcDbEntity
  8
MO_001_VIEW_PV
  6
C_SOLID_M
100
AcDbCircle
 10
53.51049
 20
-7.209457
 30
0.0
 40
0.3
100
AcDbArc
 50
228.0083839999999
 51
326.144999
  0
ARC
  5
A2
330
1E
100
AcDbEntity
  8
MO_001_VIEW_PV
  6
C_SOLID_M
100
AcDbCircle
 10
60.0
 20
0.0
 30
0.0
 40
10.0
100
AcDbArc
 50
239.991609
 51
252.008398
  0
LINE
  5
A3
330
1E
100
AcDbEntity
  8
MO_001_VIEW_PV
  6
C_SOLID_M
100
AcDbLine
 10
54.912836
 20
-8.214437
 30
0.0
 11
55.169029
 21
-7.888230999999999
 31
0.0
  0
LINE
  5
A4
330
1E
100
AcDbEntity
  8
MO_001_VIEW_PV
  6
C_SOLID_M
100
AcDbLine
 10
53.759636
 20
-7.376580999999999
 30
0.0
 11
53.99070899999999
 21
-7.032124
 31
0.0
  0
ARC
  5
A5
330
1E
100
AcDbEntity
  8
MO_001_VIEW_PV
  6
C_SOLID_M
100
AcDbCircle
 10
60.0
 20
0.0
 30
0.0
 40
9.25
100
AcDbArc
 50
229.038499
 51
238.961507
  0
LINE
  5
A6
330
1E
100
AcDbEntity
  8
MO_001_VIEW_PV
  6
C_SOLID_M
100
AcDbLine
 10
55.230577
 20
-7.9256
 30
0.0
 11
55.525638
 21
-7.519483
 31
0.0
  0
LINE
  5
A7
330
1E
100
AcDbEntity
  8
MO_001_VIEW_PV
  6
C_SOLID_M
100
AcDbLine
 10
53.936151
 20
-6.985144
 30
0.0
 11
54.231212
 21
-6.579028
 31
0.0
  0
ARC
  5
A8
330
1E
100
AcDbEntity
  8
MO_001_VIEW_PV
  6
C_SOLID_M
100
AcDbCircle
 10
60.0
 20
0.0
 30
0.0
 40
8.75
100
AcDbArc
 50
252.754214
 51
263.245794
  0
ARC
  5
A9
330
1E
100
AcDbEntity
  8
MO_001_VIEW_PV
  6
C_SOLID_M
100
AcDbCircle
 10
60.0
 20
0.0
 30
0.0
 40
10.0
100
AcDbArc
 50
263.99161
 51
276.008399
  0
ARC
  5
AA
330
1E
100
AcDbEntity
  8
MO_001_VIEW_PV
  6
C_SOLID_M
100
AcDbCircle
 10
58.984665
 20
-9.646713999999999
 30
0.0
 40
0.3
100
AcDbArc
 50
165.85497
 51
263.99162
  0
ARC
  5
AB
330
1E
100
AcDbEntity
  8
MO_001_VIEW_PV
  6
C_SOLID_M
100
AcDbCircle
 10
57.003891
 20
-9.225687999999999
 30
0.0
 40
0.3
100
AcDbArc
 50
252.0083839999999
 51
350.145027
  0
ARC
  5
AC
330
1E
100
AcDbEntity
  8
MO_001_VIEW_PV
  6
C_SOLID_M
100
AcDbCircle
 10
60.0
 20
0.0
 30
0.0
 40
10.0
100
AcDbArc
 50
263.99161
 51
276.008399
  0
LINE
  5
AD
330
1E
100
AcDbEntity
  8
MO_001_VIEW_PV
  6
C_SOLID_M
100
AcDbLine
 10
58.693755
 20
-9.573400999999998
 30
0.0
 11
58.79511899999999
 21
-9.171192999999998
 31
0.0
  0
LINE
  5
AE
330
1E
100
AcDbEntity
  8
MO_001_VIEW_PV
  6
C_SOLID_M
100
AcDbLine
 10
57.29946899999999
 20
-9.277036
 30
0.0
 11
57.37046199999999
 21
-8.868367999999998
 31
0.0
  0
ARC
  5
AF
330
1E
100
AcDbEntity
  8
MO_001_VIEW_PV
  6
C_SOLID_M
100
AcDbCircle
 10
60.0
 20
0.0
 30
0.0
 40
9.25
100
AcDbArc
 50
253.0384999999999
 51
262.9615079999999
  0
LINE
  5
B0
330
1E
100
AcDbEntity
  8
MO_001_VIEW_PV
  6
C_SOLID_M
100
AcDbLine
 10
58.866555
 20
-9.180294999999999
 30
0.0
 11
58.970924
 21
-8.689277
 31
0.0
  0
LINE
  5
B1
330
1E
100
AcDbEntity
  8
MO_001_VIEW_PV
  6
C_SOLID_M
100
AcDbLine
 10
57.30152
 20
-8.847636999999998
 30
0.0
 11
57.405889
 21
-8.356619
 31
0.0
  0
ARC
  5
B2
330
1E
100
AcDbEntity
  8
MO_001_VIEW_PV
  6
C_SOLID_M
100
AcDbCircle
 10
60.0
 20
0.0
 30
0.0
 40
8.75
100
AcDbArc
 50
276.7542139999999
 51
287.245795
  0
ARC
  5
B3
330
1E
100
AcDbEntity
  8
MO_001_VIEW_PV
  6
C_SOLID_M
100
AcDbCircle
 10
60.0
 20
0.0
 30
0.0
 40
10.0
100
AcDbArc
 50
287.9916109999999
 51
300.008399
  0
ARC
  5
B4
330
1E
100
AcDbEntity
  8
MO_001_VIEW_PV
  6
C_SOLID_M
100
AcDbCircle
 10
62.996109
 20
-9.225686999999998
 30
0.0
 40
0.3
100
AcDbArc
 50
206.713206
 51
287.991617
  0
ARC
  5
B5
330
1E
100
AcDbEntity
  8
MO_001_VIEW_PV
  6
C_SOLID_M
100
AcDbCircle
 10
61.015335
 20
-9.646713999999999
 30
0.0
 40
0.3
100
AcDbArc
 50
276.008385
 51
8.987130999999999
  0
ARC
  5
B6
330
1E
100
AcDbEntity
  8
MO_001_VIEW_PV
  6
C_SOLID_M
100
AcDbCircle
 10
60.0
 20
0.0
 30
0.0
 40
10.0
100
AcDbArc
 50
287.9916109999999
 51
300.008399
  0
LINE
  5
B7
330
1E
100
AcDbEntity
  8
MO_001_VIEW_PV
  6
C_SOLID_M
100
AcDbLine
 10
62.664011
 20
-9.066728999999998
 30
0.0
 11
62.629552
 21
-8.868368999999999
 31
0.0
  0
LINE
  5
B8
330
1E
100
AcDbEntity
  8
MO_001_VIEW_PV
  6
C_SOLID_M
100
AcDbLine
 10
61.221301
 20
-9.236346000000001
 30
0.0
 11
61.20488
 21
-9.171188
 31
0.0
  0
ARC
  5
B9
330
1E
100
AcDbEntity
  8
MO_001_VIEW_PV
  6
C_SOLID_M
100
AcDbCircle
 10
60.0
 20
0.0
 30
0.0
 40
9.25
100
AcDbArc
 50
277.038501
 51
286.9615089999999
  0
LINE
  5
BA
330
1E
100
AcDbEntity
  8
MO_001_VIEW_PV
  6
C_SOLID_M
100
AcDbLine
 10
62.69851
 20
-8.847635
 30
0.0
 11
62.594141
 21
-8.356617999999999
 31
0.0
  0
LINE
  5
BB
330
1E
100
AcDbEntity
  8
MO_001_VIEW_PV
  6
C_SOLID_M
100
AcDbLine
 10
61.13347499999999
 20
-9.180293999999999
 30
0.0
 11
61.02910600000001
 21
-8.689275999999999
 31
0.0
  0
ARC
  5
BC
330
1E
100
AcDbEntity
  8
MO_001_VIEW_PV
  6
C_SOLID_M
100
AcDbCircle
 10
60.0
 20
0.0
 30
0.0
 40
8.75
100
AcDbArc
 50
300.7542149999999
 51
311.2457959999999
  0
ARC
  5
BD
330
1E
100
AcDbEntity
  8
MO_001_VIEW_PV
  6
C_SOLID_M
100
AcDbCircle
 10
60.0
 20
0.0
 30
0.0
 40
10.0
100
AcDbArc
 50
311.9916109999999
 51
324.0083999999999
  0
ARC
  5
BE
330
1E
100
AcDbEntity
  8
MO_001_VIEW_PV
  6
C_SOLID_M
100
AcDbCircle
 10
66.48951
 20
-7.209455
 30
0.0
 40
0.3
100
AcDbArc
 50
213.855002
 51
311.991618
  0
ARC
  5
BF
330
1E
100
AcDbEntity
  8
MO_001_VIEW_PV
  6
C_SOLID_M
100
AcDbCircle
 10
64.85122700000001
 20
-8.399736
 30
0.0
 40
0.3
100
AcDbArc
 50
300.0083859999999
 51
38.144998
  0
ARC
  5
C0
330
1E
100
AcDbEntity
  8
MO_001_VIEW_PV
  6
C_SOLID_M
100
AcDbCircle
 10
60.0
 20
0.0
 30
0.0
 40
10.0
100
AcDbArc
 50
311.9916109999999
 51
324.0083999999999
  0
LINE
  5
C1
330
1E
100
AcDbEntity
  8
MO_001_VIEW_PV
  6
C_SOLID_M
100
AcDbLine
 10
66.240372
 20
-7.376582
 30
0.0
 11
66.00930100000001
 21
-7.032128999999999
 31
0.0
  0
LINE
  5
C2
330
1E
100
AcDbEntity
  8
MO_001_VIEW_PV
  6
C_SOLID_M
100
AcDbLine
 10
65.08715600000001
 20
-8.214438000000001
 30
0.0
 11
64.83096
 21
-7.888228999999999
 31
0.0
  0
ARC
  5
C3
330
1E
100
AcDbEntity
  8
MO_001_VIEW_PV
  6
C_SOLID_M
100
AcDbCircle
 10
60.0
 20
0.0
 30
0.0
 40
9.25
100
AcDbArc
 50
301.038501
 51
310.9615089999999
  0
LINE
  5
C4
330
1E
100
AcDbEntity
  8
MO_001_VIEW_PV
  6
C_SOLID_M
100
AcDbLine
 10
66.063861
 20
-6.985135999999999
 30
0.0
 11
65.76880200000001
 21
-6.579022999999999
 31
0.0
  0
LINE
  5
C5
330
1E
100
AcDbEntity
  8
MO_001_VIEW_PV
  6
C_SOLID_M
100
AcDbLine
 10
64.769435
 20
-7.925591999999999
 30
0.0
 11
64.474376
 21
-7.519477999999999
 31
0.0
  0
ARC
  5
C6
330
1E
100
AcDbEntity
  8
MO_001_VIEW_PV
  6
C_SOLID_M
100
AcDbCircle
 10
60.0
 20
0.0
 30
0.0
 40
8.75
100
AcDbArc
 50
324.754216
 51
335.2457959999999
  0
ARC
  5
C7
330
1E
100
AcDbEntity
  8
MO_001_VIEW_PV
  6
C_SOLID_M
100
AcDbCircle
 10
60.0
 20
0.0
 30
0.0
 40
10.0
100
AcDbArc
 50
335.991612
 51
348.0084
  0
ARC
  5
C8
330
1E
100
AcDbEntity
  8
MO_001_VIEW_PV
  6
C_SOLID_M
100
AcDbCircle
 10
68.860809
 20
-3.946644
 30
0.0
 40
0.3
100
AcDbArc
 50
237.8550029999999
 51
335.991619
  0
ARC
  5
C9
330
1E
100
AcDbEntity
  8
MO_001_VIEW_PV
  6
C_SOLID_M
100
AcDbCircle
 10
67.848297
 20
-5.700368
 30
0.0
 40
0.3
100
AcDbArc
 50
324.0083859999999
 51
62.14499499999999
  0
ARC
  5
CA
330
1E
100
AcDbEntity
  8
MO_001_VIEW_PV
  6
C_SOLID_M
100
AcDbCircle
 10
60.0
 20
0.0
 30
0.0
 40
10.0
100
AcDbArc
 50
335.991612
 51
348.0084
  0
LINE
  5
CB
330
1E
100
AcDbEntity
  8
MO_001_VIEW_PV
  6
C_SOLID_M
100
AcDbLine
 10
68.701188
 20
-4.200655999999999
 30
0.0
 11
68.349992
 21
-3.979966999999999
 31
0.0
  0
LINE
  5
CC
330
1E
100
AcDbEntity
  8
MO_001_VIEW_PV
  6
C_SOLID_M
100
AcDbLine
 10
67.98847099999999
 20
-5.435124
 30
0.0
 11
67.62175
 21
-5.241324999999999
 31
0.0
  0
ARC
  5
CD
330
1E
100
AcDbEntity
  8
MO_001_VIEW_PV
  6
C_SOLID_M
100
AcDbCircle
 10
60.0
 20
0.0
 30
0.0
 40
9.25
100
AcDbArc
 50
325.0385019999999
 51
334.96151
  0
LINE
  5
CE
330
1E
100
AcDbEntity
  8
MO_001_VIEW_PV
  6
C_SOLID_M
100
AcDbLine
 10
68.38071600000001
 20
-3.914845999999999
 30
0.0
 11
67.94597900000001
 21
-3.66385
 31
0.0
  0
LINE
  5
CF
330
1E
100
AcDbEntity
  8
MO_001_VIEW_PV
  6
C_SOLID_M
100
AcDbLine
 10
67.58071700000001
 20
-5.300485
 30
0.0
 11
67.14598000000001
 21
-5.049489
 31
0.0
  0
ARC
  5
D0
330
1E
100
AcDbEntity
  8
MO_001_VIEW_PV
  6
C_SOLID_M
100
AcDbCircle
 10
60.0
 20
0.0
 30
0.0
 40
8.75
100
AcDbArc
 50
348.754216
 51
359.2457959999999
  0
ARC
  5
D1
330
1E
100
AcDbEntity
  8
MO_001_VIEW_PV
  6
C_SOLID_M
100
AcDbCircle
 10
60.0
 20
0.0
 30
0.0
 40
10.0
100
AcDbArc
 50
0.0
 51
12.0084
  0
ARC
  5
D2
330
1E
100
AcDbEntity
  8
MO_001_VIEW_PV
  6
C_SOLID_M
100
AcDbCircle
 10
69.69999699999999
 20
-0.001421
 30
0.0
 40
0.3
100
AcDbArc
 50
261.855004
 51
359.991619
  0
ARC
  5
D3
330
1E
100
AcDbEntity
  8
MO_001_VIEW_PV
  6
C_SOLID_M
100
AcDbCircle
 10
69.488327
 20
-2.015353999999999
 30
0.0
 40
0.3
100
AcDbArc
 50
348.0083859999999
 51
86.144996
  0
ARC
  5
D4
330
1E
100
AcDbEntity
  8
MO_001_VIEW_PV
  6
C_SOLID_M
100
AcDbCircle
 10
60.0
 20
0.0
 30
0.0
 40
10.0
100
AcDbArc
 50
0.0
 51
12.0084
  0
LINE
  5
D5
330
1E
100
AcDbEntity
  8
MO_001_VIEW_PV
  6
C_SOLID_M
100
AcDbLine
 10
69.657503
 20
-0.298399
 30
0.0
 11
69.24690699999999
 21
-0.239633
 31
0.0
  0
LINE
  5
D6
330
1E
100
AcDbEntity
  8
MO_001_VIEW_PV
  6
C_SOLID_M
100
AcDbLine
 10
69.508488
 20
-1.716028999999999
 30
0.0
 11
69.09464599999999
 21
-1.688142999999999
 31
0.0
  0
ARC
  5
D7
330
1E
100
AcDbEntity
  8
MO_001_VIEW_PV
  6
C_SOLID_M
100
AcDbCircle
 10
60.0
 20
0.0
 30
0.0
 40
9.25
100
AcDbArc
 50
349.038502
 51
358.96151
  0
LINE
  5
D8
330
1E
100
AcDbEntity
  8
MO_001_VIEW_PV
  6
C_SOLID_M
100
AcDbLine
 10
69.248479
 20
-0.167643
 30
0.0
 11
68.749245
 21
-0.115171
 31
0.0
  0
LINE
  5
D9
330
1E
100
AcDbEntity
  8
MO_001_VIEW_PV
  6
C_SOLID_M
100
AcDbLine
 10
69.08123299999999
 20
-1.758875999999999
 30
0.0
 11
68.58199899999999
 21
-1.706404999999999
 31
0.0
  0
ARC
  5
DA
330
1E
100
AcDbEntity
  8
MO_001_VIEW_PV
  6
C_SOLID_M
100
AcDbCircle
 10
60.0
 20
0.0
 30
0.0
 40
8.75
100
AcDbArc
 50
12.754215
 51
23.24579599999999
  0
ARC
  5
DB
330
1E
100
AcDbEntity
  8
MO_001_VIEW_PV
  6
C_SOLID_M
100
AcDbCircle
 10
60.0
 20
0.0
 30
0.0
 40
10.0
100
AcDbArc
 50
23.991611
 51
36.00839899999999
  0
ARC
  5
DC
330
1E
100
AcDbEntity
  8
MO_001_VIEW_PV
  6
C_SOLID_M
100
AcDbCircle
 10
68.86196899999998
 20
3.944047
 30
0.0
 40
0.3
100
AcDbArc
 50
285.855004
 51
23.991618
  0
ARC
  5
DD
330
1E
100
AcDbEntity
  8
MO_001_VIEW_PV
  6
C_SOLID_M
100
AcDbCircle
 10
69.48773199999999
 20
2.018133
 30
0.0
 40
0.3
100
AcDbArc
 50
12.00838599999999
 51
110.144997
  0
ARC
  5
DE
330
1E
100
AcDbEntity
  8
MO_001_VIEW_PV
  6
C_SOLID_M
100
AcDbCircle
 10
60.0
 20
0.0
 30
0.0
 40
10.0
100
AcDbArc
 50
23.991611
 51
36.00839899999999
  0
LINE
  5
DF
330
1E
100
AcDbEntity
  8
MO_001_VIEW_PV
  6
C_SOLID_M
100
AcDbLine
 10
68.94393
 20
3.655455
 30
0.0
 11
68.54493000000001
 21
3.542136
 31
0.0
  0
LINE
  5
E0
330
1E
100
AcDbEntity
  8
MO_001_VIEW_PV
  6
C_SOLID_M
100
AcDbLine
 10
69.384399
 20
2.299779999999999
 30
0.0
 11
68.995001
 21
2.156934
 31
0.0
  0
ARC
  5
E1
330
1E
100
AcDbEntity
  8
MO_001_VIEW_PV
  6
C_SOLID_M
100
AcDbCircle
 10
60.0
 20
0.0
 30
0.0
 40
9.25
100
AcDbArc
 50
13.038502
 51
22.96151
  0
LINE
  5
E2
330
1E
100
AcDbEntity
  8
MO_001_VIEW_PV
  6
C_SOLID_M
100
AcDbLine
 10
68.517105
 20
3.608548
 30
0.0
 11
68.03969000000001
 21
3.453426
 31
0.0
  0
LINE
  5
E3
330
1E
100
AcDbEntity
  8
MO_001_VIEW_PV
  6
C_SOLID_M
100
AcDbLine
 10
69.01153199999999
 20
2.086859
 30
0.0
 11
68.53411700000001
 21
1.931736999999999
 31
0.0
  0
ARC
  5
E4
330
1E
100
AcDbEntity
  8
MO_001_VIEW_PV
  6
C_SOLID_M
100
AcDbCircle
 10
60.0
 20
0.0
 30
0.0
 40
8.75
100
AcDbArc
 50
36.754214
 51
47.24579499999999
  0
ARC
  5
E5
330
1E
100
AcDbEntity
  8
MO_001_VIEW_PV
  6
C_SOLID_M
100
AcDbCircle
 10
60.0
 20
0.0
 30
0.0
 40
10.0
100
AcDbArc
 50
47.99160999999999
 51
60.00839599999999
  0
ARC
  5
E6
330
1E
100
AcDbEntity
  8
MO_001_VIEW_PV
  6
C_SOLID_M
100
AcDbCircle
 10
66.491623
 20
7.207553999999999
 30
0.0
 40
0.3
100
AcDbArc
 50
309.855005
 51
47.99161699999999
  0
ARC
  5
E7
330
1E
100
AcDbEntity
  8
MO_001_VIEW_PV
  6
C_SOLID_M
100
AcDbCircle
 10
67.84663399999999
 20
5.702666
 30
0.0
 40
0.3
100
AcDbArc
 50
36.008385
 51
134.1449969999999
  0
ARC
  5
E8
330
1E
100
AcDbEntity
  8
MO_001_VIEW_PV
  6
C_SOLID_M
100
AcDbCircle
 10
60.0
 20
0.0
 30
0.0
 40
10.0
100
AcDbArc
 50
47.99160999999999
 51
60.00839599999999
  0
LINE
  5
E9
330
1E
100
AcDbEntity
  8
MO_001_VIEW_PV
  6
C_SOLID_M
100
AcDbLine
 10
66.683887
 20
6.977249999999999
 30
0.0
 11
66.36547400000001
 21
6.711439999999999
 31
0.0
  0
LINE
  5
EA
330
1E
100
AcDbEntity
  8
MO_001_VIEW_PV
  6
C_SOLID_M
100
AcDbLine
 10
67.63768299999999
 20
5.917938999999999
 30
0.0
 11
67.34004
 21
5.629049
 31
0.0
  0
ARC
  5
EB
330
1E
100
AcDbEntity
  8
MO_001_VIEW_PV
  6
C_SOLID_M
100
AcDbCircle
 10
60.0
 20
0.0
 30
0.0
 40
9.25
100
AcDbArc
 50
37.038501
 51
46.961509
  0
LINE
  5
EC
330
1E
100
AcDbEntity
  8
MO_001_VIEW_PV
  6
C_SOLID_M
100
AcDbLine
 10
66.313028
 20
6.760785
 30
0.0
 11
65.939976
 21
6.424888
 31
0.0
  0
LINE
  5
ED
330
1E
100
AcDbEntity
  8
MO_001_VIEW_PV
  6
C_SOLID_M
100
AcDbLine
 10
67.38363599999999
 20
5.571755
 30
0.0
 11
67.01058399999999
 21
5.235857
 31
0.0
  0
ARC
  5
EE
330
1E
100
AcDbEntity
  8
MO_001_VIEW_PV
  6
C_SOLID_M
100
AcDbCircle
 10
60.0
 20
0.0
 30
0.0
 40
8.75
100
AcDbArc
 50
60.754212
 51
71.24579200000001
  0
ARC
  5
EF
330
1E
100
AcDbEntity
  8
MO_001_VIEW_PV
  6
C_SOLID_M
100
AcDbCircle
 10
60.0
 20
0.0
 30
0.0
 40
10.0
100
AcDbArc
 50
71.991608
 51
84.008397
  0
ARC
  5
F0
330
1E
100
AcDbEntity
  8
MO_001_VIEW_PV
  6
C_SOLID_M
100
AcDbCircle
 10
62.998817
 20
9.224809
 30
0.0
 40
0.3
100
AcDbArc
 50
333.855006
 51
71.99161499999999
  0
ARC
  5
F1
330
1E
100
AcDbEntity
  8
MO_001_VIEW_PV
  6
C_SOLID_M
100
AcDbCircle
 10
64.84877
 20
8.401156
 30
0.0
 40
0.3
100
AcDbArc
 50
60.008382
 51
158.144998
  0
ARC
  5
F2
330
1E
100
AcDbEntity
  8
MO_001_VIEW_PV
  6
C_SOLID_M
100
AcDbCircle
 10
60.0
 20
0.0
 30
0.0
 40
10.0
100
AcDbArc
 50
71.991608
 51
84.008397
  0
LINE
  5
F3
330
1E
100
AcDbEntity
  8
MO_001_VIEW_PV
  6
C_SOLID_M
100
AcDbLine
 10
63.268126
 20
9.092615999999999
 30
0.0
 11
63.085353
 21
8.720272999999998
 31
0.0
  0
LINE
  5
F4
330
1E
100
AcDbEntity
  8
MO_001_VIEW_PV
  6
C_SOLID_M
100
AcDbLine
 10
64.570319
 20
8.512824
 30
0.0
 11
64.41591200000001
 21
8.127850999999999
 31
0.0
  0
ARC
  5
F5
330
1E
100
AcDbEntity
  8
MO_001_VIEW_PV
  6
C_SOLID_M
100
AcDbCircle
 10
60.0
 20
0.0
 30
0.0
 40
9.25
100
AcDbArc
 50
61.03849799999999
 51
70.961506
  0
LINE
  5
F6
330
1E
100
AcDbEntity
  8
MO_001_VIEW_PV
  6
C_SOLID_M
100
AcDbLine
 10
63.017379
 20
8.744024000000001
 30
0.0
 11
62.813202
 21
8.285435000000001
 31
0.0
  0
LINE
  5
F7
330
1E
100
AcDbEntity
  8
MO_001_VIEW_PV
  6
C_SOLID_M
100
AcDbLine
 10
64.47905
 20
8.093246
 30
0.0
 11
64.274873
 21
7.634657
 31
0.0
  0
ARC
  5
F8
330
1E
100
AcDbEntity
  8
MO_001_VIEW_PV
  6
C_SOLID_M
100
AcDbCircle
 10
60.0
 20
0.0
 30
0.0
 40
2.779999999999999
100
AcDbArc
 50
269.999998
 51
33.810758
  0
ARC
  5
F9
330
1E
100
AcDbEntity
  8
MO_001_VIEW_PV
  6
C_SOLID_M
100
AcDbCircle
 10
60.0
 20
0.0
 30
0.0
 40
8.75
100
AcDbArc
 50
244.81502
 51
114.000003
  0
ARC
  5
FA
330
1E
100
AcDbEntity
  8
MO_001_VIEW_PV
  6
C_SOLID_M
100
AcDbCircle
 10
60.0
 20
0.0
 30
0.0
 40
8.449999999999999
100
AcDbArc
 50
269.999998
 51
90.000002
  0
ARC
  5
FB
330
1E
100
AcDbEntity
  8
MO_001_VIEW_PV
  6
C_SOLID_M
100
AcDbCircle
 10
60.0
 20
0.0
 30
0.0
 40
9.449999999999999
100
AcDbArc
 50
279.66492
 51
289.110034
  0
ARC
  5
FC
330
1E
100
AcDbEntity
  8
MO_001_VIEW_PV
  6
C_SOLID_M
100
AcDbCircle
 10
60.0
 20
0.0
 30
0.0
 40
9.75
100
AcDbArc
 50
279.66492
 51
289.110034
  0
LINE
  5
FD
330
1E
100
AcDbEntity
  8
MO_001_VIEW_PV
  6
C_SOLID_M
100
AcDbLine
 10
63.19198199999999
 20
-9.212697999999999
 30
0.0
 11
63.093766
 21
-8.929227
 31
0.0
  0
ARC
  5
FE
330
1E
100
AcDbEntity
  8
MO_001_VIEW_PV
  6
C_SOLID_M
100
AcDbCircle
 10
61.502579
 20
-8.822967
 30
0.0
 40
0.5
100
AcDbArc
 50
237.3495689999999
 51
279.66492
  0
ARC
  5
FF
330
1E
100
AcDbEntity
  8
MO_001_VIEW_PV
  6
C_SOLID_M
100
AcDbCircle
 10
61.502579
 20
-8.822967
 30
0.0
 40
0.8
100
AcDbArc
 50
237.3495689999999
 51
279.66492
  0
ARC
  5
100
330
1E
100
AcDbEntity
  8
MO_001_VIEW_PV
  6
C_SOLID_M
100
AcDbCircle
 10
59.347107
 20
-10.52977899999999
 30
0.0
 40
1.800000999999999
100
AcDbArc
 50
57.34956700000001
 51
86.451945
  0
LINE
  5
101
330
1E
100
AcDbEntity
  8
MO_001_VIEW_PV
  6
C_SOLID_M
100
AcDbLine
 10
60.318224
 20
-9.014215
 30
0.0
 11
61.07096899999999
 21
-9.496549999999999
 31
0.0
  0
LINE
  5
102
330
1E
100
AcDbEntity
  8
MO_001_VIEW_PV
  6
C_SOLID_M
100
AcDbLine
 10
60.480079
 20
-8.761619999999998
 30
0.0
 11
61.232824
 21
-9.243953999999998
 31
0.0
  0
ARC
  5
103
330
1E
100
AcDbEntity
  8
MO_001_VIEW_PV
  6
C_SOLID_M
100
AcDbCircle
 10
60.0
 20
0.0
 30
0.0
 40
3.08
100
AcDbArc
 50
269.999998
 51
90.000002
  0
LINE
  5
104
330
1E
100
AcDbEntity
  8
MO_001_VIEW_PV
  6
C_SOLID_M
100
AcDbLine
 10
56.276499
 20
-7.918214999999999
 30
0.0
 11
56.39819499999999
 21
-7.659419999999999
 31
0.0
  0
ARC
  5
105
330
1E
100
AcDbEntity
  8
MO_001_VIEW_PV
  6
C_SOLID_M
100
AcDbCircle
 10
60.0
 20
0.15
 30
0.0
 40
8.599999999999999
100
AcDbArc
 50
90.000002
 51
270.000001
  0
ARC
  5
106
330
1E
100
AcDbEntity
  8
MO_001_VIEW_PV
  6
C_SOLID_M
100
AcDbCircle
 10
60.0
 20
0.15
 30
0.0
 40
8.299998999999999
100
AcDbArc
 50
90.000002
 51
270.000001
  0
ARC
  5
107
330
1E
100
AcDbEntity
  8
MO_001_VIEW_PV
  6
C_SOLID_M
100
AcDbCircle
 10
60.0
 20
0.15
 30
0.0
 40
2.93
100
AcDbArc
 50
90.000002
 51
270.000001
  0
ARC
  5
108
330
1E
100
AcDbEntity
  8
MO_001_VIEW_PV
  6
C_SOLID_M
100
AcDbCircle
 10
60.0
 20
0.15
 30
0.0
 40
3.229999999999999
100
AcDbArc
 50
90.000002
 51
270.000001
  0
ARC
  5
109
330
1E
100
AcDbEntity
  8
MO_001_VIEW_PV
  6
C_SOLID_M
100
AcDbCircle
 10
60.0
 20
0.0
 30
0.0
 40
3.379999999999999
100
AcDbArc
 50
269.999998
 51
90.000002
  0
ARC
  5
10A
330
1E
100
AcDbEntity
  8
MO_001_VIEW_PV
  6
C_SOLID_M
100
AcDbCircle
 10
60.0
 20
0.15
 30
0.0
 40
3.529999999999999
100
AcDbArc
 50
90.000002
 51
270.000001
  0
ARC
  5
10B
330
1E
100
AcDbEntity
  8
MO_001_VIEW_PV
  6
C_SOLID_M
100
AcDbCircle
 10
60.0
 20
0.0
 30
0.0
 40
3.68
100
AcDbArc
 50
269.999998
 51
90.000002
  0
ARC
  5
10C
330
1E
100
AcDbEntity
  8
MO_001_VIEW_PV
  6
C_SOLID_M
100
AcDbCircle
 10
60.0
 20
0.0
 30
0.0
 40
8.15
100
AcDbArc
 50
269.999998
 51
90.000002
  0
ARC
  5
10D
330
1E
100
AcDbEntity
  8
MO_001_VIEW_PV
  6
C_SOLID_M
100
AcDbCircle
 10
60.0
 20
0.15
 30
0.0
 40
7.999999
100
AcDbArc
 50
90.000002
 51
270.000001
  0
ARC
  5
10E
330
1E
100
AcDbEntity
  8
MO_001_VIEW_PV
  6
C_SOLID_M
100
AcDbCircle
 10
60.0
 20
0.23175
 30
0.0
 40
7.264249999999999
100
AcDbArc
 50
90.000002
 51
270.000001
  0
ARC
  5
10F
330
1E
100
AcDbEntity
  8
MO_001_VIEW_PV
  6
C_SOLID_M
100
AcDbCircle
 10
60.0
 20
-0.24525
 30
0.0
 40
6.78725
100
AcDbArc
 50
269.999998
 51
90.000002
  0
ARC
  5
110
330
1E
100
AcDbEntity
  8
MO_001_VIEW_PV
  6
C_SOLID_M
100
AcDbCircle
 10
60.0
 20
0.3135
 30
0.0
 40
6.2285
100
AcDbArc
 50
90.000002
 51
270.000001
  0
ARC
  5
111
330
1E
100
AcDbEntity
  8
MO_001_VIEW_PV
  6
C_SOLID_M
100
AcDbCircle
 10
60.0
 20
-0.1635
 30
0.0
 40
5.7515
100
AcDbArc
 50
269.999998
 51
90.000002
  0
ARC
  5
112
330
1E
100
AcDbEntity
  8
MO_001_VIEW_PV
  6
C_SOLID_M
100
AcDbCircle
 10
60.0
 20
0.39525
 30
0.0
 40
5.19275
100
AcDbArc
 50
90.000002
 51
270.000001
  0
ARC
  5
113
330
1E
100
AcDbEntity
  8
MO_001_VIEW_PV
  6
C_SOLID_M
100
AcDbCircle
 10
60.0
 20
-0.08175
 30
0.0
 40
4.715749999999999
100
AcDbArc
 50
269.999998
 51
90.000002
  0
ARC
  5
114
330
1E
100
AcDbEntity
  8
MO_001_VIEW_PV
  6
C_SOLID_M
100
AcDbCircle
 10
60.0
 20
0.4770000000000001
 30
0.0
 40
4.157001
100
AcDbArc
 50
90.000002
 51
270.000001
  0
ARC
  5
115
330
1E
100
AcDbEntity
  8
MO_001_VIEW_PV
  6
C_SOLID_M
100
AcDbCircle
 10
60.0
 20
0.4770000000000001
 30
0.0
 40
3.857001
100
AcDbArc
 50
90.000002
 51
270.000001
  0
ARC
  5
116
330
1E
100
AcDbEntity
  8
MO_001_VIEW_PV
  6
C_SOLID_M
100
AcDbCircle
 10
60.0
 20
-0.08175
 30
0.0
 40
4.41575
100
AcDbArc
 50
269.999998
 51
90.000002
  0
ARC
  5
117
330
1E
100
AcDbEntity
  8
MO_001_VIEW_PV
  6
C_SOLID_M
100
AcDbCircle
 10
60.0
 20
0.39525
 30
0.0
 40
4.89275
100
AcDbArc
 50
90.000002
 51
270.000001
  0
ARC
  5
118
330
1E
100
AcDbEntity
  8
MO_001_VIEW_PV
  6
C_SOLID_M
100
AcDbCircle
 10
60.0
 20
-0.1635
 30
0.0
 40
5.4515
100
AcDbArc
 50
269.999998
 51
90.000002
  0
ARC
  5
119
330
1E
100
AcDbEntity
  8
MO_001_VIEW_PV
  6
C_SOLID_M
100
AcDbCircle
 10
60.0
 20
0.3135
 30
0.0
 40
5.928499999999999
100
AcDbArc
 50
90.000002
 51
270.000001
  0
ARC
  5
11A
330
1E
100
AcDbEntity
  8
MO_001_VIEW_PV
  6
C_SOLID_M
100
AcDbCircle
 10
60.0
 20
-0.24525
 30
0.0
 40
6.487248999999999
100
AcDbArc
 50
269.999998
 51
90.000002
  0
ARC
  5
11B
330
1E
100
AcDbEntity
  8
MO_001_VIEW_PV
  6
C_SOLID_M
100
AcDbCircle
 10
60.0
 20
0.23175
 30
0.0
 40
6.964249999999999
100
AcDbArc
 50
90.000002
 51
270.000001
  0
ARC
  5
11C
330
1E
100
AcDbEntity
  8
MO_001_VIEW_PV
  6
C_SOLID_M
100
AcDbCircle
 10
60.0
 20
-0.327
 30
0.0
 40
7.822999999999999
100
AcDbArc
 50
269.999998
 51
90.000002
  0
ARC
  5
11D
330
1E
100
AcDbEntity
  8
MO_001_VIEW_PV
  6
C_SOLID_M
100
AcDbCircle
 10
60.0
 20
-0.327
 30
0.0
 40
7.522999999999999
100
AcDbArc
 50
269.999998
 51
90.000002
  0
LINE
  5
11E
330
1E
100
AcDbEntity
  8
MO_001_VIEW_PV
  6
C_SOLID_M
100
AcDbLine
 10
61.95140799999999
 20
1.98
 30
0.0
 11
62.060577
 21
1.98
 31
0.0
  0
ARC
  5
11F
330
1E
100
AcDbEntity
  8
MO_001_VIEW_PV
  6
C_SOLID_M
100
AcDbCircle
 10
62.060577
 20
1.379999999999999
 30
0.0
 40
0.6
100
AcDbArc
 50
33.810758
 51
89.99998900000001
  0
CIRCLE
  5
120
330
1E
100
AcDbEntity
  8
MO_001_VIEW_PV
  6
C_SOLID_M
100
AcDbCircle
 10
60.0
 20
0.0
 30
0.0
 40
2.479999999999999
  0
LINE
  5
121
330
1E
100
AcDbEntity
  8
MO_001_VIEW_PV
  6
C_SOLID_M
100
AcDbLine
 10
65.75000799999999
 20
-28.806343
 30
0.0
 11
65.75000799999999
 21
-18.7376
 31
0.0
  0
LINE
  5
122
330
1E
100
AcDbEntity
  8
MO_001_VIEW_PV
  6
C_SOLID_M
100
AcDbLine
 10
67.75000799999999
 20
-28.806343
 30
0.0
 11
67.75000799999999
 21
-18.002712
 31
0.0
  0
LINE
  5
123
330
1E
100
AcDbEntity
  8
MO_001_VIEW_PV
  6
C_SOLID_M
100
AcDbLine
 10
67.75000799999999
 20
-28.806343
 30
0.0
 11
65.75000799999999
 21
-28.806343
 31
0.0
  0
LINE
  5
124
330
1E
100
AcDbEntity
  8
MO_001_VIEW_PV
  6
C_SOLID_M
100
AcDbLine
 10
54.25
 20
-28.806343
 30
0.0
 11
54.25
 21
-18.73760199999999
 31
0.0
  0
LINE
  5
125
330
1E
100
AcDbEntity
  8
MO_001_VIEW_PV
  6
C_SOLID_M
100
AcDbLine
 10
52.25
 20
-28.806343
 30
0.0
 11
52.25
 21
-18.002714
 31
0.0
  0
LINE
  5
126
330
1E
100
AcDbEntity
  8
MO_001_VIEW_PV
  6
C_SOLID_M
100
AcDbLine
 10
52.25
 20
-28.806343
 30
0.0
 11
54.25
 21
-28.806343
 31
0.0
  0
LINE
  5
127
330
1E
100
AcDbEntity
  8
MO_001_VIEW_PV
  6
C_SOLID_M
100
AcDbLine
 10
52.449997
 20
-33.806343
 30
0.0
 11
52.449997
 21
-28.806343
 31
0.0
  0
LINE
  5
128
330
1E
100
AcDbEntity
  8
MO_001_VIEW_PV
  6
C_SOLID_M
100
AcDbLine
 10
54.04999499999999
 20
-33.806343
 30
0.0
 11
54.04999499999999
 21
-28.806343
 31
0.0
  0
LINE
  5
129
330
1E
100
AcDbEntity
  8
MO_001_VIEW_PV
  6
C_SOLID_M
100
AcDbLine
 10
54.04999499999999
 20
-38.30634299999999
 30
0.0
 11
54.04999499999999
 21
-34.806343
 31
0.0
  0
LINE
  5
12A
330
1E
100
AcDbEntity
  8
MO_001_VIEW_PV
  6
C_SOLID_M
100
AcDbLine
 10
52.449997
 20
-38.30634299999999
 30
0.0
 11
52.449997
 21
-34.806343
 31
0.0
  0
LINE
  5
12B
330
1E
100
AcDbEntity
  8
MO_001_VIEW_PV
  6
C_SOLID_M
100
AcDbLine
 10
52.449997
 20
-38.30634299999999
 30
0.0
 11
54.04999499999999
 21
-38.30634299999999
 31
0.0
  0
LINE
  5
12C
330
1E
100
AcDbEntity
  8
MO_001_VIEW_PV
  6
C_SOLID_M
100
AcDbLine
 10
53.523972
 20
-38.30634299999999
 30
0.0
 11
53.523972
 21
-43.30634299999999
 31
0.0
  0
LINE
  5
12D
330
1E
100
AcDbEntity
  8
MO_001_VIEW_PV
  6
C_SOLID_M
100
AcDbLine
 10
52.97602099999999
 20
-38.30634299999999
 30
0.0
 11
52.97602099999999
 21
-43.30634299999999
 31
0.0
  0
LINE
  5
12E
330
1E
100
AcDbEntity
  8
MO_001_VIEW_PV
  6
C_SOLID_M
100
AcDbLine
 10
52.97602099999999
 20
-43.30634299999999
 30
0.0
 11
53.523972
 21
-43.30634299999999
 31
0.0
  0
ARC
  5
12F
330
1E
100
AcDbEntity
  8
MO_001_VIEW_PV
  6
C_SOLID_M
100
AcDbCircle
 10
52.849991
 20
-34.106339
 30
0.0
 40
0.499994
100
AcDbArc
 50
36.869634
 51
143.1303709999999
  0
ARC
  5
130
330
1E
100
AcDbEntity
  8
MO_001_VIEW_PV
  6
C_SOLID_M
100
AcDbCircle
 10
52.849991
 20
-33.50634799999999
 30
0.0
 40
0.499994
100
AcDbArc
 50
216.869629
 51
323.1303759999999
  0
ARC
  5
131
330
1E
100
AcDbEntity
  8
MO_001_VIEW_PV
  6
C_SOLID_M
100
AcDbCircle
 10
53.64999399999999
 20
-33.50634799999999
 30
0.0
 40
0.499994
100
AcDbArc
 50
216.869629
 51
323.1303689999999
  0
ARC
  5
132
330
1E
100
AcDbEntity
  8
MO_001_VIEW_PV
  6
C_SOLID_M
100
AcDbCircle
 10
53.64999399999999
 20
-34.50634799999999
 30
0.0
 40
0.499994
100
AcDbArc
 50
216.869643
 51
323.1303759999999
  0
ARC
  5
133
330
1E
100
AcDbEntity
  8
MO_001_VIEW_PV
  6
C_SOLID_M
100
AcDbCircle
 10
53.64999399999999
 20
-35.106339
 30
0.0
 40
0.499994
100
AcDbArc
 50
36.86963099999999
 51
143.1303709999999
  0
ARC
  5
134
330
1E
100
AcDbEntity
  8
MO_001_VIEW_PV
  6
C_SOLID_M
100
AcDbCircle
 10
52.849991
 20
-35.106339
 30
0.0
 40
0.499994
100
AcDbArc
 50
36.86963099999999
 51
143.1303709999999
  0
LINE
  5
135
330
1E
100
AcDbEntity
  8
MO_001_VIEW_PV
  6
C_SOLID_M
100
AcDbLine
 10
65.95000500000001
 20
-33.806343
 30
0.0
 11
65.95000500000001
 21
-28.806343
 31
0.0
  0
LINE
  5
136
330
1E
100
AcDbEntity
  8
MO_001_VIEW_PV
  6
C_SOLID_M
100
AcDbLine
 10
67.550003
 20
-33.806343
 30
0.0
 11
67.550003
 21
-28.806343
 31
0.0
  0
LINE
  5
137
330
1E
100
AcDbEntity
  8
MO_001_VIEW_PV
  6
C_SOLID_M
100
AcDbLine
 10
67.550003
 20
-38.30634299999999
 30
0.0
 11
67.550003
 21
-34.806343
 31
0.0
  0
LINE
  5
138
330
1E
100
AcDbEntity
  8
MO_001_VIEW_PV
  6
C_SOLID_M
100
AcDbLine
 10
65.95000500000001
 20
-38.30634299999999
 30
0.0
 11
65.95000500000001
 21
-34.806343
 31
0.0
  0
LINE
  5
139
330
1E
100
AcDbEntity
  8
MO_001_VIEW_PV
  6
C_SOLID_M
100
AcDbLine
 10
65.95000500000001
 20
-38.30634299999999
 30
0.0
 11
67.550003
 21
-38.30634299999999
 31
0.0
  0
LINE
  5
13A
330
1E
100
AcDbEntity
  8
MO_001_VIEW_PV
  6
C_SOLID_M
100
AcDbLine
 10
67.023979
 20
-38.30634299999999
 30
0.0
 11
67.023979
 21
-43.30634299999999
 31
0.0
  0
LINE
  5
13B
330
1E
100
AcDbEntity
  8
MO_001_VIEW_PV
  6
C_SOLID_M
100
AcDbLine
 10
66.476028
 20
-38.30634299999999
 30
0.0
 11
66.476028
 21
-43.30634299999999
 31
0.0
  0
LINE
  5
13C
330
1E
100
AcDbEntity
  8
MO_001_VIEW_PV
  6
C_SOLID_M
100
AcDbLine
 10
66.476028
 20
-43.30634299999999
 30
0.0
 11
67.023979
 21
-43.30634299999999
 31
0.0
  0
ARC
  5
13D
330
1E
100
AcDbEntity
  8
MO_001_VIEW_PV
  6
C_SOLID_M
100
AcDbCircle
 10
66.349998
 20
-34.106339
 30
0.0
 40
0.499994
100
AcDbArc
 50
36.869634
 51
143.1303709999999
  0
ARC
  5
13E
330
1E
100
AcDbEntity
  8
MO_001_VIEW_PV
  6
C_SOLID_M
100
AcDbCircle
 10
66.349998
 20
-33.50634799999999
 30
0.0
 40
0.499994
100
AcDbArc
 50
216.869629
 51
323.1303759999999
  0
ARC
  5
13F
330
1E
100
AcDbEntity
  8
MO_001_VIEW_PV
  6
C_SOLID_M
100
AcDbCircle
 10
67.150002
 20
-33.50634799999999
 30
0.0
 40
0.499994
100
AcDbArc
 50
216.869629
 51
323.1303689999999
  0
ARC
  5
140
330
1E
100
AcDbEntity
  8
MO_001_VIEW_PV
  6
C_SOLID_M
100
AcDbCircle
 10
67.150002
 20
-34.50634799999999
 30
0.0
 40
0.499994
100
AcDbArc
 50
216.869643
 51
323.1303759999999
  0
ARC
  5
141
330
1E
100
AcDbEntity
  8
MO_001_VIEW_PV
  6
C_SOLID_M
100
AcDbCircle
 10
67.150002
 20
-35.106339
 30
0.0
 40
0.499994
100
AcDbArc
 50
36.86963099999999
 51
143.1303709999999
  0
ARC
  5
142
330
1E
100
AcDbEntity
  8
MO_001_VIEW_PV
  6
C_SOLID_M
100
AcDbCircle
 10
66.349998
 20
-35.106339
 30
0.0
 40
0.499994
100
AcDbArc
 50
36.86963099999999
 51
143.1303709999999
  0
LINE
  5
143
330
1E
100
AcDbEntity
  8
MO_001_VIEW_PV
  6
C_SOLID_M
100
AcDbLine
 10
-0.5
 20
17.375
 30
0.0
 11
-0.5
 21
-17.375
 31
0.0
  0
LINE
  5
144
330
1E
100
AcDbEntity
  8
MO_001_VIEW_PV
  6
C_CENTER_L
100
AcDbLine
 10
-38.17347
 20
0.0
 30
0.0
 11
22.164341
 21
0.0
 31
0.0
  0
LINE
  5
145
330
1E
100
AcDbEntity
  8
MO_001_VIEW_PV
  6
C_SOLID_M
100
AcDbLine
 10
-0.9
 20
17.77499599999999
 30
0.0
 11
-0.500003
 21
17.37499899999999
 31
0.0
  0
LINE
  5
146
330
1E
100
AcDbEntity
  8
MO_001_VIEW_PV
  6
C_SOLID_M
100
AcDbLine
 10
-0.500003
 20
-17.37499899999999
 30
0.0
 11
-0.9000020000000001
 21
-17.77499899999999
 31
0.0
  0
LINE
  5
147
330
1E
100
AcDbEntity
  8
MO_001_VIEW_PV
  6
C_SOLID_M
100
AcDbLine
 10
-0.9000020000000001
 20
17.775002
 30
0.0
 11
-0.9000020000000001
 21
-17.775002
 31
0.0
  0
LINE
  5
148
330
1E
100
AcDbEntity
  8
MO_001_VIEW_PV
  6
C_SOLID_M
100
AcDbLine
 10
-20.199997
 20
16.0
 30
0.0
 11
-20.199997
 21
-16.0
 31
0.0
  0
LINE
  5
149
330
1E
100
AcDbEntity
  8
MO_001_VIEW_PV
  6
C_SOLID_M
100
AcDbLine
 10
-0.9000020000000001
 20
19.599998
 30
0.0
 11
-0.9000020000000001
 21
-19.599998
 31
0.0
  0
LINE
  5
14A
330
1E
100
AcDbEntity
  8
MO_001_VIEW_PV
  6
C_SOLID_M
100
AcDbLine
 10
-16.599998
 20
19.599998
 30
0.0
 11
-0.9000020000000001
 21
19.599998
 31
0.0
  0
LINE
  5
14B
330
1E
100
AcDbEntity
  8
MO_001_VIEW_PV
  6
C_SOLID_M
100
AcDbLine
 10
-16.599998
 20
-19.599998
 30
0.0
 11
-0.9000020000000001
 21
-19.599998
 31
0.0
  0
ARC
  5
14C
330
1E
100
AcDbEntity
  8
MO_001_VIEW_PV
  6
C_SOLID_M
100
AcDbCircle
 10
-16.599998
 20
16.0
 30
0.0
 40
3.6
100
AcDbArc
 50
90.000002
 51
180.000005
  0
ARC
  5
14D
330
1E
100
AcDbEntity
  8
MO_001_VIEW_PV
  6
C_SOLID_M
100
AcDbCircle
 10
-16.599998
 20
-16.0
 30
0.0
 40
3.6
100
AcDbArc
 50
180.000009
 51
218.0223189999999
  0
ARC
  5
14E
330
1E
100
AcDbEntity
  8
MO_001_VIEW_PV
  6
C_SOLID_M
100
AcDbCircle
 10
-21.020899
 20
9.233032000000001
 30
0.0
 40
1.587499999999999
100
AcDbArc
 50
58.86182599999999
 51
106.87781
  0
ARC
  5
14F
330
1E
100
AcDbEntity
  8
MO_001_VIEW_PV
  6
C_SOLID_M
100
AcDbCircle
 10
-21.020899
 20
-13.5
 30
0.0
 40
1.587499999999999
100
AcDbArc
 50
58.86182599999999
 51
106.87781
  0
LINE
  5
150
330
1E
100
AcDbEntity
  8
MO_001_VIEW_PV
  6
C_SOLID_M
100
AcDbLine
 10
-21.48179999999999
 20
17.449997
 30
0.0
 11
-21.48179999999999
 21
-17.449997
 31
0.0
  0
LINE
  5
151
330
1E
100
AcDbEntity
  8
MO_001_VIEW_PV
  6
C_SOLID_M
100
AcDbLine
 10
-23.081799
 20
17.449997
 30
0.0
 11
-23.081799
 21
-17.449997
 31
0.0
  0
LINE
  5
152
330
1E
100
AcDbEntity
  8
MO_001_VIEW_PV
  6
C_SOLID_M
100
AcDbLine
 10
-23.081799
 20
17.449997
 30
0.0
 11
-21.48179999999999
 21
17.449997
 31
0.0
  0
LINE
  5
153
330
1E
100
AcDbEntity
  8
MO_001_VIEW_PV
  6
C_SOLID_M
100
AcDbLine
 10
-23.081799
 20
-17.449997
 30
0.0
 11
-21.48179999999999
 21
-17.449997
 31
0.0
  0
LINE
  5
154
330
1E
100
AcDbEntity
  8
MO_001_VIEW_PV
  6
C_SOLID_M
100
AcDbLine
 10
-23.18033799999999
 20
10.53303499999999
 30
0.0
 11
-23.081799
 21
10.53303499999999
 31
0.0
  0
ARC
  5
155
330
1E
100
AcDbEntity
  8
MO_001_VIEW_PV
  6
C_SOLID_M
100
AcDbCircle
 10
-22.981798
 20
-13.5
 30
0.0
 40
1.6
100
AcDbArc
 50
93.583338
 51
266.4166649999999
  0
ARC
  5
156
330
1E
100
AcDbEntity
  8
MO_001_VIEW_PV
  6
C_SOLID_M
100
AcDbCircle
 10
-22.981798
 20
3.691009999999999
 30
0.0
 40
1.0
100
AcDbArc
 50
185.152758
 51
264.260808
  0
LINE
  5
157
330
1E
100
AcDbEntity
  8
MO_001_VIEW_PV
  6
C_SOLID_M
100
AcDbLine
 10
-24.475087
 20
9.116285000000001
 30
0.0
 11
-23.977759
 21
3.601198
 31
0.0
  0
ARC
  5
158
330
1E
100
AcDbEntity
  8
MO_001_VIEW_PV
  6
C_SOLID_M
100
AcDbCircle
 10
-23.18033799999999
 20
9.233032000000001
 30
0.0
 40
1.3
100
AcDbArc
 50
89.99998199999998
 51
185.1527679999999
  0
ARC
  5
159
330
1E
100
AcDbEntity
  8
MO_001_VIEW_PV
  6
C_SOLID_M
100
AcDbCircle
 10
-21.020899
 20
-13.5
 30
0.0
 40
1.587499999999999
100
AcDbArc
 50
253.1221899999999
 51
301.138174
  0
ARC
  5
15A
330
1E
100
AcDbEntity
  8
MO_001_VIEW_PV
  6
C_SOLID_M
100
AcDbCircle
 10
-21.020899
 20
9.233032000000001
 30
0.0
 40
1.587499999999999
100
AcDbArc
 50
253.1221899999999
 51
301.138174
  0
LINE
  5
15B
330
1E
100
AcDbEntity
  8
MO_001_VIEW_PV
  6
C_SOLID_M
100
AcDbLine
 10
-23.98179999999999
 20
3.691009999999999
 30
0.0
 11
-23.98179999999999
 21
-7.099997999999999
 31
0.0
  0
LINE
  5
15C
330
1E
100
AcDbEntity
  8
MO_001_VIEW_PV
  6
C_SOLID_M
100
AcDbLine
 10
-23.98179999999999
 20
-7.099997999999999
 30
0.0
 11
-23.081799
 21
-7.099997999999999
 31
0.0
  0
LINE
  5
15D
330
1E
100
AcDbEntity
  8
MO_001_VIEW_PV
  6
C_SOLID_M
100
AcDbLine
 10
-21.48179999999999
 20
-9.0
 30
0.0
 11
-20.199997
 21
-9.0
 31
0.0
  0
LINE
  5
15E
330
1E
100
AcDbEntity
  8
MO_001_VIEW_PV
  6
C_SOLID_M
100
AcDbLine
 10
-23.98179999999999
 20
-6.896149
 30
0.0
 11
-23.081799
 21
-6.896149
 31
0.0
  0
LINE
  5
15F
330
1E
100
AcDbEntity
  8
MO_001_VIEW_PV
  6
C_SOLID_M
100
AcDbLine
 10
-23.4818
 20
-5.398727
 30
0.0
 11
-23.081799
 21
-5.398727
 31
0.0
  0
LINE
  5
160
330
1E
100
AcDbEntity
  8
MO_001_VIEW_PV
  6
C_SOLID_M
100
AcDbLine
 10
-23.98179999999999
 20
-5.205269
 30
0.0
 11
-23.4818
 21
-5.205269
 31
0.0
  0
LINE
  5
161
330
1E
100
AcDbEntity
  8
MO_001_VIEW_PV
  6
C_SOLID_M
100
AcDbLine
 10
-23.98179999999999
 20
-1.642456
 30
0.0
 11
-23.4818
 21
-1.642456
 31
0.0
  0
LINE
  5
162
330
1E
100
AcDbEntity
  8
MO_001_VIEW_PV
  6
C_SOLID_M
100
AcDbLine
 10
-23.4818
 20
-1.360465999999999
 30
0.0
 11
-23.081799
 21
-1.360465999999999
 31
0.0
  0
LINE
  5
163
330
1E
100
AcDbEntity
  8
MO_001_VIEW_PV
  6
C_SOLID_M
100
AcDbLine
 10
-23.4818
 20
1.360465999999999
 30
0.0
 11
-23.081799
 21
1.360465999999999
 31
0.0
  0
LINE
  5
164
330
1E
100
AcDbEntity
  8
MO_001_VIEW_PV
  6
C_SOLID_M
100
AcDbLine
 10
-23.98179999999999
 20
1.642456
 30
0.0
 11
-23.4818
 21
1.642456
 31
0.0
  0
LINE
  5
165
330
1E
100
AcDbEntity
  8
MO_001_VIEW_PV
  6
C_SOLID_M
100
AcDbLine
 10
-23.4818
 20
-5.205269
 30
0.0
 11
-23.4818
 21
-6.896149
 31
0.0
  0
LINE
  5
166
330
1E
100
AcDbEntity
  8
MO_001_VIEW_PV
  6
C_SOLID_M
100
AcDbLine
 10
-23.4818
 20
1.642456
 30
0.0
 11
-23.4818
 21
-1.642456
 31
0.0
  0
LINE
  5
167
330
1E
100
AcDbEntity
  8
MO_001_VIEW_PV
  6
C_SOLID_M
100
AcDbLine
 10
12.81820399999999
 20
2.480002999999999
 30
0.0
 11
12.81820399999999
 21
-2.480002999999999
 31
0.0
  0
LINE
  5
168
330
1E
100
AcDbEntity
  8
MO_001_VIEW_PV
  6
C_SOLID_M
100
AcDbLine
 10
-35.981796
 20
2.634415
 30
0.0
 11
-35.981796
 21
-2.634415
 31
0.0
  0
LINE
  5
169
330
1E
100
AcDbEntity
  8
MO_001_VIEW_PV
  6
C_SOLID_M
100
AcDbLine
 10
4.218205
 20
2.779999
 30
0.0
 11
4.218205
 21
1.980002999999999
 31
0.0
  0
LINE
  5
16A
330
1E
100
AcDbEntity
  8
MO_001_VIEW_PV
  6
C_SOLID_M
100
AcDbLine
 10
4.218205
 20
2.779999
 30
0.0
 11
12.51820099999999
 21
2.779999
 31
0.0
  0
LINE
  5
16B
330
1E
100
AcDbEntity
  8
MO_001_VIEW_PV
  6
C_SOLID_M
100
AcDbLine
 10
3.818204
 20
-2.779999
 30
0.0
 11
12.51820099999999
 21
-2.779999
 31
0.0
  0
LINE
  5
16C
330
1E
100
AcDbEntity
  8
MO_001_VIEW_PV
  6
C_SOLID_M
100
AcDbLine
 10
-35.58179699999999
 20
2.780002999999999
 30
0.0
 11
-35.9818
 21
2.634412999999999
 31
0.0
  0
LINE
  5
16D
330
1E
100
AcDbEntity
  8
MO_001_VIEW_PV
  6
C_SOLID_M
100
AcDbLine
 10
-35.581803
 20
-2.779996
 30
0.0
 11
-35.981799
 21
-2.634409
 31
0.0
  0
LINE
  5
16E
330
1E
100
AcDbEntity
  8
MO_001_VIEW_PV
  6
C_SOLID_M
100
AcDbLine
 10
12.818202
 20
2.479999
 30
0.0
 11
12.518203
 21
2.779997999999999
 31
0.0
  0
LINE
  5
16F
330
1E
100
AcDbEntity
  8
MO_001_VIEW_PV
  6
C_SOLID_M
100
AcDbLine
 10
12.518203
 20
-2.779997
 30
0.0
 11
12.818202
 21
-2.479998
 31
0.0
  0
LINE
  5
170
330
1E
100
AcDbEntity
  8
MO_001_VIEW_PV
  6
C_SOLID_M
100
AcDbLine
 10
12.51820099999999
 20
2.779999
 30
0.0
 11
12.51820099999999
 21
-2.779999
 31
0.0
  0
LINE
  5
171
330
1E
100
AcDbEntity
  8
MO_001_VIEW_PV
  6
C_SOLID_M
100
AcDbLine
 10
-35.581795
 20
2.779999
 30
0.0
 11
-35.581795
 21
-2.779999
 31
0.0
  0
LINE
  5
172
330
1E
100
AcDbEntity
  8
MO_001_VIEW_PV
  6
C_SOLID_M
100
AcDbLine
 10
3.818204
 20
1.980002999999999
 30
0.0
 11
4.218205
 21
1.980002999999999
 31
0.0
  0
LINE
  5
173
330
1E
100
AcDbEntity
  8
MO_001_VIEW_PV
  6
C_SOLID_M
100
AcDbLine
 10
-35.581795
 20
2.779999
 30
0.0
 11
-23.98179999999999
 21
2.779999
 31
0.0
  0
LINE
  5
174
330
1E
100
AcDbEntity
  8
MO_001_VIEW_PV
  6
C_SOLID_M
100
AcDbLine
 10
-35.581795
 20
-2.779999
 30
0.0
 11
-23.98179999999999
 21
-2.779999
 31
0.0
  0
LINE
  5
175
330
1E
100
AcDbEntity
  8
MO_001_VIEW_PV
  6
C_CENTER_L
100
AcDbLine
 10
-2.767310999999999
 20
13.5
 30
0.0
 11
19.295982
 21
13.5
 31
0.0
  0
LINE
  5
176
330
1E
100
AcDbEntity
  8
MO_001_VIEW_PV
  6
C_SOLID_M
100
AcDbLine
 10
18.299995
 20
14.800003
 30
0.0
 11
18.299995
 21
12.199997
 31
0.0
  0
LINE
  5
177
330
1E
100
AcDbEntity
  8
MO_001_VIEW_PV
  6
C_SOLID_M
100
AcDbLine
 10
0.0
 20
15.5
 30
0.0
 11
17.599998
 21
15.5
 31
0.0
  0
LINE
  5
178
330
1E
100
AcDbEntity
  8
MO_001_VIEW_PV
  6
C_SOLID_M
100
AcDbLine
 10
0.0
 20
11.5
 30
0.0
 11
17.599998
 21
11.5
 31
0.0
  0
LINE
  5
179
330
1E
100
AcDbEntity
  8
MO_001_VIEW_PV
  6
C_SOLID_L
100
AcDbLine
 10
0.0
 20
14.800003
 30
0.0
 11
18.299995
 21
14.800003
 31
0.0
  0
LINE
  5
17A
330
1E
100
AcDbEntity
  8
MO_001_VIEW_PV
  6
C_SOLID_L
100
AcDbLine
 10
0.0
 20
12.199997
 30
0.0
 11
18.299995
 21
12.199997
 31
0.0
  0
LINE
  5
17B
330
1E
100
AcDbEntity
  8
MO_001_VIEW_PV
  6
C_SOLID_M
100
AcDbLine
 10
17.599998
 20
15.5
 30
0.0
 11
17.599998
 21
11.5
 31
0.0
  0
LINE
  5
17C
330
1E
100
AcDbEntity
  8
MO_001_VIEW_PV
  6
C_SOLID_M
100
AcDbLine
 10
17.599992
 20
15.50000199999999
 30
0.0
 11
18.299995
 21
14.8
 31
0.0
  0
LINE
  5
17D
330
1E
100
AcDbEntity
  8
MO_001_VIEW_PV
  6
C_SOLID_M
100
AcDbLine
 10
18.299996
 20
12.19999999999999
 30
0.0
 11
17.59999399999999
 21
11.499998
 31
0.0
  0
LINE
  5
17E
330
1E
100
AcDbEntity
  8
MO_001_VIEW_PV
  6
C_CENTER_L
100
AcDbLine
 10
-2.767310999999999
 20
-13.5
 30
0.0
 11
19.295982
 21
-13.5
 31
0.0
  0
LINE
  5
17F
330
1E
100
AcDbEntity
  8
MO_001_VIEW_PV
  6
C_SOLID_M
100
AcDbLine
 10
18.299995
 20
-14.800003
 30
0.0
 11
18.299995
 21
-12.199997
 31
0.0
  0
LINE
  5
180
330
1E
100
AcDbEntity
  8
MO_001_VIEW_PV
  6
C_SOLID_M
100
AcDbLine
 10
0.0
 20
-15.5
 30
0.0
 11
17.599998
 21
-15.5
 31
0.0
  0
LINE
  5
181
330
1E
100
AcDbEntity
  8
MO_001_VIEW_PV
  6
C_SOLID_M
100
AcDbLine
 10
0.0
 20
-11.5
 30
0.0
 11
17.599998
 21
-11.5
 31
0.0
  0
LINE
  5
182
330
1E
100
AcDbEntity
  8
MO_001_VIEW_PV
  6
C_SOLID_L
100
AcDbLine
 10
0.0
 20
-14.800003
 30
0.0
 11
18.299995
 21
-14.800003
 31
0.0
  0
LINE
  5
183
330
1E
100
AcDbEntity
  8
MO_001_VIEW_PV
  6
C_SOLID_L
100
AcDbLine
 10
0.0
 20
-12.199997
 30
0.0
 11
18.299995
 21
-12.199997
 31
0.0
  0
LINE
  5
184
330
1E
100
AcDbEntity
  8
MO_001_VIEW_PV
  6
C_SOLID_M
100
AcDbLine
 10
17.599998
 20
-15.5
 30
0.0
 11
17.599998
 21
-11.5
 31
0.0
  0
LINE
  5
185
330
1E
100
AcDbEntity
  8
MO_001_VIEW_PV
  6
C_SOLID_M
100
AcDbLine
 10
17.599997
 20
-15.499997
 30
0.0
 11
18.299994
 21
-14.800001
 31
0.0
  0
LINE
  5
186
330
1E
100
AcDbEntity
  8
MO_001_VIEW_PV
  6
C_SOLID_M
100
AcDbLine
 10
18.299993
 20
-12.199995
 30
0.0
 11
17.599996
 21
-11.499999
 31
0.0
  0
LINE
  5
187
330
1E
100
AcDbEntity
  8
MO_001_VIEW_PV
  6
C_SOLID_M
100
AcDbLine
 10
-0.5
 20
17.5
 30
0.0
 11
-0.5
 21
-17.5
 31
0.0
  0
LINE
  5
188
330
1E
100
AcDbEntity
  8
MO_001_VIEW_PV
  6
C_SOLID_M
100
AcDbLine
 10
0.0
 20
17.5
 30
0.0
 11
0.0
 21
-17.5
 31
0.0
  0
LINE
  5
189
330
1E
100
AcDbEntity
  8
MO_001_VIEW_PV
  6
C_SOLID_M
100
AcDbLine
 10
-0.5
 20
17.5
 30
0.0
 11
0.0
 21
17.5
 31
0.0
  0
LINE
  5
18A
330
1E
100
AcDbEntity
  8
MO_001_VIEW_PV
  6
C_SOLID_M
100
AcDbLine
 10
-0.5
 20
-17.5
 30
0.0
 11
0.0
 21
-17.5
 31
0.0
  0
LINE
  5
18B
330
1E
100
AcDbEntity
  8
MO_001_VIEW_PV
  6
C_SOLID_M
100
AcDbLine
 10
0.4000020000000001
 20
9.25
 30
0.0
 11
2.699997
 21
9.25
 31
0.0
  0
LINE
  5
18C
330
1E
100
AcDbEntity
  8
MO_001_VIEW_PV
  6
C_SOLID_M
100
AcDbLine
 10
2.672066
 20
8.713347999999999
 30
0.0
 11
2.699997
 21
8.713347999999999
 31
0.0
  0
LINE
  5
18D
330
1E
100
AcDbEntity
  8
MO_001_VIEW_PV
  6
C_SOLID_M
100
AcDbLine
 10
0.4000020000000001
 20
9.215339999999999
 30
0.0
 11
2.699997
 21
9.215339999999999
 31
0.0
  0
LINE
  5
18E
330
1E
100
AcDbEntity
  8
MO_001_VIEW_PV
  6
C_SOLID_M
100
AcDbLine
 10
2.699997
 20
9.25
 30
0.0
 11
2.699997
 21
8.713347999999999
 31
0.0
  0
ARC
  5
18F
330
1E
100
AcDbEntity
  8
MO_001_VIEW_PV
  6
C_SOLID_M
100
AcDbCircle
 10
0.4000020000000001
 20
9.650002
 30
0.0
 40
0.4
100
AcDbArc
 50
180.000009
 51
269.999998
  0
ARC
  5
190
330
1E
100
AcDbEntity
  8
MO_001_VIEW_PV
  6
C_SOLID_M
100
AcDbCircle
 10
0.4000020000000001
 20
9.615341
 30
0.0
 40
0.4
100
AcDbArc
 50
180.000009
 51
269.999998
  0
ARC
  5
191
330
1E
100
AcDbEntity
  8
MO_001_VIEW_PV
  6
C_SOLID_M
100
AcDbCircle
 10
0.4000020000000001
 20
9.615341
 30
0.0
 40
0.9019879999999998
100
AcDbArc
 50
243.674734
 51
264.420293
  0
LINE
  5
192
330
1E
100
AcDbEntity
  8
MO_001_VIEW_PV
  6
C_SOLID_M
100
AcDbLine
 10
2.699997
 20
-8.456618999999999
 30
0.0
 11
2.699997
 21
-9.080292
 31
0.0
  0
LINE
  5
193
330
1E
100
AcDbEntity
  8
MO_001_VIEW_PV
  6
C_SOLID_M
100
AcDbLine
 10
2.699997
 20
6.51078
 30
0.0
 11
2.699997
 21
5.485854999999999
 31
0.0
  0
LINE
  5
194
330
1E
100
AcDbEntity
  8
MO_001_VIEW_PV
  6
C_SOLID_M
100
AcDbLine
 10
2.699997
 20
3.30854
 30
0.0
 11
2.699997
 21
2.231727999999999
 31
0.0
  0
LINE
  5
195
330
1E
100
AcDbEntity
  8
MO_001_VIEW_PV
  6
C_SOLID_M
100
AcDbLine
 10
2.699997
 20
-0.4264910000000001
 30
0.0
 11
2.699997
 21
-1.447562999999999
 31
0.0
  0
LINE
  5
196
330
1E
100
AcDbEntity
  8
MO_001_VIEW_PV
  6
C_SOLID_M
100
AcDbLine
 10
2.699997
 20
-3.913857
 30
0.0
 11
2.699997
 21
-5.050491
 31
0.0
  0
LINE
  5
197
330
1E
100
AcDbEntity
  8
MO_001_VIEW_PV
  6
C_SOLID_M
100
AcDbLine
 10
2.699997
 20
-6.779022
 30
0.0
 11
2.699997
 21
-7.725594
 31
0.0
  0
LINE
  5
198
330
1E
100
AcDbEntity
  8
MO_001_VIEW_PV
  6
C_SOLID_M
100
AcDbLine
 10
0.311105
 20
-1.670404999999999
 30
0.0
 11
2.388897
 21
-1.747359999999999
 31
0.0
  0
LINE
  5
199
330
1E
100
AcDbEntity
  8
MO_001_VIEW_PV
  6
C_SOLID_M
100
AcDbLine
 10
0.311103
 20
-0.256127
 30
0.0
 11
2.388895
 21
-0.179172
 31
0.0
  0
LINE
  5
19A
330
1E
100
AcDbEntity
  8
MO_001_VIEW_PV
  6
C_SOLID_M
100
AcDbLine
 10
0.311107
 20
-0.203654
 30
0.0
 11
2.388897999999999
 21
-0.126699
 31
0.0
  0
ARC
  5
19B
330
1E
100
AcDbEntity
  8
MO_001_VIEW_PV
  6
C_SOLID_M
100
AcDbCircle
 10
2.399993999999999
 20
-0.478966
 30
0.0
 40
0.3
100
AcDbArc
 50
0.0
 51
92.120571
  0
ARC
  5
19C
330
1E
100
AcDbEntity
  8
MO_001_VIEW_PV
  6
C_SOLID_M
100
AcDbCircle
 10
2.399993999999999
 20
-0.4264910000000001
 30
0.0
 40
0.3
100
AcDbArc
 50
0.0
 51
92.120571
  0
ARC
  5
19D
330
1E
100
AcDbEntity
  8
MO_001_VIEW_PV
  6
C_SOLID_M
100
AcDbCircle
 10
2.399993999999999
 20
-1.447562999999999
 30
0.0
 40
0.3
100
AcDbArc
 50
267.879422
 51
0.0
  0
ARC
  5
19E
330
1E
100
AcDbEntity
  8
MO_001_VIEW_PV
  6
C_SOLID_M
100
AcDbCircle
 10
0.300003
 20
0.043671
 30
0.0
 40
0.3
100
AcDbArc
 50
180.000009
 51
272.1205799999999
  0
ARC
  5
19F
330
1E
100
AcDbEntity
  8
MO_001_VIEW_PV
  6
C_SOLID_M
100
AcDbCircle
 10
0.300003
 20
0.096138
 30
0.0
 40
0.3
100
AcDbArc
 50
180.000009
 51
272.1205799999999
  0
ARC
  5
1A0
330
1E
100
AcDbEntity
  8
MO_001_VIEW_PV
  6
C_SOLID_M
100
AcDbCircle
 10
0.300003
 20
-1.970199999999999
 30
0.0
 40
0.3
100
AcDbArc
 50
87.879427
 51
180.000005
  0
ARC
  5
1A1
330
1E
100
AcDbEntity
  8
MO_001_VIEW_PV
  6
C_SOLID_M
100
AcDbCircle
 10
2.399993999999999
 20
2.386856
 30
0.0
 40
0.3
100
AcDbArc
 50
269.999998
 51
0.0
  0
ARC
  5
1A2
330
1E
100
AcDbEntity
  8
MO_001_VIEW_PV
  6
C_SOLID_M
100
AcDbCircle
 10
2.399993999999999
 20
2.231727999999999
 30
0.0
 40
0.3
100
AcDbArc
 50
269.999998
 51
0.0
  0
ARC
  5
1A3
330
1E
100
AcDbEntity
  8
MO_001_VIEW_PV
  6
C_SOLID_M
100
AcDbCircle
 10
2.399993999999999
 20
3.30854
 30
0.0
 40
0.3
100
AcDbArc
 50
0.0
 51
89.99998900000001
  0
LINE
  5
1A4
330
1E
100
AcDbEntity
  8
MO_001_VIEW_PV
  6
C_SOLID_M
100
AcDbLine
 10
0.300887
 20
3.529848
 30
0.0
 11
2.388722
 21
3.608326999999999
 31
0.0
  0
LINE
  5
1A5
330
1E
100
AcDbEntity
  8
MO_001_VIEW_PV
  6
C_SOLID_M
100
AcDbLine
 10
0.30089
 20
2.165538999999999
 30
0.0
 11
2.388724999999999
 21
2.087059999999999
 31
0.0
  0
LINE
  5
1A6
330
1E
100
AcDbEntity
  8
MO_001_VIEW_PV
  6
C_SOLID_M
100
AcDbLine
 10
0.300892
 20
2.010415
 30
0.0
 11
2.388726999999999
 21
1.931936999999999
 31
0.0
  0
ARC
  5
1A7
330
1E
100
AcDbEntity
  8
MO_001_VIEW_PV
  6
C_SOLID_M
100
AcDbCircle
 10
0.290001
 20
1.720627
 30
0.0
 40
0.29
100
AcDbArc
 50
87.84699000000001
 51
180.000005
  0
ARC
  5
1A8
330
1E
100
AcDbEntity
  8
MO_001_VIEW_PV
  6
C_SOLID_M
100
AcDbCircle
 10
0.290001
 20
1.875747999999999
 30
0.0
 40
0.29
100
AcDbArc
 50
87.846997
 51
180.000005
  0
ARC
  5
1A9
330
1E
100
AcDbEntity
  8
MO_001_VIEW_PV
  6
C_SOLID_M
100
AcDbCircle
 10
0.290001
 20
3.819648999999999
 30
0.0
 40
0.29
100
AcDbArc
 50
180.000009
 51
272.1530099999999
  0
ARC
  5
1AA
330
1E
100
AcDbEntity
  8
MO_001_VIEW_PV
  6
C_SOLID_M
100
AcDbCircle
 10
2.449997
 20
5.821754
 30
0.0
 40
0.25
100
AcDbArc
 50
268.361025
 51
0.0
  0
ARC
  5
1AB
330
1E
100
AcDbEntity
  8
MO_001_VIEW_PV
  6
C_SOLID_M
100
AcDbCircle
 10
2.449997
 20
6.51078
 30
0.0
 40
0.25
100
AcDbArc
 50
0.0
 51
91.638975
  0
ARC
  5
1AC
330
1E
100
AcDbEntity
  8
MO_001_VIEW_PV
  6
C_SOLID_M
100
AcDbCircle
 10
2.449997
 20
5.485854999999999
 30
0.0
 40
0.25
100
AcDbArc
 50
268.361025
 51
0.0
  0
LINE
  5
1AD
330
1E
100
AcDbEntity
  8
MO_001_VIEW_PV
  6
C_SOLID_M
100
AcDbLine
 10
0.257147
 20
6.698138
 30
0.0
 11
2.442844
 21
6.760677999999999
 31
0.0
  0
LINE
  5
1AE
330
1E
100
AcDbEntity
  8
MO_001_VIEW_PV
  6
C_SOLID_M
100
AcDbLine
 10
0.257148
 20
5.634396999999999
 30
0.0
 11
2.442845
 21
5.571856999999999
 31
0.0
  0
LINE
  5
1AF
330
1E
100
AcDbEntity
  8
MO_001_VIEW_PV
  6
C_SOLID_M
100
AcDbLine
 10
0.257146
 20
5.298497
 30
0.0
 11
2.442844
 21
5.235956999999999
 31
0.0
  0
ARC
  5
1B0
330
1E
100
AcDbEntity
  8
MO_001_VIEW_PV
  6
C_SOLID_M
100
AcDbCircle
 10
0.25
 20
6.948036
 30
0.0
 40
0.25
100
AcDbArc
 50
180.000009
 51
271.638587
  0
ARC
  5
1B1
330
1E
100
AcDbEntity
  8
MO_001_VIEW_PV
  6
C_SOLID_M
100
AcDbCircle
 10
0.25
 20
5.384498999999999
 30
0.0
 40
0.25
100
AcDbArc
 50
88.361406
 51
180.000005
  0
ARC
  5
1B2
330
1E
100
AcDbEntity
  8
MO_001_VIEW_PV
  6
C_SOLID_M
100
AcDbCircle
 10
0.25
 20
5.048598999999999
 30
0.0
 40
0.25
100
AcDbArc
 50
88.361406
 51
180.000005
  0
ARC
  5
1B3
330
1E
100
AcDbEntity
  8
MO_001_VIEW_PV
  6
C_SOLID_M
100
AcDbCircle
 10
2.449997
 20
-4.164848
 30
0.0
 40
0.25
100
AcDbArc
 50
0.0
 51
91.17036199999999
  0
ARC
  5
1B4
330
1E
100
AcDbEntity
  8
MO_001_VIEW_PV
  6
C_SOLID_M
100
AcDbCircle
 10
2.449997
 20
-3.913857
 30
0.0
 40
0.25
100
AcDbArc
 50
0.0
 51
91.17036199999999
  0
ARC
  5
1B5
330
1E
100
AcDbEntity
  8
MO_001_VIEW_PV
  6
C_SOLID_M
100
AcDbCircle
 10
2.449997
 20
-5.050491
 30
0.0
 40
0.25
100
AcDbArc
 50
268.829638
 51
0.0
  0
LINE
  5
1B6
330
1E
100
AcDbEntity
  8
MO_001_VIEW_PV
  6
C_SOLID_M
100
AcDbLine
 10
0.255104
 20
-5.255703999999999
 30
0.0
 11
2.444892999999999
 21
-5.300441
 31
0.0
  0
LINE
  5
1B7
330
1E
100
AcDbEntity
  8
MO_001_VIEW_PV
  6
C_SOLID_M
100
AcDbLine
 10
0.255101
 20
-3.959643
 30
0.0
 11
2.44489
 21
-3.914906999999999
 31
0.0
  0
LINE
  5
1B8
330
1E
100
AcDbEntity
  8
MO_001_VIEW_PV
  6
C_SOLID_M
100
AcDbLine
 10
0.255101
 20
-3.708644
 30
0.0
 11
2.444891
 21
-3.663908
 31
0.0
  0
ARC
  5
1B9
330
1E
100
AcDbEntity
  8
MO_001_VIEW_PV
  6
C_SOLID_M
100
AcDbCircle
 10
0.25
 20
-3.458694
 30
0.0
 40
0.25
100
AcDbArc
 50
180.000009
 51
271.169845
  0
ARC
  5
1BA
330
1E
100
AcDbEntity
  8
MO_001_VIEW_PV
  6
C_SOLID_M
100
AcDbCircle
 10
0.25
 20
-3.709686
 30
0.0
 40
0.25
100
AcDbArc
 50
180.000009
 51
271.169845
  0
ARC
  5
1BB
330
1E
100
AcDbEntity
  8
MO_001_VIEW_PV
  6
C_SOLID_M
100
AcDbCircle
 10
0.25
 20
-5.505645999999999
 30
0.0
 40
0.25
100
AcDbArc
 50
88.830155
 51
180.000005
  0
ARC
  5
1BC
330
1E
100
AcDbEntity
  8
MO_001_VIEW_PV
  6
C_SOLID_M
100
AcDbCircle
 10
2.5
 20
-7.185135
 30
0.0
 40
0.2
100
AcDbArc
 50
0.0
 51
89.99998900000001
  0
ARC
  5
1BD
330
1E
100
AcDbEntity
  8
MO_001_VIEW_PV
  6
C_SOLID_M
100
AcDbCircle
 10
2.5
 20
-6.779022
 30
0.0
 40
0.2
100
AcDbArc
 50
0.0
 51
89.99998900000001
  0
ARC
  5
1BE
330
1E
100
AcDbEntity
  8
MO_001_VIEW_PV
  6
C_SOLID_M
100
AcDbCircle
 10
2.5
 20
-7.725594
 30
0.0
 40
0.2
100
AcDbArc
 50
269.999998
 51
0.0
  0
LINE
  5
1BF
330
1E
100
AcDbEntity
  8
MO_001_VIEW_PV
  6
C_SOLID_M
100
AcDbLine
 10
0.203996
 20
-6.624939
 30
0.0
 11
2.495995
 21
-6.579061999999999
 31
0.0
  0
LINE
  5
1C0
330
1E
100
AcDbEntity
  8
MO_001_VIEW_PV
  6
C_SOLID_M
100
AcDbLine
 10
0.203998
 20
-7.031057
 30
0.0
 11
2.495988999999999
 21
-6.98518
 31
0.0
  0
LINE
  5
1C1
330
1E
100
AcDbEntity
  8
MO_001_VIEW_PV
  6
C_SOLID_M
100
AcDbLine
 10
0.203998
 20
-7.87968
 30
0.0
 11
2.495997
 21
-7.925557
 31
0.0
  0
ARC
  5
1C2
330
1E
100
AcDbEntity
  8
MO_001_VIEW_PV
  6
C_SOLID_M
100
AcDbCircle
 10
0.199997
 20
-6.42498
 30
0.0
 40
0.2
100
AcDbArc
 50
180.000009
 51
271.1475509999999
  0
ARC
  5
1C3
330
1E
100
AcDbEntity
  8
MO_001_VIEW_PV
  6
C_SOLID_M
100
AcDbCircle
 10
0.199997
 20
-6.831092999999999
 30
0.0
 40
0.2
100
AcDbArc
 50
180.000009
 51
271.1475509999999
  0
ARC
  5
1C4
330
1E
100
AcDbEntity
  8
MO_001_VIEW_PV
  6
C_SOLID_M
100
AcDbCircle
 10
0.199997
 20
-8.079636
 30
0.0
 40
0.2
100
AcDbArc
 50
88.85245600000002
 51
180.000005
  0
ARC
  5
1C5
330
1E
100
AcDbEntity
  8
MO_001_VIEW_PV
  6
C_SOLID_M
100
AcDbCircle
 10
2.599997999999999
 20
-8.456618999999999
 30
0.0
 40
0.1
100
AcDbArc
 50
0.0
 51
89.99998900000001
  0
ARC
  5
1C6
330
1E
100
AcDbEntity
  8
MO_001_VIEW_PV
  6
C_SOLID_M
100
AcDbCircle
 10
2.599997999999999
 20
-9.080292
 30
0.0
 40
0.1
100
AcDbArc
 50
269.999998
 51
0.0
  0
LINE
  5
1C7
330
1E
100
AcDbEntity
  8
MO_001_VIEW_PV
  6
C_SOLID_M
100
AcDbLine
 10
0.101157
 20
-9.15146
 30
0.0
 11
2.598847
 21
-9.180285000000001
 31
0.0
  0
LINE
  5
1C8
330
1E
100
AcDbEntity
  8
MO_001_VIEW_PV
  6
C_SOLID_M
100
AcDbLine
 10
0.101153
 20
-8.385449000000001
 30
0.0
 11
2.598843
 21
-8.356624
 31
0.0
  0
ARC
  5
1C9
330
1E
100
AcDbEntity
  8
MO_001_VIEW_PV
  6
C_SOLID_M
100
AcDbCircle
 10
2.599997999999999
 20
-8.947632
 30
0.0
 40
0.1
100
AcDbArc
 50
0.0
 51
89.99998900000001
  0
LINE
  5
1CA
330
1E
100
AcDbEntity
  8
MO_001_VIEW_PV
  6
C_SOLID_M
100
AcDbLine
 10
0.101151
 20
-8.876471
 30
0.0
 11
2.598847999999999
 21
-8.847646000000001
 31
0.0
  0
ARC
  5
1CB
330
1E
100
AcDbEntity
  8
MO_001_VIEW_PV
  6
C_SOLID_M
100
AcDbCircle
 10
0.099998
 20
-8.285453999999999
 30
0.0
 40
0.1
100
AcDbArc
 50
180.000009
 51
270.6600669999999
  0
ARC
  5
1CC
330
1E
100
AcDbEntity
  8
MO_001_VIEW_PV
  6
C_SOLID_M
100
AcDbCircle
 10
0.099998
 20
-8.776474
 30
0.0
 40
0.1
100
AcDbArc
 50
180.000009
 51
270.6600669999999
  0
ARC
  5
1CD
330
1E
100
AcDbEntity
  8
MO_001_VIEW_PV
  6
C_SOLID_M
100
AcDbCircle
 10
0.099998
 20
-9.25145
 30
0.0
 40
0.1
100
AcDbArc
 50
89.339919
 51
180.000005
  0
LINE
  5
1CE
330
1E
100
AcDbEntity
  8
MO_001_VIEW_PV
  6
C_SOLID_M
100
AcDbLine
 10
2.699997
 20
8.644019999999999
 30
0.0
 11
2.699997
 21
7.734657
 31
0.0
  0
ARC
  5
1CF
330
1E
100
AcDbEntity
  8
MO_001_VIEW_PV
  6
C_SOLID_M
100
AcDbCircle
 10
2.599997999999999
 20
8.644019999999999
 30
0.0
 40
0.1
100
AcDbArc
 50
0.0
 51
89.99998900000001
  0
ARC
  5
1D0
330
1E
100
AcDbEntity
  8
MO_001_VIEW_PV
  6
C_SOLID_M
100
AcDbCircle
 10
2.599997999999999
 20
8.193244999999999
 30
0.0
 40
0.1
100
AcDbArc
 50
269.999998
 51
0.0
  0
ARC
  5
1D1
330
1E
100
AcDbEntity
  8
MO_001_VIEW_PV
  6
C_SOLID_M
100
AcDbCircle
 10
2.599997999999999
 20
7.734657
 30
0.0
 40
0.1
100
AcDbArc
 50
269.999998
 51
0.0
  0
LINE
  5
1D2
330
1E
100
AcDbEntity
  8
MO_001_VIEW_PV
  6
C_SOLID_M
100
AcDbLine
 10
0.101153
 20
7.663489999999999
 30
0.0
 11
2.598843
 21
7.634663999999999
 31
0.0
  0
LINE
  5
1D3
330
1E
100
AcDbEntity
  8
MO_001_VIEW_PV
  6
C_SOLID_M
100
AcDbLine
 10
0.101153
 20
8.122075
 30
0.0
 11
2.598850999999999
 21
8.093249999999999
 31
0.0
  0
LINE
  5
1D4
330
1E
100
AcDbEntity
  8
MO_001_VIEW_PV
  6
C_SOLID_M
100
AcDbLine
 10
0.101153
 20
8.715184999999999
 30
0.0
 11
2.598843
 21
8.744010000000001
 31
0.0
  0
ARC
  5
1D5
330
1E
100
AcDbEntity
  8
MO_001_VIEW_PV
  6
C_SOLID_M
100
AcDbCircle
 10
0.099998
 20
8.815186
 30
0.0
 40
0.1
100
AcDbArc
 50
180.000009
 51
270.6600669999999
  0
ARC
  5
1D6
330
1E
100
AcDbEntity
  8
MO_001_VIEW_PV
  6
C_SOLID_M
100
AcDbCircle
 10
0.099998
 20
8.022078999999999
 30
0.0
 40
0.1
100
AcDbArc
 50
89.339919
 51
180.000005
  0
ARC
  5
1D7
330
1E
100
AcDbEntity
  8
MO_001_VIEW_PV
  6
C_SOLID_M
100
AcDbCircle
 10
0.099998
 20
7.563492
 30
0.0
 40
0.1
100
AcDbArc
 50
89.339919
 51
180.000005
  0
LINE
  5
1D8
330
1E
100
AcDbEntity
  8
MO_001_VIEW_PV
  6
C_SOLID_M
100
AcDbLine
 10
3.818204
 20
3.68
 30
0.0
 11
3.818204
 21
-3.68
 31
0.0
  0
LINE
  5
1D9
330
1E
100
AcDbEntity
  8
MO_001_VIEW_PV
  6
C_SOLID_M
100
AcDbLine
 10
2.300002999999999
 20
-7.921630999999999
 30
0.0
 11
2.300002999999999
 21
-8.360069000000001
 31
0.0
  0
LINE
  5
1DA
330
1E
100
AcDbEntity
  8
MO_001_VIEW_PV
  6
C_SOLID_M
100
AcDbLine
 10
2.300002999999999
 20
7.638107
 30
0.0
 11
2.300002999999999
 21
6.756591999999999
 31
0.0
  0
LINE
  5
1DB
330
1E
100
AcDbEntity
  8
MO_001_VIEW_PV
  6
C_SOLID_M
100
AcDbLine
 10
2.300002999999999
 20
5.240044
 30
0.0
 11
2.300002999999999
 21
3.604995999999999
 31
0.0
  0
LINE
  5
1DC
330
1E
100
AcDbEntity
  8
MO_001_VIEW_PV
  6
C_SOLID_M
100
AcDbLine
 10
2.300002999999999
 20
1.935279999999999
 30
0.0
 11
2.300002999999999
 21
-0.12999
 31
0.0
  0
LINE
  5
1DD
330
1E
100
AcDbEntity
  8
MO_001_VIEW_PV
  6
C_SOLID_M
100
AcDbLine
 10
2.300002999999999
 20
-1.744063999999999
 30
0.0
 11
2.300002999999999
 21
-3.666869999999999
 31
0.0
  0
LINE
  5
1DE
330
1E
100
AcDbEntity
  8
MO_001_VIEW_PV
  6
C_SOLID_M
100
AcDbLine
 10
2.300002999999999
 20
-5.297477999999999
 30
0.0
 11
2.300002999999999
 21
-6.582985
 31
0.0
  0
LINE
  5
1DF
330
1E
100
AcDbEntity
  8
MO_001_VIEW_PV
  6
C_SOLID_M
100
AcDbLine
 10
2.300002999999999
 20
7.496002
 30
0.0
 11
2.435356
 21
7.496002
 31
0.0
  0
LINE
  5
1E0
330
1E
100
AcDbEntity
  8
MO_001_VIEW_PV
  6
C_SOLID_M
100
AcDbLine
 10
2.698036
 20
6.542
 30
0.0
 11
2.706069999999999
 21
6.542
 31
0.0
  0
LINE
  5
1E1
330
1E
100
AcDbEntity
  8
MO_001_VIEW_PV
  6
C_SOLID_M
100
AcDbLine
 10
2.715575999999999
 20
5.587997
 30
0.0
 11
2.976775999999999
 21
5.587997
 31
0.0
  0
LINE
  5
1E2
330
1E
100
AcDbEntity
  8
MO_001_VIEW_PV
  6
C_SOLID_M
100
AcDbLine
 10
2.988006999999999
 20
4.634002999999999
 30
0.0
 11
3.247489999999999
 21
4.634002999999999
 31
0.0
  0
LINE
  5
1E3
330
1E
100
AcDbEntity
  8
MO_001_VIEW_PV
  6
C_SOLID_M
100
AcDbLine
 10
3.261176999999999
 20
3.68
 30
0.0
 11
3.818204
 21
3.68
 31
0.0
  0
LINE
  5
1E4
330
1E
100
AcDbEntity
  8
MO_001_VIEW_PV
  6
C_SOLID_M
100
AcDbLine
 10
3.382842999999999
 20
-3.68
 30
0.0
 11
3.818204
 21
-3.68
 31
0.0
  0
LINE
  5
1E5
330
1E
100
AcDbEntity
  8
MO_001_VIEW_PV
  6
C_SOLID_M
100
AcDbLine
 10
3.098984
 20
-4.797501
 30
0.0
 11
3.382842999999999
 21
-4.797501
 31
0.0
  0
LINE
  5
1E6
330
1E
100
AcDbEntity
  8
MO_001_VIEW_PV
  6
C_SOLID_M
100
AcDbLine
 10
2.830275999999999
 20
-5.915001
 30
0.0
 11
3.112136999999999
 21
-5.915001
 31
0.0
  0
LINE
  5
1E7
330
1E
100
AcDbEntity
  8
MO_001_VIEW_PV
  6
C_SOLID_M
100
AcDbLine
 10
2.699997
 20
-7.032500999999999
 30
0.0
 11
2.841422999999999
 21
-7.032500999999999
 31
0.0
  0
LINE
  5
1E8
330
1E
100
AcDbEntity
  8
MO_001_VIEW_PV
  6
C_SOLID_M
100
AcDbLine
 10
2.300002999999999
 20
-8.150002
 30
0.0
 11
2.570708999999999
 21
-8.150002
 31
0.0
  0
LINE
  5
1E9
330
1E
100
AcDbEntity
  8
MO_001_VIEW_PV
  6
C_SOLID_M
100
AcDbLine
 10
3.247491
 20
4.634008
 30
0.0
 11
3.382845999999999
 21
-4.797494
 31
0.0
  0
LINE
  5
1EA
330
1E
100
AcDbEntity
  8
MO_001_VIEW_PV
  6
C_SOLID_M
100
AcDbLine
 10
3.112138999999999
 20
-5.915
 30
0.0
 11
2.976783
 21
5.588003999999999
 31
0.0
  0
LINE
  5
1EB
330
1E
100
AcDbEntity
  8
MO_001_VIEW_PV
  6
C_SOLID_M
100
AcDbLine
 10
2.706068999999999
 20
6.541998
 30
0.0
 11
2.841423999999999
 21
-7.032499
 31
0.0
  0
LINE
  5
1EC
330
1E
100
AcDbEntity
  8
MO_001_VIEW_PV
  6
C_SOLID_M
100
AcDbLine
 10
2.441713
 20
6.760647
 30
0.0
 11
2.435350999999999
 21
7.496008999999999
 31
0.0
  0
LINE
  5
1ED
330
1E
100
AcDbEntity
  8
MO_001_VIEW_PV
  6
C_SOLID_M
100
AcDbLine
 10
2.501447
 20
-0.14417
 30
0.0
 11
2.483385999999999
 21
1.943550999999999
 31
0.0
  0
LINE
  5
1EE
330
1E
100
AcDbEntity
  8
MO_001_VIEW_PV
  6
C_SOLID_M
100
AcDbLine
 10
2.469052
 20
3.600487
 30
0.0
 11
2.454902999999999
 21
5.235901
 31
0.0
  0
LINE
  5
1EF
330
1E
100
AcDbEntity
  8
MO_001_VIEW_PV
  6
C_SOLID_M
100
AcDbLine
 10
2.532016
 20
-3.677691
 30
0.0
 11
2.51512
 21
-1.724593
 31
0.0
  0
LINE
  5
1F0
330
1E
100
AcDbEntity
  8
MO_001_VIEW_PV
  6
C_SOLID_M
100
AcDbLine
 10
2.570707
 20
-8.149995999999999
 30
0.0
 11
2.568659999999999
 21
-7.913433
 31
0.0
  0
LINE
  5
1F1
330
1E
100
AcDbEntity
  8
MO_001_VIEW_PV
  6
C_SOLID_M
100
AcDbLine
 10
2.557188
 20
-6.587371
 30
0.0
 11
2.545889999999999
 21
-5.281366999999999
 31
0.0
  0
LINE
  5
1F2
330
1E
100
AcDbEntity
  8
MO_001_VIEW_PV
  6
C_SOLID_M
100
AcDbLine
 10
-25.14030599999999
 20
-25.015643
 30
0.0
 11
-18.836497
 21
-17.503056
 31
0.0
  0
LINE
  5
1F3
330
1E
100
AcDbEntity
  8
MO_001_VIEW_PV
  6
C_SOLID_M
100
AcDbLine
 10
-23.608217
 20
-26.30121799999999
 30
0.0
 11
-17.19836899999999
 21
-18.66226
 31
0.0
  0
LINE
  5
1F4
330
1E
100
AcDbEntity
  8
MO_001_VIEW_PV
  6
C_SOLID_M
100
AcDbLine
 10
-23.608217
 20
-26.30121799999999
 30
0.0
 11
-25.14030599999999
 21
-25.015643
 31
0.0
  0
LINE
  5
1F5
330
1E
100
AcDbEntity
  8
MO_001_VIEW_PV
  6
C_SOLID_M
100
AcDbLine
 10
-28.201038
 20
-28.974421
 30
0.0
 11
-24.9871
 21
-25.144199
 31
0.0
  0
LINE
  5
1F6
330
1E
100
AcDbEntity
  8
MO_001_VIEW_PV
  6
C_SOLID_M
100
AcDbLine
 10
-26.97536799999999
 20
-30.00287999999999
 30
0.0
 11
-23.76142999999999
 21
-26.172658
 31
0.0
  0
ARC
  5
1F7
330
1E
100
AcDbEntity
  8
MO_001_VIEW_PV
  6
C_SOLID_M
100
AcDbCircle
 10
-28.087452
 20
-29.46134199999999
 30
0.0
 40
0.499994
100
AcDbArc
 50
356.8696339999999
 51
103.1303719999999
  0
ARC
  5
1F8
330
1E
100
AcDbEntity
  8
MO_001_VIEW_PV
  6
C_SOLID_M
100
AcDbCircle
 10
-27.701782
 20
-29.001724
 30
0.0
 40
0.499994
100
AcDbArc
 50
176.8696199999999
 51
283.1303839999999
  0
ARC
  5
1F9
330
1E
100
AcDbEntity
  8
MO_001_VIEW_PV
  6
C_SOLID_M
100
AcDbCircle
 10
-27.088951
 20
-29.515945
 30
0.0
 40
0.499994
100
AcDbArc
 50
176.8696199999999
 51
283.130356
  0
ARC
  5
1FA
330
1E
100
AcDbEntity
  8
MO_001_VIEW_PV
  6
C_SOLID_M
100
AcDbCircle
 10
-20.014534
 20
-20.90485399999999
 30
0.0
 40
3.6
100
AcDbArc
 50
21.24417
 51
89.05256599999999
  0
ARC
  5
1FB
330
1E
100
AcDbEntity
  8
MO_001_VIEW_PV
  6
C_SOLID_M
100
AcDbCircle
 10
-16.599998
 20
-16.0
 30
0.0
 40
3.6
100
AcDbArc
 50
250.366564
 51
269.999998
  0
LINE
  5
1FC
330
1E
100
AcDbEntity
  8
MO_001_VIEW_PV
  6
C_SOLID_L
100
AcDbLine
 10
-15.70000199999999
 20
-40.0
 30
0.0
 11
16.856308
 21
-40.0
 31
0.0
  0
TEXT
  5
1FD
330
1E
100
AcDbEntity
  8
MO_001_VIEW_PV
  6
C_SOLID_L
100
AcDbText
 10
-28.488281
 20
-53.083594
 30
0.0
 40
4.167187
  1
4E X3・X4・X9付
100
AcDbText
  0
TEXT
  5
1FE
330
1E
100
AcDbEntity
  8
MO_001_VIEW_PV
  6
C_SOLID_L
100
AcDbText
 10
91.5
 20
-17.071429
 30
0.0
 40
3.0
  1
(UL1430 AWG22)
 50
90.0
100
AcDbText
  0
TEXT
  5
1FF
330
1E
100
AcDbEntity
  8
MO_001_VIEW_PV
  6
C_SOLID_L
100
AcDbText
 10
-10.939015
 20
-39.25442499999999
 30
0.0
 40
3.0
  1
2-M4 P0.7
100
AcDbText
  0
TEXT
  5
200
330
1E
100
AcDbEntity
  8
MO_001_VIEW_PV
  6
C_SOLID_L
100
AcDbText
 10
67.511719
 20
-59.083594
 30
0.0
 40
4.167187
  1
単位：mm
100
AcDbText
  0
TEXT
  5
201
330
1E
100
AcDbEntity
  8
MO_001_VIEW_PV
  6
C_SOLID_L
100
AcDbText
 10
67.511719
 20
-65.33437499999999
 30
0.0
 40
4.167187
  1
無励磁時
100
AcDbText
  0
DIMENSION
  5
203
330
1E
100
AcDbEntity
  8
MO_001_VIEW_PV
  6
C_SOLID_M
100
AcDbDimension
  2
*D0
 10
36.0
 20
0.0
 30
0.0
 11
36.0
 21
0.0
 31
0.0
  3
STANDARD
100
AcDbAlignedDimension
 13
56.0
 23
13.5
 33
0.0
 14
56.0
 24
-13.5
 34
0.0
 50
89.999523
100
AcDbRotatedDimension
  0
DIMENSION
  5
205
330
1E
100
AcDbEntity
  8
MO_001_VIEW_PV
  6
C_SOLID_M
100
AcDbDimension
  2
*D1
 10
60.0
 20
36.0
 30
0.0
 11
60.0
 21
36.0
 31
0.0
  1
%%C40以下
  3
STANDARD
100
AcDbAlignedDimension
 13
79.599998
 23
0.0
 33
0.0
 14
40.400002
 24
0.0
 34
0.0
100
AcDbRotatedDimension
  0
DIMENSION
  5
207
330
1E
100
AcDbEntity
  8
MO_001_VIEW_PV
  6
C_SOLID_M
100
AcDbDimension
  2
*D2
 10
60.0
 20
30.0
 30
0.0
 11
60.0
 21
30.0
 31
0.0
  1
%%C21以下
  3
STANDARD
100
AcDbAlignedDimension
 13
69.25
 23
0.0
 33
0.0
 14
50.75
 24
0.0
 34
0.0
100
AcDbRotatedDimension
  0
DIMENSION
  5
209
330
1E
100
AcDbEntity
  8
MO_001_VIEW_PV
  6
C_SOLID_M
100
AcDbDimension
  2
*D3
 10
27.0
 20
17.350258
 30
0.0
 11
27.0
 21
17.350258
 31
0.0
  3
STANDARD
100
AcDbAlignedDimension
 13
12.51820099999999
 23
2.779999
 33
0.0
 14
12.51820099999999
 24
-2.779999
 34
0.0
 50
89.999523
100
AcDbRotatedDimension
  0
DIMENSION
  5
20B
330
1E
100
AcDbEntity
  8
MO_001_VIEW_PV
  6
C_SOLID_M
100
AcDbDimension
  2
*D4
 10
24.299999
 20
-32.0
 30
0.0
 11
24.299999
 21
-32.0
 31
0.0
  1
8.6以上
  3
STANDARD
100
AcDbAlignedDimension
 13
12.81820399999999
 23
-2.480002999999999
 33
0.0
 14
4.218205
 24
1.980002999999999
 34
0.0
100
AcDbRotatedDimension
  0
DIMENSION
  5
20D
330
1E
100
AcDbEntity
  8
MO_001_VIEW_PV
  6
C_SOLID_M
100
AcDbDimension
  2
*D5
 10
-12.0
 20
30.0
 30
0.0
 11
-12.0
 21
30.0
 31
0.0
  1
25以下
  3
STANDARD
100
AcDbAlignedDimension
 13
0.0
 23
17.5
 33
0.0
 14
-24.48033699999999
 24
9.233032000000001
 34
0.0
100
AcDbRotatedDimension
  0
DIMENSION
  5
20F
330
1E
100
AcDbEntity
  8
MO_001_VIEW_PV
  6
C_SOLID_M
100
AcDbDimension
  2
*D6
 10
-34.740364
 20
24.0
 30
0.0
 11
-34.740364
 21
24.0
 31
0.0
  3
STANDARD
100
AcDbAlignedDimension
 13
-23.081799
 23
17.449997
 33
0.0
 14
-24.48033699999999
 24
9.233032000000001
 34
0.0
100
AcDbRotatedDimension
  0
DIMENSION
  5
211
330
1E
100
AcDbEntity
  8
MO_001_VIEW_PV
  6
C_SOLID_M
100
AcDbDimension
  2
*D7
 10
-12.0
 20
24.0
 30
0.0
 11
-12.0
 21
24.0
 31
0.0
  3
STANDARD
100
AcDbAlignedDimension
 13
-21.48179999999999
 23
17.449997
 33
0.0
 14
-23.081799
 24
17.449997
 34
0.0
100
AcDbRotatedDimension
  0
DIMENSION
  5
213
330
1E
100
AcDbEntity
  8
MO_001_VIEW_PV
  6
C_SOLID_M
100
AcDbDimension
  2
*D8
 10
-18.0
 20
36.0
 30
0.0
 11
-18.0
 21
36.0
 31
0.0
  3
STANDARD
100
AcDbAlignedDimension
 13
-35.981796
 23
2.634415
 33
0.0
 14
0.0
 24
17.5
 34
0.0
100
AcDbRotatedDimension
  0
DIMENSION
  5
215
330
1E
100
AcDbEntity
  8
MO_001_VIEW_PV
  6
C_SOLID_M
100
AcDbDimension
  2
*D9
 10
9.0
 20
36.0
 30
0.0
 11
9.0
 21
36.0
 31
0.0
  3
STANDARD
100
AcDbAlignedDimension
 13
18.299995
 23
14.800003
 33
0.0
 14
0.0
 24
17.5
 34
0.0
100
AcDbRotatedDimension
  0
DIMENSION
  5
217
330
1E
100
AcDbEntity
  8
MO_001_VIEW_PV
  6
C_SOLID_M
100
AcDbDimension
  2
*D10
 10
21.617096
 20
30.0
 30
0.0
 11
21.617096
 21
30.0
 31
0.0
  3
STANDARD
100
AcDbAlignedDimension
 13
12.81820399999999
 23
2.480002999999999
 33
0.0
 14
0.0
 24
17.5
 34
0.0
100
AcDbRotatedDimension
  0
DIMENSION
  5
219
330
1E
100
AcDbEntity
  8
MO_001_VIEW_PV
  6
C_SOLID_M
100
AcDbDimension
  2
*D11
 10
87.0
 20
12.399117
 30
0.0
 11
87.0
 21
12.399117
 31
0.0
  1
長さ250以上
  3
STANDARD
100
AcDbAlignedDimension
 13
67.75000799999999
 23
-18.002712
 33
0.0
 14
67.023979
 24
-43.30634299999999
 34
0.0
 50
89.999523
100
AcDbRotatedDimension
  0
LINE
  5
21A
330
1E
100
AcDbEntity
  8
MO_001_VIEW_PV
  6
C_SOLID_L
100
AcDbLine
 10
8.799998999999999
 20
-15.49999899999999
 30
0.0
 11
-15.70000199999999
 21
-39.999999
 31
0.0
  0
POLYLINE
  5
21B
330
1E
100
AcDbEntity
  8
MO_001_VIEW_PV
  6
C_SOLID_L
100
AcDb2dPolyline
 66
     1
 10
0.0
 20
0.0
 30
0.0
 70
     1
  0
VERTEX
  5
2A7
330
21B
100
AcDbEntity
  8
MO_001_VIEW_PV
  6
C_SOLID_L
100
AcDbVertex
100
AcDb2dVertex
 10
6.866239999999999
 20
-18.25896799999999
 30
0.0
  0
VERTEX
  5
2A8
330
21B
100
AcDbEntity
  8
MO_001_VIEW_PV
  6
C_SOLID_L
100
AcDbVertex
100
AcDb2dVertex
 10
8.440789
 20
-15.859209
 30
0.0
  0
VERTEX
  5
2A9
330
21B
100
AcDbEntity
  8
MO_001_VIEW_PV
  6
C_SOLID_L
100
AcDbVertex
100
AcDb2dVertex
 10
6.04103
 20
-17.43375799999999
 30
0.0
  0
SEQEND
  5
2AA
330
21B
100
AcDbEntity
  8
MO_001_VIEW_PV
  6
C_SOLID_L
  0
ENDSEC
  0
SECTION
  2
OBJECTS
  0
DICTIONARY
  5
1A
330
0
100
AcDbDictionary
  3
ACAD_GROUP
350
1B
  3
ACAD_MLINESTYLE
350
1C
  3
ACAD_LAYOUT
350
29D
  3
ACAD_PLOTSETTINGS
350
29E
1001
ACAD
1000
TREAT_AS_HARD
1070
     0
  0
DICTIONARY
  5
2A3
330
1E
100
AcDbDictionary
  3
ACAD_LAYOUTSELFREF
350
2A4
  0
DICTIONARY
  5
2A5
330
1F
100
AcDbDictionary
  3
ACAD_LAYOUTSELFREF
350
2A6
  0
DICTIONARY
  5
1B
102
{ACAD_REACTORS
330
1A
102
}
330
1A
100
AcDbDictionary
1001
ACAD
1000
TREAT_AS_HARD
1070
     0
  0
DICTIONARY
  5
1C
102
{ACAD_REACTORS
330
1A
102
}
330
1A
100
AcDbDictionary
  3
STANDARD
350
1D
1001
ACAD
1000
TREAT_AS_HARD
1070
     0
  0
DICTIONARY
  5
29D
102
{ACAD_REACTORS
330
1A
102
}
330
1A
100
AcDbDictionary
1001
ACAD
1000
TREAT_AS_HARD
1070
     0
  0
DICTIONARY
  5
29E
102
{ACAD_REACTORS
330
1A
102
}
330
1A
100
AcDbDictionary
1001
ACAD
1000
TREAT_AS_HARD
1070
     0
  0
XRECORD
  5
2A4
102
{ACAD_REACTORS
330
2A3
102
}
330
2A3
100
AcDbXrecord
340
1E
  0
XRECORD
  5
2A6
102
{ACAD_REACTORS
330
2A5
102
}
330
2A5
100
AcDbXrecord
340
1F
  0
MLINESTYLE
  5
1D
102
{ACAD_REACTORS
330
1C
102
}
330
1C
100
AcDbMlineStyle
  2
STANDARD
 70
     0
  3

 62
     0
 51
90.0
 52
90.0
 71
     2
 49
0.5
 62
   256
  6
BYLAYER
 49
-0.5
 62
   256
  6
BYLAYER
  0
ENDSEC
  0
EOF
