  0
SECTION
  2
HEADER
  9
$ACADVER
  1
AC1014
  9
$ACADMAINTVER
 70
     9
  9
$DWGCODEPAGE
  3
ANSI_932
  9
$INSBASE
 10
0.0
 20
0.0
 30
0.0
  9
$EXTMIN
 10
-65.38657915737144
 20
-79.28119488333331
 30
0.0
  9
$EXTMAX
 10
364.7683703333331
 20
36.91495399999999
 30
0.0
  9
$LIMMIN
 10
-63.10004
 20
-82.47603599999997
  9
$LIMMAX
 10
88.48164399999997
 20
39.26495399999996
  9
$ORTHOMODE
 70
     0
  9
$REGENMODE
 70
     1
  9
$FILLMODE
 70
     1
  9
$QTEXTMODE
 70
     0
  9
$MIRRTEXT
 70
     1
  9
$DRAGMODE
 70
     2
  9
$LTSCALE
 40
1.0
  9
$OSMODE
 70
   511
  9
$ATTMODE
 70
     1
  9
$TEXTSIZE
 40
4.1672
  9
$TRACEWID
 40
0.05
  9
$TEXTSTYLE
  7
STANDARD
  9
$CLAYER
  8
MO_001_VIEW_PV
  9
$CELTYPE
  6
CONTINUOUS
  9
$CECOLOR
 62
   256
  9
$CELTSCALE
 40
1.0
  9
$DELOBJ
 70
     1
  9
$DISPSILH
 70
     0
  9
$DIMSCALE
 40
1.0
  9
$DIMASZ
 40
2.0
  9
$DIMEXO
 40
0.0625
  9
$DIMDLI
 40
0.38
  9
$DIMRND
 40
0.0
  9
$DIMDLE
 40
0.0
  9
$DIMEXE
 40
0.18
  9
$DIMTP
 40
0.1
  9
$DIMTM
 40
0.1
  9
$DIMTXT
 40
0.18
  9
$DIMCEN
 40
0.09
  9
$DIMTSZ
 40
0.0
  9
$DIMTOL
 70
     1
  9
$DIMLIM
 70
     0
  9
$DIMTIH
 70
     0
  9
$DIMTOH
 70
     0
  9
$DIMSE1
 70
     0
  9
$DIMSE2
 70
     0
  9
$DIMTAD
 70
     1
  9
$DIMZIN
 70
     0
  9
$DIMBLK
  1

  9
$DIMASO
 70
     1
  9
$DIMSHO
 70
     1
  9
$DIMPOST
  1

  9
$DIMAPOST
  1

  9
$DIMALT
 70
     0
  9
$DIMALTD
 70
     2
  9
$DIMALTF
 40
25.4
  9
$DIMLFAC
 40
1.0
  9
$DIMTOFL
 70
     0
  9
$DIMTVP
 40
0.0
  9
$DIMTIX
 70
     0
  9
$DIMSOXD
 70
     0
  9
$DIMSAH
 70
     0
  9
$DIMBLK1
  1

  9
$DIMBLK2
  1

  9
$DIMSTYLE
  2
STANDARD
  9
$DIMCLRD
 70
     0
  9
$DIMCLRE
 70
     0
  9
$DIMCLRT
 70
     0
  9
$DIMTFAC
 40
0.5
  9
$DIMGAP
 40
0.09
  9
$DIMJUST
 70
     0
  9
$DIMSD1
 70
     0
  9
$DIMSD2
 70
     0
  9
$DIMTOLJ
 70
     2
  9
$DIMTZIN
 70
     0
  9
$DIMALTZ
 70
     0
  9
$DIMALTTZ
 70
     0
  9
$DIMFIT
 70
     5
  9
$DIMUPT
 70
     0
  9
$DIMUNIT
 70
     2
  9
$DIMDEC
 70
     1
  9
$DIMTDEC
 70
     1
  9
$DIMALTU
 70
     2
  9
$DIMALTTD
 70
     2
  9
$DIMTXSTY
  7
STANDARD
  9
$DIMAUNIT
 70
     0
  9
$LUNITS
 70
     2
  9
$LUPREC
 70
     6
  9
$SKETCHINC
 40
0.1
  9
$FILLETRAD
 40
0.0
  9
$AUNITS
 70
     0
  9
$AUPREC
 70
     4
  9
$MENU
  1
acad
  9
$ELEVATION
 40
0.0
  9
$PELEVATION
 40
0.0
  9
$THICKNESS
 40
0.0
  9
$LIMCHECK
 70
     0
  9
$CHAMFERA
 40
0.0
  9
$CHAMFERB
 40
0.0
  9
$CHAMFERC
 40
0.0
  9
$CHAMFERD
 40
0.0
  9
$SKPOLY
 70
     0
  9
$TDCREATE
 40
2305814.569090185
  9
$TDUPDATE
 40
2457323.754565185
  9
$TDINDWG
 40
0.0300777431
  9
$TDUSRTIMER
 40
2457323.353628646
  9
$USRTIMER
 70
     1
  9
$ANGBASE
 50
0.0
  9
$ANGDIR
 70
     0
  9
$PDMODE
 70
     0
  9
$PDSIZE
 40
0.0
  9
$PLINEWID
 40
0.0
  9
$COORDS
 70
     1
  9
$SPLFRAME
 70
     0
  9
$SPLINETYPE
 70
     6
  9
$SPLINESEGS
 70
     8
  9
$ATTDIA
 70
     0
  9
$ATTREQ
 70
     1
  9
$HANDLING
 70
     1
  9
$HANDSEED
  5
44C
  9
$SURFTAB1
 70
     6
  9
$SURFTAB2
 70
     6
  9
$SURFTYPE
 70
     6
  9
$SURFU
 70
     6
  9
$SURFV
 70
     6
  9
$UCSNAME
  2

  9
$UCSORG
 10
0.0
 20
0.0
 30
0.0
  9
$UCSXDIR
 10
1.0
 20
0.0
 30
0.0
  9
$UCSYDIR
 10
0.0
 20
1.0
 30
0.0
  9
$PUCSNAME
  2

  9
$PUCSORG
 10
0.0
 20
0.0
 30
0.0
  9
$PUCSXDIR
 10
1.0
 20
0.0
 30
0.0
  9
$PUCSYDIR
 10
0.0
 20
1.0
 30
0.0
  9
$USERI1
 70
     0
  9
$USERI2
 70
     0
  9
$USERI3
 70
     0
  9
$USERI4
 70
     0
  9
$USERI5
 70
     0
  9
$USERR1
 40
0.0
  9
$USERR2
 40
0.0
  9
$USERR3
 40
0.0
  9
$USERR4
 40
0.0
  9
$USERR5
 40
0.0
  9
$WORLDVIEW
 70
     1
  9
$SHADEDGE
 70
     3
  9
$SHADEDIF
 70
    70
  9
$TILEMODE
 70
     1
  9
$MAXACTVP
 70
    16
  9
$PINSBASE
 10
0.0
 20
0.0
 30
0.0
  9
$PLIMCHECK
 70
     0
  9
$PEXTMIN
 10
-63.10004
 20
-82.47603599999997
 30
1.000000000000000E+20
  9
$PEXTMAX
 10
88.48164399999997
 20
39.26495399999996
 30
-1.000000000000000E+20
  9
$PLIMMIN
 10
0.0
 20
0.0
  9
$PLIMMAX
 10
0.0
 20
0.0
  9
$UNITMODE
 70
     0
  9
$VISRETAIN
 70
     0
  9
$PLINEGEN
 70
     0
  9
$PSLTSCALE
 70
     1
  9
$TREEDEPTH
 70
  3020
  9
$PICKSTYLE
 70
     1
  9
$CMLSTYLE
  2
STANDARD
  9
$CMLJUST
 70
     0
  9
$CMLSCALE
 40
1.0
  9
$PROXYGRAPHICS
 70
     1
  9
$MEASUREMENT
 70
     0
  0
ENDSEC
  0
SECTION
  2
CLASSES
  0
CLASS
  1
ACDBDICTIONARYWDFLT
  2
AcDbDictionaryWithDefault
  3
ObjectDBX Classes
 90
        0
280
     0
281
     0
  0
CLASS
  1
ACDBPLACEHOLDER
  2
AcDbPlaceHolder
  3
ObjectDBX Classes
 90
        0
280
     0
281
     0
  0
CLASS
  1
LAYOUT
  2
AcDbLayout
  3
ObjectDBX Classes
 90
        0
280
     0
281
     0
  0
CLASS
  1
LONG_TRANSACTION
  2
AcDbLongTransaction
  3
ObjectDBX Classes
 90
        0
280
     0
281
     0
  0
CLASS
  1
LWPOLYLINE
  2
AcDbPolyline
  3
ObjectDBX Classes
 90
        0
280
     0
281
     1
  0
CLASS
  1
HATCH
  2
AcDbHatch
  3
ObjectDBX Classes
 90
        0
280
     0
281
     1
  0
CLASS
  1
XRECORD
  2
AcDbXrecord
  3
ObjectDBX Classes
 90
        0
280
     0
281
     0
  0
CLASS
  1
LONG_TRANSACTION
  2
AcDbLongTransaction
  3
ObjectDBX Classes
 90
        0
280
     0
281
     0
  0
CLASS
  1
LWPOLYLINE
  2
AcDbPolyline
  3
ObjectDBX Classes
 90
        0
280
     0
281
     1
  0
CLASS
  1
HATCH
  2
AcDbHatch
  3
ObjectDBX Classes
 90
        0
280
     0
281
     1
  0
CLASS
  1
XRECORD
  2
AcDbXrecord
  3
ObjectDBX Classes
 90
        0
280
     0
281
     0
  0
CLASS
  1
LONG_TRANSACTION
  2
AcDbLongTransaction
  3
ObjectDBX Classes
 90
        0
280
     0
281
     0
  0
CLASS
  1
LWPOLYLINE
  2
AcDbPolyline
  3
ObjectDBX Classes
 90
        0
280
     0
281
     1
  0
CLASS
  1
HATCH
  2
AcDbHatch
  3
ObjectDBX Classes
 90
        0
280
     0
281
     1
  0
CLASS
  1
XRECORD
  2
AcDbXrecord
  3
ObjectDBX Classes
 90
        0
280
     0
281
     0
  0
CLASS
  1
LONG_TRANSACTION
  2
AcDbLongTransaction
  3
ObjectDBX Classes
 90
        0
280
     0
281
     0
  0
CLASS
  1
LWPOLYLINE
  2
AcDbPolyline
  3
ObjectDBX Classes
 90
        0
280
     0
281
     1
  0
CLASS
  1
HATCH
  2
AcDbHatch
  3
ObjectDBX Classes
 90
        0
280
     0
281
     1
  0
CLASS
  1
XRECORD
  2
AcDbXrecord
  3
ObjectDBX Classes
 90
        0
280
     0
281
     0
  0
CLASS
  1
SCALE
  2
AcDbScale
  3
ObjectDBX Classes
 90
     1153
280
     0
281
     0
  0
CLASS
  1
VISUALSTYLE
  2
AcDbVisualStyle
  3
ObjectDBX Classes
 90
     4095
280
     0
281
     0
  0
CLASS
  1
MATERIAL
  2
AcDbMaterial
  3
ObjectDBX Classes
 90
     1153
280
     0
281
     0
  0
CLASS
  1
TABLESTYLE
  2
AcDbTableStyle
  3
ObjectDBX Classes
 90
     4095
280
     0
281
     0
  0
CLASS
  1
MLEADERSTYLE
  2
AcDbMLeaderStyle
  3
ACDB_MLEADERSTYLE_CLASS
 90
     4095
280
     0
281
     0
  0
CLASS
  1
SUN
  2
AcDbSun
  3
SCENEOE
 90
     1153
280
     0
281
     0
  0
CLASS
  1
RASTERVARIABLES
  2
AcDbRasterVariables
  3
ISM
 90
        0
280
     0
281
     0
  0
CLASS
  1
DICTIONARYVAR
  2
AcDbDictionaryVar
  3
ObjectDBX Classes
 90
        0
280
     0
281
     0
  0
CLASS
  1
DIMASSOC
  2
AcDbDimAssoc
  3
"AcDbDimAssoc|Product Desc:     AcDim ARX App For Dimension|Company:          Autodesk, Inc.|WEB Address:      www.autodesk.com"
 90
        0
280
     0
281
     0
  0
ENDSEC
  0
SECTION
  2
TABLES
  0
TABLE
  2
VPORT
  5
7
330
0
100
AcDbSymbolTable
 70
     1
  0
VPORT
  5
3A0
330
7
100
AcDbSymbolTableRecord
100
AcDbViewportTableRecord
  2
*ACTIVE
 70
     0
 10
0.0
 20
0.0
 11
1.0
 21
1.0
 12
-13.60757853590608
 22
-22.3031728332147
 13
0.0
 23
0.0
 14
6.349999999999997
 24
6.349999999999997
 15
6.349999999999997
 25
6.349999999999997
 16
0.0
 26
0.0
 36
1.0
 17
0.0
 27
0.0
 37
0.0
 40
233.139247468224
 41
1.248717948717949
 42
50.0
 43
0.0
 44
0.0
 50
0.0
 51
0.0
 71
    16
 72
   100
 73
     1
 74
     1
 75
     0
 76
     0
 77
     0
 78
     0
  0
ENDTAB
  0
TABLE
  2
LTYPE
  5
4
330
0
100
AcDbSymbolTable
 70
    37
  0
LTYPE
  5
12
330
4
100
AcDbSymbolTableRecord
100
AcDbLinetypeTableRecord
  2
BYBLOCK
 70
     0
  3

 72
    65
 73
     0
 40
0.0
  0
LTYPE
  5
13
330
4
100
AcDbSymbolTableRecord
100
AcDbLinetypeTableRecord
  2
BYLAYER
 70
     0
  3

 72
    65
 73
     0
 40
0.0
  0
LTYPE
  5
14
330
4
100
AcDbSymbolTableRecord
100
AcDbLinetypeTableRecord
  2
CONTINUOUS
 70
     0
  3
DXF Default line type
 72
    65
 73
     0
 40
0.0
  0
LTYPE
  5
20
330
4
100
AcDbSymbolTableRecord
100
AcDbLinetypeTableRecord
  2
DASHED
 70
     0
  3
DXF Dashed
 72
    65
 73
     2
 40
0.75
 49
0.5
 74
     0
 49
-0.25
 74
     0
  0
LTYPE
  5
21
330
4
100
AcDbSymbolTableRecord
100
AcDbLinetypeTableRecord
  2
HIDDEN
 70
     0
  3
DXF Hidden
 72
    65
 73
     2
 40
0.375
 49
0.25
 74
     0
 49
-0.125
 74
     0
  0
LTYPE
  5
22
330
4
100
AcDbSymbolTableRecord
100
AcDbLinetypeTableRecord
  2
CENTER
 70
     0
  3
DXF Center
 72
    65
 73
     4
 40
2.0
 49
1.25
 74
     0
 49
-0.25
 74
     0
 49
0.25
 74
     0
 49
-0.25
 74
     0
  0
LTYPE
  5
23
330
4
100
AcDbSymbolTableRecord
100
AcDbLinetypeTableRecord
  2
PHANTOM
 70
     0
  3
DXF Phantom
 72
    65
 73
     6
 40
2.5
 49
1.25
 74
     0
 49
-0.25
 74
     0
 49
0.25
 74
     0
 49
-0.25
 74
     0
 49
0.25
 74
     0
 49
-0.25
 74
     0
  0
LTYPE
  5
24
330
4
100
AcDbSymbolTableRecord
100
AcDbLinetypeTableRecord
  2
DOT
 70
     0
  3
DXF DOT
 72
    65
 73
     2
 40
0.25
 49
0.0
 74
     0
 49
-0.25
 74
     0
  0
LTYPE
  5
25
330
4
100
AcDbSymbolTableRecord
100
AcDbLinetypeTableRecord
  2
DASHDOT
 70
     0
  3
DXF Dash Dot
 72
    65
 73
     4
 40
1.0
 49
0.5
 74
     0
 49
-0.25
 74
     0
 49
0.0
 74
     0
 49
-0.25
 74
     0
  0
LTYPE
  5
26
330
4
100
AcDbSymbolTableRecord
100
AcDbLinetypeTableRecord
  2
BORDER
 70
     0
  3
DXF Border
 72
    65
 73
     6
 40
1.75
 49
0.5
 74
     0
 49
-0.25
 74
     0
 49
0.5
 74
     0
 49
-0.25
 74
     0
 49
0.0
 74
     0
 49
-0.25
 74
     0
  0
LTYPE
  5
27
330
4
100
AcDbSymbolTableRecord
100
AcDbLinetypeTableRecord
  2
DIVIDE
 70
     0
  3
DXF Divide
 72
    65
 73
     6
 40
1.25
 49
0.5
 74
     0
 49
-0.25
 74
     0
 49
0.0
 74
     0
 49
-0.25
 74
     0
 49
0.0
 74
     0
 49
-0.25
 74
     0
  0
LTYPE
  5
28
330
4
100
AcDbSymbolTableRecord
100
AcDbLinetypeTableRecord
  2
C_SOLID_L
 70
     0
  3
CADAM Solid Light
 72
    65
 73
     0
 40
0.0
  0
LTYPE
  5
29
330
4
100
AcDbSymbolTableRecord
100
AcDbLinetypeTableRecord
  2
C_SOLID_M
 70
     0
  3
CADAM Solid Medium
 72
    65
 73
     0
 40
0.0
  0
LTYPE
  5
2A
330
4
100
AcDbSymbolTableRecord
100
AcDbLinetypeTableRecord
  2
C_SOLID_H
 70
     0
  3
CADAM Solid Heavy
 72
    65
 73
     0
 40
0.0
  0
LTYPE
  5
2B
330
4
100
AcDbSymbolTableRecord
100
AcDbLinetypeTableRecord
  2
C_DASHED_L
 70
     0
  3
CADAM Dashed Light
 72
    65
 73
     2
 40
0.375
 49
0.25
 74
     0
 49
-0.125
 74
     0
  0
LTYPE
  5
2C
330
4
100
AcDbSymbolTableRecord
100
AcDbLinetypeTableRecord
  2
C_DASHED_M
 70
     0
  3
CADAM Dashed Medium
 72
    65
 73
     2
 40
0.5
 49
0.375
 74
     0
 49
-0.125
 74
     0
  0
LTYPE
  5
2D
330
4
100
AcDbSymbolTableRecord
100
AcDbLinetypeTableRecord
  2
C_CENTER_L
 70
     0
  3
CADAM Center Light
 72
    65
 73
     4
 40
2.0
 49
1.25
 74
     0
 49
-0.25
 74
     0
 49
0.25
 74
     0
 49
-0.25
 74
     0
  0
LTYPE
  5
2E
330
4
100
AcDbSymbolTableRecord
100
AcDbLinetypeTableRecord
  2
C_PHANTOM_L
 70
     0
  3
CADAM Phantom Light
 72
    65
 73
     6
 40
2.5
 49
1.25
 74
     0
 49
-0.25
 74
     0
 49
0.25
 74
     0
 49
-0.25
 74
     0
 49
0.25
 74
     0
 49
-0.25
 74
     0
  0
LTYPE
  5
2F
330
4
100
AcDbSymbolTableRecord
100
AcDbLinetypeTableRecord
  2
C_BREAK_M
 70
     0
  3
CADAM Break Medium
 72
    65
 73
     4
 40
1.0
 49
0.5
 74
     0
 49
-0.25
 74
     0
 49
0.0
 74
     0
 49
-0.25
 74
     0
  0
LTYPE
  5
30
330
4
100
AcDbSymbolTableRecord
100
AcDbLinetypeTableRecord
  2
C_NC
 70
     0
  3
CADAM NC
 72
    65
 73
     0
 40
0.0
  0
LTYPE
  5
31
330
4
100
AcDbSymbolTableRecord
100
AcDbLinetypeTableRecord
  2
DSH1
 70
     0
  3
CADAM Style2 Type 1 Dashed Line
 72
    65
 73
     2
 40
0.075
 49
0.04
 74
     0
 49
-0.035
 74
     0
  0
LTYPE
  5
32
330
4
100
AcDbSymbolTableRecord
100
AcDbLinetypeTableRecord
  2
DSH2
 70
     0
  3
CADAM Style2 Type 2 Dashed Line
 72
    65
 73
     2
 40
0.15
 49
0.11
 74
     0
 49
-0.04
 74
     0
  0
LTYPE
  5
33
330
4
100
AcDbSymbolTableRecord
100
AcDbLinetypeTableRecord
  2
DSH3
 70
     0
  3
CADAM Style2 Type 3 Dashed Line
 72
    65
 73
     2
 40
0.2
 49
0.15
 74
     0
 49
-0.05
 74
     0
  0
LTYPE
  5
34
330
4
100
AcDbSymbolTableRecord
100
AcDbLinetypeTableRecord
  2
DSH4
 70
     0
  3
CADAM Style2 Type 4 Dashed Line
 72
    65
 73
     2
 40
0.36
 49
0.28
 74
     0
 49
-0.08
 74
     0
  0
LTYPE
  5
35
330
4
100
AcDbSymbolTableRecord
100
AcDbLinetypeTableRecord
  2
DSH5
 70
     0
  3
CADAM Style2 Type 5 Dashed Line
 72
    65
 73
     2
 40
0.47
 49
0.39
 74
     0
 49
-0.08
 74
     0
  0
LTYPE
  5
36
330
4
100
AcDbSymbolTableRecord
100
AcDbLinetypeTableRecord
  2
DSH6
 70
     0
  3
CADAM Style2 Type 6 Dashed Line
 72
    65
 73
     2
 40
0.9
 49
0.81
 74
     0
 49
-0.09
 74
     0
  0
LTYPE
  5
37
330
4
100
AcDbSymbolTableRecord
100
AcDbLinetypeTableRecord
  2
PL1
 70
     0
  3
Style 2 Type 1 Phantom Line
 72
    65
 73
     6
 40
1.0
 49
0.6
 74
     0
 49
-0.08
 74
     0
 49
0.08
 74
     0
 49
-0.08
 74
     0
 49
0.08
 74
     0
 49
-0.08
 74
     0
  0
LTYPE
  5
38
330
4
100
AcDbSymbolTableRecord
100
AcDbLinetypeTableRecord
  2
PL2
 70
     0
  3
Style 2 Type 2 Phantom Line
 72
    65
 73
     6
 40
1.08
 49
0.6
 74
     0
 49
-0.08
 74
     0
 49
0.12
 74
     0
 49
-0.08
 74
     0
 49
0.12
 74
     0
 49
-0.08
 74
     0
  0
LTYPE
  5
39
330
4
100
AcDbSymbolTableRecord
100
AcDbLinetypeTableRecord
  2
PL3
 70
     0
  3
Style 2 Type 3 Phantom Line
 72
    65
 73
     6
 40
2.0
 49
1.439999999999999
 74
     0
 49
-0.08
 74
     0
 49
0.16
 74
     0
 49
-0.08
 74
     0
 49
0.16
 74
     0
 49
-0.08
 74
     0
  0
LTYPE
  5
3A
330
4
100
AcDbSymbolTableRecord
100
AcDbLinetypeTableRecord
  2
CL1
 70
     0
  3
CADAM Style 2 Type 1 Center Line
 72
    65
 73
     4
 40
0.7
 49
0.45
 74
     0
 49
-0.06
 74
     0
 49
0.13
 74
     0
 49
-0.06
 74
     0
  0
LTYPE
  5
3B
330
4
100
AcDbSymbolTableRecord
100
AcDbLinetypeTableRecord
  2
CL2
 70
     0
  3
CADAM Style 2 Type 2 Center Line
 72
    65
 73
     4
 40
1.199999999999999
 49
1.01
 74
     0
 49
-0.06
 74
     0
 49
0.11
 74
     0
 49
-0.06
 74
     0
  0
LTYPE
  5
3C
330
4
100
AcDbSymbolTableRecord
100
AcDbLinetypeTableRecord
  2
CL3
 70
     0
  3
CADAM Style 2 Type 3 Center Line
 72
    65
 73
     4
 40
1.199999999999999
 49
0.98
 74
     0
 49
-0.06
 74
     0
 49
0.1
 74
     0
 49
-0.06
 74
     0
  0
LTYPE
  5
3D
330
4
100
AcDbSymbolTableRecord
100
AcDbLinetypeTableRecord
  2
CL4
 70
     0
  3
CADAM Style 2 Type 4 Center Line
 72
    65
 73
     4
 40
2.2
 49
1.929999999999999
 74
     0
 49
-0.07
 74
     0
 49
0.13
 74
     0
 49
-0.07
 74
     0
  0
LTYPE
  5
3E
330
4
100
AcDbSymbolTableRecord
100
AcDbLinetypeTableRecord
  2
CL5
 70
     0
  3
CADAM Style 2 Type 5 Center Line
 72
    65
 73
     4
 40
2.2
 49
1.879999999999999
 74
     0
 49
-0.07
 74
     0
 49
0.18
 74
     0
 49
-0.07
 74
     0
  0
LTYPE
  5
3F
330
4
100
AcDbSymbolTableRecord
100
AcDbLinetypeTableRecord
  2
SBK1
 70
     0
  3
CADAM Style 2 Type 1 SetBack Line
 72
    65
 73
     8
 40
2.7
 49
0.1
 74
     0
 49
-0.08
 74
     0
 49
0.1
 74
     0
 49
-0.8
 74
     0
 49
0.0
 74
     0
 49
0.0
 74
     0
 49
0.0
 74
     0
 49
0.0
 74
     0
  0
LTYPE
  5
40
330
4
100
AcDbSymbolTableRecord
100
AcDbLinetypeTableRecord
  2
SBK2
 70
     0
  3
CADAM Style 2 Type 2 SetBack Line
 72
    65
 73
     8
 40
3.709999999999998
 49
0.13
 74
     0
 49
-0.08
 74
     0
 49
0.13
 74
     0
 49
-0.8
 74
     0
 49
0.0
 74
     0
 49
0.0
 74
     0
 49
0.0
 74
     0
 49
0.0
 74
     0
  0
LTYPE
  5
41
330
4
100
AcDbSymbolTableRecord
100
AcDbLinetypeTableRecord
  2
STCH
 70
     0
  3
CADAM Style2 Stitch Line
 72
    65
 73
     2
 40
0.25
 49
0.0
 74
     0
 49
-0.25
 74
     0
  0
LTYPE
  5
42
330
4
100
AcDbSymbolTableRecord
100
AcDbLinetypeTableRecord
  2
MTCH
 70
     0
  3
CADAM Style2 Match Line
 72
    65
 73
     6
 40
2.0
 49
1.439999999999999
 74
     0
 49
-0.8
 74
     0
 49
0.16
 74
     0
 49
-0.08
 74
     0
 49
0.16
 74
     0
 49
-0.08
 74
     0
  0
LTYPE
  5
43
330
4
100
AcDbSymbolTableRecord
100
AcDbLinetypeTableRecord
  2
SLD
 70
     0
  3
CADAM Solid_EXT2
 72
    65
 73
     0
 40
0.0
  0
ENDTAB
  0
TABLE
  2
LAYER
  5
2
102
{ACAD_XDICTIONARY
360
423
102
}
330
0
100
AcDbSymbolTable
 70
     9
  0
LAYER
  5
15
330
2
100
AcDbSymbolTableRecord
100
AcDbLayerTableRecord
  2
0
 70
     0
 62
     7
  6
CONTINUOUS
  0
LAYER
  5
44
330
2
100
AcDbSymbolTableRecord
100
AcDbLayerTableRecord
  2
MO_001_NOSHOW
 70
     1
 62
     7
  6
CONTINUOUS
  0
LAYER
  5
45
330
2
100
AcDbSymbolTableRecord
100
AcDbLayerTableRecord
  2
MO_001_VIEW_PV
 70
     0
 62
     7
  6
CONTINUOUS
  0
LAYER
  5
46
330
2
100
AcDbSymbolTableRecord
100
AcDbLayerTableRecord
  2
OVERLAY_MAP
 70
     1
 62
     7
  6
CONTINUOUS
  0
LAYER
  5
47
330
2
100
AcDbSymbolTableRecord
100
AcDbLayerTableRecord
  2
DITTOS
 70
     0
 62
     7
  6
CONTINUOUS
  0
LAYER
  5
48
330
2
100
AcDbSymbolTableRecord
100
AcDbLayerTableRecord
  2
SYMBOLS
 70
     0
 62
     7
  6
CONTINUOUS
  0
LAYER
  5
49
330
2
100
AcDbSymbolTableRecord
100
AcDbLayerTableRecord
  2
SETS
 70
     0
 62
     7
  6
CONTINUOUS
  0
LAYER
  5
111
330
2
100
AcDbSymbolTableRecord
100
AcDbLayerTableRecord
  2
DEFPOINTS
 70
     0
 62
     7
  6
CONTINUOUS
  0
LAYER
  5
426
330
2
100
AcDbSymbolTableRecord
100
AcDbLayerTableRecord
  2
1
 70
     0
 62
     7
  6
CONTINUOUS
1001
ACAECLAYERSTANDARD
1000

1000

  0
ENDTAB
  0
TABLE
  2
STYLE
  5
3
330
0
100
AcDbSymbolTable
 70
     1
  0
STYLE
  5
18
330
3
100
AcDbSymbolTableRecord
100
AcDbTextStyleTableRecord
  2
STANDARD
 70
     0
 40
3.0
 41
1.0
 50
0.0
 71
     0
 42
4.1672
  3
monotxt.shx
  4
BIGFONT.shx
  0
ENDTAB
  0
TABLE
  2
VIEW
  5
5
330
0
100
AcDbSymbolTable
 70
     0
  0
ENDTAB
  0
TABLE
  2
UCS
  5
6
330
0
100
AcDbSymbolTable
 70
     1
  0
UCS
  5
4A
330
6
100
AcDbSymbolTableRecord
100
AcDbUCSTableRecord
  2
MO_001_VIEW_PV_P
 70
     0
 10
0.0
 20
0.0
 30
0.0
 11
1.0
 21
0.0
 31
0.0
 12
-2.051034000000000E-10
 22
1.0
 32
0.0
  0
ENDTAB
  0
TABLE
  2
APPID
  5
8
330
0
100
AcDbSymbolTable
 70
     2
  0
APPID
  5
17
330
8
100
AcDbSymbolTableRecord
100
AcDbRegAppTableRecord
  2
ACAD
 70
     0
  0
APPID
  5
427
330
8
100
AcDbSymbolTableRecord
100
AcDbRegAppTableRecord
  2
ACAECLAYERSTANDARD
 70
     0
  0
ENDTAB
  0
TABLE
  2
DIMSTYLE
  5
9
330
0
100
AcDbSymbolTable
 70
     1
  0
DIMSTYLE
105
19
102
{ACAD_REACTORS
330
CE
330
144
330
1BB
330
439
102
}
330
9
100
AcDbSymbolTableRecord
100
AcDbDimStyleTableRecord
  2
STANDARD
 70
     0
  3

  4

  5

  6

  7

 40
1.0
 41
2.0
 42
0.0625
 43
0.38
 44
0.18
 45
0.0
 46
0.0
 47
0.1
 48
0.1
140
0.18
141
0.09
142
0.0
143
25.4
144
1.0
145
0.0
146
0.5
147
0.09
 71
     1
 72
     0
 73
     1
 74
     1
 75
     0
 76
     0
 77
     1
 78
     0
170
     0
171
     2
172
     0
173
     0
174
     0
175
     0
176
     0
177
     0
178
     0
270
     2
271
     1
272
     1
273
     2
274
     2
340
18
275
     0
280
     0
281
     0
282
     0
283
     2
284
     0
285
     0
286
     0
287
     3
288
     0
  0
ENDTAB
  0
TABLE
  2
BLOCK_RECORD
  5
C
330
0
100
AcDbSymbolTable
 70
    11
  0
BLOCK_RECORD
  5
1E
102
{ACAD_XDICTIONARY
360
31B
102
}
330
C
100
AcDbSymbolTableRecord
100
AcDbBlockTableRecord
  2
*MODEL_SPACE
  0
BLOCK_RECORD
  5
1F
102
{ACAD_XDICTIONARY
360
31D
102
}
330
C
100
AcDbSymbolTableRecord
100
AcDbBlockTableRecord
  2
*PAPER_SPACE
  0
BLOCK_RECORD
  5
CB
330
C
100
AcDbSymbolTableRecord
100
AcDbBlockTableRecord
  2
*D0
  0
BLOCK_RECORD
  5
CD
330
C
100
AcDbSymbolTableRecord
100
AcDbBlockTableRecord
  2
*D1
  0
BLOCK_RECORD
  5
CF
330
C
100
AcDbSymbolTableRecord
100
AcDbBlockTableRecord
  2
*D2
  0
BLOCK_RECORD
  5
112
330
C
100
AcDbSymbolTableRecord
100
AcDbBlockTableRecord
  2
*D3
  0
BLOCK_RECORD
  5
120
330
C
100
AcDbSymbolTableRecord
100
AcDbBlockTableRecord
  2
*D4
  0
BLOCK_RECORD
  5
12D
330
C
100
AcDbSymbolTableRecord
100
AcDbBlockTableRecord
  2
*D5
  0
BLOCK_RECORD
  5
145
330
C
100
AcDbSymbolTableRecord
100
AcDbBlockTableRecord
  2
*D6
  0
BLOCK_RECORD
  5
157
330
C
100
AcDbSymbolTableRecord
100
AcDbBlockTableRecord
  2
*D7
  0
BLOCK_RECORD
  5
1BC
330
C
100
AcDbSymbolTableRecord
100
AcDbBlockTableRecord
  2
*D8
  0
BLOCK_RECORD
  5
26F
330
C
100
AcDbSymbolTableRecord
100
AcDbBlockTableRecord
  2
*D9
  0
BLOCK_RECORD
  5
43C
330
C
100
AcDbSymbolTableRecord
100
AcDbBlockTableRecord
  2
*D10
  0
ENDTAB
  0
ENDSEC
  0
SECTION
  2
BLOCKS
  0
BLOCK
  5
E
330
1E
100
AcDbEntity
  8
0
100
AcDbBlockBegin
  2
*MODEL_SPACE
 70
     0
 10
0.0
 20
0.0
 30
0.0
  3
*MODEL_SPACE
  1

  0
ENDBLK
  5
F
330
1E
100
AcDbEntity
  8
0
100
AcDbBlockEnd
  0
BLOCK
  5
10
330
1F
100
AcDbEntity
 67
     1
  8
0
100
AcDbBlockBegin
  2
*PAPER_SPACE
 70
     0
 10
0.0
 20
0.0
 30
0.0
  3
*PAPER_SPACE
  1

  0
ENDBLK
  5
11
330
1F
100
AcDbEntity
 67
     1
  8
0
100
AcDbBlockEnd
  0
BLOCK
  5
E9
330
CB
100
AcDbEntity
  8
0
100
AcDbBlockBegin
  2
*D0
 70
     1
 10
0.0
 20
0.0
 30
0.0
  3
*D0
  1
*D0
  0
LINE
  5
EA
330
CB
100
AcDbEntity
  8
MO_001_VIEW_PV
  6
BYBLOCK
100
AcDbLine
 10
-52.257904
 20
-26.424309
 30
0.0
 11
-52.257904
 21
-30.424309
 31
0.0
  0
LINE
  5
EB
330
CB
100
AcDbEntity
  8
MO_001_VIEW_PV
  6
BYBLOCK
100
AcDbLine
 10
-52.257904
 20
-26.424309
 30
0.0
 11
-52.257904
 21
-20.074309
 31
0.0
  0
LINE
  5
EC
330
CB
100
AcDbEntity
  8
MO_001_VIEW_PV
  6
BYBLOCK
100
AcDbLine
 10
-52.257904
 20
-30.424309
 30
0.0
 11
-52.257904
 21
-36.774309
 31
0.0
  0
SOLID
  5
ED
330
CB
100
AcDbEntity
  8
MO_001_VIEW_PV
  6
BYBLOCK
100
AcDbTrace
 10
-52.841416
 20
-23.10604899999999
 30
0.0
 11
-52.257904
 21
-25.916309
 31
0.0
 12
-51.674392
 22
-23.10604899999999
 32
0.0
 13
-51.674392
 23
-23.10604899999999
 33
0.0
  0
SOLID
  5
EE
330
CB
100
AcDbEntity
  8
MO_001_VIEW_PV
  6
BYBLOCK
100
AcDbTrace
 10
-51.674392
 20
-33.742569
 30
0.0
 11
-52.257904
 21
-30.932309
 31
0.0
 12
-52.841416
 22
-33.742569
 32
0.0
 13
-52.841416
 23
-33.742569
 33
0.0
  0
LINE
  5
EF
330
CB
100
AcDbEntity
  8
MO_001_VIEW_PV
  6
BYBLOCK
100
AcDbLine
 10
-38.62002899999996
 20
-26.424309
 30
0.0
 11
-54.543903
 21
-26.424309
 31
0.0
  0
LINE
  5
F0
330
CB
100
AcDbEntity
  8
MO_001_VIEW_PV
  6
BYBLOCK
100
AcDbLine
 10
-38.62002899999996
 20
-30.424309
 30
0.0
 11
-54.543903
 21
-30.424309
 31
0.0
  0
TEXT
  5
F1
330
CB
100
AcDbEntity
  8
MO_001_VIEW_PV
  6
BYBLOCK
100
AcDbText
 10
-53.007904
 20
-51.727053
 30
0.0
 40
3.0
  1
(%%C4.0)
 50
90.0
100
AcDbText
  0
LINE
  5
F2
330
CB
100
AcDbEntity
  8
MO_001_VIEW_PV
  6
BYBLOCK
100
AcDbLine
 10
-52.257904
 20
-30.424309
 30
0.0
 11
-52.257904
 21
-52.691338
 31
0.0
  0
ENDBLK
  5
F3
330
CB
100
AcDbEntity
  8
0
100
AcDbBlockEnd
  0
BLOCK
  5
F4
330
CD
100
AcDbEntity
  8
0
100
AcDbBlockBegin
  2
*D1
 70
     1
 10
0.0
 20
0.0
 30
0.0
  3
*D1
  1
*D1
  0
LINE
  5
F5
330
CD
100
AcDbEntity
  8
MO_001_VIEW_PV
  6
BYBLOCK
100
AcDbLine
 10
-38.62002899999996
 20
-38.952904
 30
0.0
 11
-38.020031
 21
-38.952904
 31
0.0
  0
LINE
  5
F6
330
CD
100
AcDbEntity
  8
MO_001_VIEW_PV
  6
BYBLOCK
100
AcDbLine
 10
-38.62002899999996
 20
-38.952904
 30
0.0
 11
-44.970029
 21
-38.952904
 31
0.0
  0
LINE
  5
F7
330
CD
100
AcDbEntity
  8
MO_001_VIEW_PV
  6
BYBLOCK
100
AcDbLine
 10
-38.020031
 20
-38.952904
 30
0.0
 11
-31.670031
 21
-38.952904
 31
0.0
  0
SOLID
  5
F8
330
CD
100
AcDbEntity
  8
MO_001_VIEW_PV
  6
BYBLOCK
100
AcDbTrace
 10
-41.93829
 20
-39.536415
 30
0.0
 11
-39.12802899999999
 21
-38.952904
 31
0.0
 12
-41.93829
 22
-38.36939199999999
 32
0.0
 13
-41.93829
 23
-38.36939199999999
 33
0.0
  0
SOLID
  5
F9
330
CD
100
AcDbEntity
  8
MO_001_VIEW_PV
  6
BYBLOCK
100
AcDbTrace
 10
-34.701771
 20
-38.36939199999999
 30
0.0
 11
-37.512031
 21
-38.952904
 31
0.0
 12
-34.701771
 22
-39.536415
 32
0.0
 13
-34.701771
 23
-39.536415
 33
0.0
  0
LINE
  5
FA
330
CD
100
AcDbEntity
  8
MO_001_VIEW_PV
  6
BYBLOCK
100
AcDbLine
 10
-38.62002899999996
 20
-30.424309
 30
0.0
 11
-38.62002899999996
 21
-41.238903
 31
0.0
  0
LINE
  5
FB
330
CD
100
AcDbEntity
  8
MO_001_VIEW_PV
  6
BYBLOCK
100
AcDbLine
 10
-38.020031
 20
-34.198917
 30
0.0
 11
-38.020031
 21
-41.238903
 31
0.0
  0
TEXT
  5
FC
330
CD
100
AcDbEntity
  8
MO_001_VIEW_PV
  6
BYBLOCK
100
AcDbText
 10
-34.413222
 20
-38.20290399999999
 30
0.0
 40
3.0
  1
(0.6)
100
AcDbText
  0
LINE
  5
FD
330
CD
100
AcDbEntity
  8
MO_001_VIEW_PV
  6
BYBLOCK
100
AcDbLine
 10
-38.020031
 20
-38.952904
 30
0.0
 11
-19.30607799999998
 21
-38.952904
 31
0.0
  0
ENDBLK
  5
FE
330
CD
100
AcDbEntity
  8
0
100
AcDbBlockEnd
  0
BLOCK
  5
FF
330
CF
100
AcDbEntity
  8
0
100
AcDbBlockBegin
  2
*D2
 70
     1
 10
0.0
 20
0.0
 30
0.0
  3
*D2
  1
*D2
  0
LINE
  5
100
330
CF
100
AcDbEntity
  8
MO_001_VIEW_PV
  6
BYBLOCK
100
AcDbLine
 10
0.0
 20
0.0
 30
0.0
 11
-9.357237
 21
5.97094
 31
0.0
  0
LINE
  5
101
330
CF
100
AcDbEntity
  8
MO_001_VIEW_PV
  6
BYBLOCK
100
AcDbLine
 10
-9.357237
 20
5.97094
 30
0.0
 11
-14.71025
 21
9.386747999999997
 31
0.0
  0
SOLID
  5
102
330
CF
100
AcDbEntity
  8
MO_001_VIEW_PV
  6
BYBLOCK
100
AcDbTrace
 10
-12.468395
 20
7.26401
 30
0.0
 11
-9.785478
 21
6.244205
 31
0.0
 12
-11.84062699999999
 22
8.247803999999997
 32
0.0
 13
-11.84062699999999
 23
8.247803999999997
 33
0.0
  0
LINE
  5
103
330
CF
100
AcDbEntity
  8
MO_001_VIEW_PV
  6
BYBLOCK
100
AcDbLine
 10
-9.357237
 20
5.97094
 30
0.0
 11
-22.820816
 21
14.562176
 31
0.0
  0
ENDBLK
  5
104
330
CF
100
AcDbEntity
  8
0
100
AcDbBlockEnd
  0
BLOCK
  5
11E
330
112
100
AcDbEntity
  8
0
100
AcDbBlockBegin
  2
*D3
 70
     1
 10
0.0
 20
0.0
 30
0.0
  3
*D3
  1
*D3
  0
LINE
  5
218
330
112
100
AcDbEntity
  8
MO_001_VIEW_PV
  6
C_SOLID_M
 62
     0
100
AcDbLine
 10
-38.68252899999783
 20
-30.4243084796737
 30
0.0
 11
-62.77222490891642
 21
-30.42410792764271
 31
0.0
  0
LINE
  5
219
330
112
100
AcDbEntity
  8
MO_001_VIEW_PV
  6
C_SOLID_M
 62
     0
100
AcDbLine
 10
-38.68252899999783
 20
-26.42430847967371
 30
0.0
 11
-62.77219160803428
 21
-26.42410792791995
 31
0.0
  0
LINE
  5
21A
330
112
100
AcDbEntity
  8
MO_001_VIEW_PV
  6
C_SOLID_M
 62
     0
100
AcDbLine
 10
-62.59224155936372
 20
-32.42410942611309
 30
0.0
 11
-62.59225820980478
 21
-34.42410942604378
 31
0.0
  0
LINE
  5
21B
330
112
100
AcDbEntity
  8
MO_001_VIEW_PV
  6
C_SOLID_M
 62
     0
100
AcDbLine
 10
-62.59217495759947
 20
-24.42410942652895
 30
0.0
 11
-62.59215830715839
 21
-22.42410942659826
 31
0.0
  0
MTEXT
  5
21C
330
112
100
AcDbEntity
  8
MO_001_VIEW_PV
  6
C_SOLID_M
 62
     0
100
AcDbMText
 10
-54.15582794949579
 20
-10.39033393752794
 30
0.0
 40
4.1672
 41
0.0
 71
     5
 72
     5
  1
\A2;(%%C4.0)
  0
LINE
  5
21D
330
112
100
AcDbEntity
  8
MO_001_VIEW_PV
  6
C_SOLID_M
 62
     0
100
AcDbLine
 10
-62.59222490892265
 20
-30.42410942618241
 30
0.0
 11
-62.59219160804053
 21
-26.42410942645964
 31
0.0
  0
SOLID
  5
21E
330
112
100
AcDbEntity
  8
MO_001_VIEW_PV
  6
C_SOLID_M
 62
     0
100
AcDbTrace
 10
-62.92557489268551
 20
-32.42410665103959
 30
0.0
 11
-62.25890822604194
 21
-32.4241122011866
 31
0.0
 12
-62.59222490892265
 22
-30.42410942618241
 32
0.0
 13
-62.59222490892265
 23
-30.42410942618241
 33
0.0
  0
SOLID
  5
21F
330
112
100
AcDbEntity
  8
MO_001_VIEW_PV
  6
C_SOLID_M
 62
     0
100
AcDbTrace
 10
-62.92550829092125
 20
-24.42410665145544
 30
0.0
 11
-62.25884162427766
 21
-24.42411220160245
 31
0.0
 12
-62.59219160804053
 22
-26.42410942645964
 32
0.0
 13
-62.59219160804053
 23
-26.42410942645964
 33
0.0
  0
POINT
  5
220
330
112
100
AcDbEntity
  8
DEFPOINTS
  6
C_SOLID_M
 62
     0
100
AcDbPoint
 10
-38.62002899999996
 20
-30.42430899999999
 30
0.0
  0
POINT
  5
221
330
112
100
AcDbEntity
  8
DEFPOINTS
  6
C_SOLID_M
 62
     0
100
AcDbPoint
 10
-38.62002899999996
 20
-26.42430899999999
 30
0.0
  0
POINT
  5
222
330
112
100
AcDbEntity
  8
DEFPOINTS
  6
C_SOLID_M
 62
     0
100
AcDbPoint
 10
-62.59219160804053
 20
-26.42410942645964
 30
0.0
  0
ENDBLK
  5
11F
330
112
100
AcDbEntity
  8
0
100
AcDbBlockEnd
  0
BLOCK
  5
12B
330
120
100
AcDbEntity
  8
0
100
AcDbBlockBegin
  2
*D4
 70
     1
 10
0.0
 20
0.0
 30
0.0
  3
*D4
  1
*D4
  0
LINE
  5
30F
330
120
100
AcDbEntity
  8
MO_001_VIEW_PV
  6
C_SOLID_M
 62
     0
100
AcDbLine
 10
-38.020031
 20
-34.261417
 30
0.0
 11
-38.020031
 21
-39.67569003343282
 31
0.0
  0
LINE
  5
310
330
120
100
AcDbEntity
  8
MO_001_VIEW_PV
  6
C_SOLID_M
 62
     0
100
AcDbLine
 10
-38.62002899999996
 20
-30.486809
 30
0.0
 11
-38.62002899999996
 21
-39.67569003343282
 31
0.0
  0
LINE
  5
311
330
120
100
AcDbEntity
  8
MO_001_VIEW_PV
  6
C_SOLID_M
 62
     0
100
AcDbLine
 10
-40.62002899999996
 20
-39.49569003343282
 30
0.0
 11
-42.62002899999997
 21
-39.49569003343282
 31
0.0
  0
LINE
  5
312
330
120
100
AcDbEntity
  8
MO_001_VIEW_PV
  6
C_SOLID_M
 62
     0
100
AcDbLine
 10
-36.020031
 20
-39.49569003343282
 30
0.0
 11
-15.78216433333333
 21
-39.49569003343282
 31
0.0
  0
LINE
  5
313
330
120
100
AcDbEntity
  8
MO_001_VIEW_PV
  6
C_SOLID_M
 62
     0
100
AcDbLine
 10
-38.62002899999996
 20
-39.49569003343282
 30
0.0
 11
-38.020031
 21
-39.49569003343282
 31
0.0
  0
SOLID
  5
314
330
120
100
AcDbEntity
  8
MO_001_VIEW_PV
  6
C_SOLID_M
 62
     0
100
AcDbTrace
 10
-40.62002899999996
 20
-39.16235670009948
 30
0.0
 11
-40.62002899999996
 21
-39.82902336676616
 31
0.0
 12
-38.62002899999996
 22
-39.49569003343282
 32
0.0
 13
-38.62002899999996
 23
-39.49569003343282
 33
0.0
  0
SOLID
  5
315
330
120
100
AcDbEntity
  8
MO_001_VIEW_PV
  6
C_SOLID_M
 62
     0
100
AcDbTrace
 10
-36.020031
 20
-39.16235670009948
 30
0.0
 11
-36.020031
 21
-39.82902336676616
 31
0.0
 12
-38.020031
 22
-39.49569003343282
 32
0.0
 13
-38.020031
 23
-39.49569003343282
 33
0.0
  0
MTEXT
  5
316
330
120
100
AcDbEntity
  8
MO_001_VIEW_PV
  6
C_SOLID_M
 62
     0
100
AcDbMText
 10
-24.90109766666666
 20
-37.32209003343282
 30
0.0
 40
4.1672
 41
0.0
 71
     5
 72
     5
  1
\A2;(0.6)
  0
POINT
  5
317
330
120
100
AcDbEntity
  8
DEFPOINTS
  6
C_SOLID_M
 62
     0
100
AcDbPoint
 10
-38.020031
 20
-34.198917
 30
0.0
  0
POINT
  5
318
330
120
100
AcDbEntity
  8
DEFPOINTS
  6
C_SOLID_M
 62
     0
100
AcDbPoint
 10
-38.62002899999996
 20
-30.424309
 30
0.0
  0
POINT
  5
319
330
120
100
AcDbEntity
  8
DEFPOINTS
  6
C_SOLID_M
 62
     0
100
AcDbPoint
 10
-38.62002899999996
 20
-39.49569003343282
 30
0.0
  0
ENDBLK
  5
12C
330
120
100
AcDbEntity
  8
0
100
AcDbBlockEnd
  0
BLOCK
  5
136
330
12D
100
AcDbEntity
  8
0
100
AcDbBlockBegin
  2
*D5
 70
     1
 10
0.0
 20
0.0
 30
0.0
  3
*D5
  1
*D5
  0
LINE
  5
12E
330
12D
100
AcDbEntity
  8
MO_001_VIEW_PV
  6
C_SOLID_M
 62
     0
100
AcDbLine
 10
20.15621010985745
 20
-19.16224358767118
 30
0.0
 11
2.008343443190782
 21
-19.16224358767118
 31
0.0
  0
LINE
  5
12F
330
12D
100
AcDbEntity
  8
MO_001_VIEW_PV
  6
C_SOLID_M
 62
     0
100
AcDbLine
 10
2.008343443190782
 20
-19.16224358767118
 30
0.0
 11
1.365496779701922
 21
-13.02863910032108
 31
0.0
  0
MTEXT
  5
130
330
12D
100
AcDbEntity
  8
MO_001_VIEW_PV
  6
C_SOLID_M
 62
     0
100
AcDbMText
 10
11.12727677652409
 20
-16.98864358767118
 30
0.0
 40
4.1672
 41
0.0
 71
     5
 72
     5
  1
\A2;(0.6)
  0
SOLID
  5
131
330
12D
100
AcDbEntity
  8
MO_001_VIEW_PV
  6
C_SOLID_M
 62
     0
100
AcDbTrace
 10
1.697014296422103
 20
-12.99389363703743
 30
0.0
 11
1.033979262981741
 21
-13.06338456360473
 31
0.0
 12
1.157024
 22
-11.03953399999999
 32
0.0
 13
1.157024
 23
-11.03953399999999
 33
0.0
  0
LINE
  5
132
330
12D
100
AcDbEntity
  8
MO_001_VIEW_PV
  6
C_SOLID_M
 62
     0
100
AcDbLine
 10
-0.09
 20
0.0
 30
0.0
 11
0.09
 21
0.0
 31
0.0
  0
LINE
  5
133
330
12D
100
AcDbEntity
  8
MO_001_VIEW_PV
  6
C_SOLID_M
 62
     0
100
AcDbLine
 10
0.0
 20
-0.09
 30
0.0
 11
0.0
 21
0.09
 31
0.0
  0
POINT
  5
134
330
12D
100
AcDbEntity
  8
DEFPOINTS
  6
C_SOLID_M
 62
     0
100
AcDbPoint
 10
1.157024
 20
-11.03953399999999
 30
0.0
  0
POINT
  5
135
330
12D
100
AcDbEntity
  8
DEFPOINTS
  6
C_SOLID_M
 62
     0
100
AcDbPoint
 10
0.0
 20
0.0
 30
0.0
  0
ENDBLK
  5
137
330
12D
100
AcDbEntity
  8
0
100
AcDbBlockEnd
  0
BLOCK
  5
14D
330
145
100
AcDbEntity
  8
0
100
AcDbBlockBegin
  2
*D6
 70
     1
 10
0.0
 20
0.0
 30
0.0
  3
*D6
  1
*D6
  0
LINE
  5
3C3
330
145
100
AcDbEntity
  8
0
  6
CONTINUOUS
 62
     0
100
AcDbLine
 10
-45.10028573135897
 20
25.20646279220971
 30
0.0
 11
-11.43519660180028
 21
6.391109346441752
 31
0.0
  0
MTEXT
  5
3C4
330
145
100
AcDbEntity
  8
0
  6
CONTINUOUS
 62
     0
100
AcDbMText
 10
-34.03848305567938
 20
21.888007343612
 30
0.0
 40
3.0
 41
0.0
 71
     5
 72
     1
  1
\A2;R11.1{\H1.500000;±0.1}
 11
0.8729157711297931
 21
-0.4878709424764696
 31
0.0
  0
SOLID
  5
3C5
330
145
100
AcDbEntity
  8
0
  6
CONTINUOUS
 62
     0
100
AcDbTrace
 10
-11.27257295430813
 20
6.682081270151683
 30
0.0
 11
-11.59782024929244
 21
6.100137422731821
 31
0.0
 12
-9.689365059540698
 22
5.415367461488813
 32
0.0
 13
-9.689365059540698
 23
5.415367461488813
 33
0.0
  0
LINE
  5
3C6
330
145
100
AcDbEntity
  8
0
  6
CONTINUOUS
 62
     0
100
AcDbLine
 10
-0.09
 20
0.0
 30
0.0
 11
0.09
 21
0.0
 31
0.0
  0
LINE
  5
3C7
330
145
100
AcDbEntity
  8
0
  6
CONTINUOUS
 62
     0
100
AcDbLine
 10
0.0
 20
-0.09
 30
0.0
 11
0.0
 21
0.09
 31
0.0
  0
POINT
  5
3C8
330
145
100
AcDbEntity
  8
DEFPOINTS
  6
CONTINUOUS
 62
     0
100
AcDbPoint
 10
-9.689365059540698
 20
5.415367461488813
 30
0.0
  0
POINT
  5
3C9
330
145
100
AcDbEntity
  8
DEFPOINTS
  6
CONTINUOUS
 62
     0
100
AcDbPoint
 10
0.0
 20
0.0
 30
0.0
  0
ENDBLK
  5
14E
330
145
100
AcDbEntity
  8
0
100
AcDbBlockEnd
  0
BLOCK
  5
164
330
157
100
AcDbEntity
  8
0
100
AcDbBlockBegin
  2
*D7
 70
     1
 10
0.0
 20
0.0
 30
0.0
  3
*D7
  1
*D7
  0
LINE
  5
3CA
330
157
100
AcDbEntity
  8
0
  6
CONTINUOUS
 62
     0
100
AcDbLine
 10
0.0
 20
20.0625
 30
0.0
 11
-0.0000000000000036
 21
32.62224806401281
 31
0.0
  0
LINE
  5
3CB
330
157
100
AcDbEntity
  8
0
  6
CONTINUOUS
 62
     0
100
AcDbLine
 10
-7.868266154341952
 20
11.7756858408944
 30
0.0
 11
-18.12395732688065
 21
27.12440290089882
 31
0.0
  0
ARC
  5
3CC
330
157
100
AcDbEntity
  8
0
  6
CONTINUOUS
 62
     0
100
AcDbCircle
 10
-0.0000000000000004
 20
0.0000006214350843
 30
0.0
 40
32.44224744257772
100
AcDbArc
 50
93.53273036751061
 51
120.2172859261499
  0
SOLID
  5
3CD
330
157
100
AcDbEntity
  8
0
  6
CONTINUOUS
 62
     0
100
AcDbTrace
 10
-2.009324323282085
 20
32.71377499633834
 30
0.0
 11
-1.988774986561604
 21
32.04742511136439
 31
0.0
 12
-0.0000000000000053
 22
32.4422480640128
 32
0.0
 13
-0.0000000000000053
 23
32.4422480640128
 33
0.0
  0
SOLID
  5
3CE
330
157
100
AcDbEntity
  8
0
  6
CONTINUOUS
 62
     0
100
AcDbTrace
 10
-16.15099701639208
 20
27.75135982709181
 30
0.0
 11
-16.50411518902975
 21
28.31682600698011
 31
0.0
 12
-18.02395464237583
 22
26.97473839912293
 32
0.0
 13
-18.02395464237583
 23
26.97473839912293
 33
0.0
  0
POINT
  5
3CF
330
157
100
AcDbEntity
  8
DEFPOINTS
  6
CONTINUOUS
 62
     0
100
AcDbPoint
 10
-12.41511628735314
 20
29.97272666857567
 30
0.0
  0
POINT
  5
3D0
330
157
100
AcDbEntity
  8
DEFPOINTS
  6
CONTINUOUS
 62
     0
100
AcDbPoint
 10
0.0
 20
20.0
 30
0.0
  0
POINT
  5
3D1
330
157
100
AcDbEntity
  8
DEFPOINTS
  6
CONTINUOUS
 62
     0
100
AcDbPoint
 10
-4.500119999999999
 20
6.734902
 30
0.0
  0
POINT
  5
3D2
330
157
100
AcDbEntity
  8
DEFPOINTS
  6
CONTINUOUS
 62
     0
100
AcDbPoint
 10
-7.833542999999998
 20
11.72371899999999
 30
0.0
  0
POINT
  5
3D3
330
157
100
AcDbEntity
  8
DEFPOINTS
  6
CONTINUOUS
 62
     0
100
AcDbPoint
 10
0.0
 20
-20.0
 30
0.0
  0
ENDBLK
  5
165
330
157
100
AcDbEntity
  8
0
100
AcDbBlockEnd
  0
BLOCK
  5
1CA
330
1BC
100
AcDbEntity
  8
0
100
AcDbBlockBegin
  2
*D8
 70
     1
 10
0.0
 20
0.0
 30
0.0
  3
*D8
  1
*D8
  0
LINE
  5
304
330
1BC
100
AcDbEntity
  8
0
  6
CONTINUOUS
 62
     0
100
AcDbLine
 10
-38.68252899458028
 20
-26.424309
 30
0.0
 11
-47.94697086558413
 21
-26.42430899999999
 31
0.0
  0
LINE
  5
305
330
1BC
100
AcDbEntity
  8
0
  6
CONTINUOUS
 62
     0
100
AcDbLine
 10
-38.68252899375987
 20
-30.424309
 30
0.0
 11
-47.94697086558413
 21
-30.42430899999999
 31
0.0
  0
LINE
  5
306
330
1BC
100
AcDbEntity
  8
0
  6
CONTINUOUS
 62
     0
100
AcDbLine
 10
-47.76697086558414
 20
-24.42430899999999
 30
0.0
 11
-47.76697086558414
 21
-22.424309
 31
0.0
  0
LINE
  5
307
330
1BC
100
AcDbEntity
  8
0
  6
CONTINUOUS
 62
     0
100
AcDbLine
 10
-47.76697086558414
 20
-32.424309
 30
0.0
 11
-47.76697086558414
 21
-56.82937566666667
 31
0.0
  0
LINE
  5
308
330
1BC
100
AcDbEntity
  8
0
  6
CONTINUOUS
 62
     0
100
AcDbLine
 10
-47.76697086558414
 20
-26.42430899999999
 30
0.0
 11
-47.76697086558414
 21
-30.42430899999999
 31
0.0
  0
SOLID
  5
309
330
1BC
100
AcDbEntity
  8
0
  6
CONTINUOUS
 62
     0
100
AcDbTrace
 10
-48.10030419891749
 20
-24.42430899999999
 30
0.0
 11
-47.43363753225081
 21
-24.42430899999999
 31
0.0
 12
-47.76697086558414
 22
-26.42430899999999
 32
0.0
 13
-47.76697086558414
 23
-26.42430899999999
 33
0.0
  0
SOLID
  5
30A
330
1BC
100
AcDbEntity
  8
0
  6
CONTINUOUS
 62
     0
100
AcDbTrace
 10
-48.10030419891749
 20
-32.42430899999999
 30
0.0
 11
-47.43363753225081
 21
-32.424309
 31
0.0
 12
-47.76697086558414
 22
-30.42430899999999
 32
0.0
 13
-47.76697086558414
 23
-30.42430899999999
 33
0.0
  0
MTEXT
  5
30B
330
1BC
100
AcDbEntity
  8
0
  6
CONTINUOUS
 62
     0
100
AcDbMText
 10
-49.94057086558414
 20
-45.62684233333334
 30
0.0
 40
4.1672
 41
0.0
 71
     5
 72
     5
  1
\A2;(%%C4.0)
 11
1.000000000000000E-16
 21
1.0
 31
0.0
  0
POINT
  5
30C
330
1BC
100
AcDbEntity
  8
DEFPOINTS
  6
CONTINUOUS
 62
     0
100
AcDbPoint
 10
-38.62002899458028
 20
-26.424309
 30
0.0
  0
POINT
  5
30D
330
1BC
100
AcDbEntity
  8
DEFPOINTS
  6
CONTINUOUS
 62
     0
100
AcDbPoint
 10
-38.62002899375987
 20
-30.424309
 30
0.0
  0
POINT
  5
30E
330
1BC
100
AcDbEntity
  8
DEFPOINTS
  6
CONTINUOUS
 62
     0
100
AcDbPoint
 10
-47.76697086558414
 20
-30.42430899999999
 30
0.0
  0
ENDBLK
  5
1CB
330
1BC
100
AcDbEntity
  8
0
100
AcDbBlockEnd
  0
BLOCK
  5
27D
330
26F
100
AcDbEntity
  8
0
100
AcDbBlockBegin
  2
*D9
 70
     1
 10
0.0
 20
0.0
 30
0.0
  3
*D9
  1
*D9
  0
LINE
  5
2C8
330
26F
100
AcDbEntity
  8
0
  6
CONTINUOUS
 62
     0
100
AcDbLine
 10
-38.74502898916054
 20
-26.424309
 30
0.0
 11
-45.92943732563227
 21
-26.42430899999999
 31
0.0
  0
LINE
  5
2C9
330
26F
100
AcDbEntity
  8
0
  6
CONTINUOUS
 62
     0
100
AcDbLine
 10
-38.74502898751972
 20
-30.424309
 30
0.0
 11
-45.92943732563227
 21
-30.42430899999999
 31
0.0
  0
LINE
  5
2CA
330
26F
100
AcDbEntity
  8
0
  6
CONTINUOUS
 62
     0
100
AcDbLine
 10
-45.74943732563228
 20
-32.424309
 30
0.0
 11
-45.74943732563228
 21
-34.424309
 31
0.0
  0
LINE
  5
2CB
330
26F
100
AcDbEntity
  8
0
  6
CONTINUOUS
 62
     0
100
AcDbLine
 10
-45.74943732563228
 20
-24.42430899999999
 30
0.0
 11
-45.74943732563228
 21
0.4775763565429362
 31
0.0
  0
SOLID
  5
2CC
330
26F
100
AcDbEntity
  8
0
  6
CONTINUOUS
 62
     0
100
AcDbTrace
 10
-46.08277065896564
 20
-32.424309
 30
0.0
 11
-45.41610399229896
 21
-32.424309
 31
0.0
 12
-45.74943732563228
 22
-30.42430899999999
 32
0.0
 13
-45.74943732563228
 23
-30.42430899999999
 33
0.0
  0
SOLID
  5
2CD
330
26F
100
AcDbEntity
  8
0
  6
CONTINUOUS
 62
     0
100
AcDbTrace
 10
-46.08277065896564
 20
-24.42430899999999
 30
0.0
 11
-45.41610399229896
 21
-24.42430899999999
 31
0.0
 12
-45.74943732563228
 22
-26.42430899999999
 32
0.0
 13
-45.74943732563228
 23
-26.42430899999999
 33
0.0
  0
MTEXT
  5
2CE
330
26F
100
AcDbEntity
  8
0
  6
CONTINUOUS
 62
     0
100
AcDbMText
 10
-47.92303732563229
 20
-9.717883643457071
 30
0.0
 40
4.1672
 41
0.0
 71
     5
 72
     5
  1
\A2;4.0{\H2.083600;±0.1}
 11
1.000000000000000E-16
 21
1.0
 31
0.0
  0
POINT
  5
2CF
330
26F
100
AcDbEntity
  8
DEFPOINTS
  6
CONTINUOUS
 62
     0
100
AcDbPoint
 10
-38.68252898916056
 20
-26.424309
 30
0.0
  0
POINT
  5
2D0
330
26F
100
AcDbEntity
  8
DEFPOINTS
  6
CONTINUOUS
 62
     0
100
AcDbPoint
 10
-38.68252898751974
 20
-30.424309
 30
0.0
  0
POINT
  5
2D1
330
26F
100
AcDbEntity
  8
DEFPOINTS
  6
CONTINUOUS
 62
     0
100
AcDbPoint
 10
-45.74943732563228
 20
-30.42430899999999
 30
0.0
  0
ENDBLK
  5
27E
330
26F
100
AcDbEntity
  8
0
100
AcDbBlockEnd
  0
BLOCK
  5
43D
330
43C
100
AcDbEntity
  8
0
100
AcDbBlockBegin
  2
*D10
 70
     1
 10
0.0
 20
0.0
 30
0.0
  3
*D10
  1
*D10
  0
LINE
  5
43F
330
43C
100
AcDbEntity
  8
MO_001_VIEW_PV
  6
CONTINUOUS
 62
     0
100
AcDbLine
 10
0.0
 20
20.0625
 30
0.0
 11
-0.0000000000000018
 21
32.92037889966233
 31
0.0
  0
LINE
  5
440
330
43C
100
AcDbEntity
  8
MO_001_VIEW_PV
  6
CONTINUOUS
 62
     0
100
AcDbLine
 10
-6.263910039678672
 20
12.70195754805208
 30
0.0
 11
-14.56030831961289
 21
29.52539163661808
 31
0.0
  0
ARC
  5
441
330
43C
100
AcDbEntity
  8
MO_001_VIEW_PV
  6
CONTINUOUS
 62
     0
100
AcDbCircle
 10
-0.0000000000000018
 20
0.0000025389590927
 30
0.0
 40
32.74037636070324
100
AcDbArc
 50
93.5005518026193
 51
112.7494446607512
  0
SOLID
  5
442
330
43C
100
AcDbEntity
  8
MO_001_VIEW_PV
 62
     0
100
AcDbTrace
 10
-1.988885778757512
 20
32.34611443237262
 30
0.0
 11
-2.00924799632404
 21
33.01247006155288
 31
0.0
 12
-0.0000000000000018
 22
32.74037889966233
 32
0.0
 13
-0.0000000000000018
 23
32.74037889966233
 33
0.0
  0
SOLID
  5
443
330
43C
100
AcDbEntity
  8
MO_001_VIEW_PV
 62
     0
100
AcDbTrace
 10
-12.79899938015207
 20
30.49665324535484
 30
0.0
 11
-12.52254017703995
 21
29.89001104977407
 31
0.0
 12
-14.48069636533831
 22
29.36395453822808
 32
0.0
 13
-14.48069636533831
 23
29.36395453822808
 33
0.0
  0
MTEXT
  5
444
330
43C
100
AcDbEntity
  8
MO_001_VIEW_PV
  6
CONTINUOUS
 62
     0
100
AcDbMText
 10
-7.795612540694854
 20
33.43356600717009
 30
0.0
 40
3.0
 41
0.0
 71
     5
 72
     1
  1
 
 11
0.9738769862855686
 21
0.2270762329776907
 31
0.0
  0
POINT
  5
445
330
43C
100
AcDbEntity
  8
DEFPOINTS
 62
     0
100
AcDbPoint
 10
-4.980576251320359
 20
32.35933047458345
 30
0.0
  0
POINT
  5
446
330
43C
100
AcDbEntity
  8
DEFPOINTS
 62
     0
100
AcDbPoint
 10
-3.582535
 20
7.264666
 30
0.0
  0
POINT
  5
447
330
43C
100
AcDbEntity
  8
DEFPOINTS
 62
     0
100
AcDbPoint
 10
0.0
 20
-20.0
 30
0.0
  0
POINT
  5
448
330
43C
100
AcDbEntity
  8
DEFPOINTS
 62
     0
100
AcDbPoint
 10
0.0
 20
20.0
 30
0.0
  0
POINT
  5
449
330
43C
100
AcDbEntity
  8
DEFPOINTS
 62
     0
100
AcDbPoint
 10
-6.236266999999998
 20
12.645903
 30
0.0
  0
ENDBLK
  5
43E
330
43C
100
AcDbEntity
  8
0
100
AcDbBlockEnd
  0
ENDSEC
  0
SECTION
  2
ENTITIES
  0
TEXT
  5
4B
330
1E
100
AcDbEntity
  8
OVERLAY_MAP
  6
C_SOLID_L
100
AcDbText
 10
0.0
 20
6.349999999999997
 30
0.0
 40
4.1672
  1
Model Overlay Name
100
AcDbText
  0
TEXT
  5
4C
330
1E
100
AcDbEntity
  8
OVERLAY_MAP
  6
C_SOLID_L
100
AcDbText
 10
126.999998
 20
0.0
 30
0.0
 40
4.1672
  1
Number
100
AcDbText
  0
TEXT
  5
4D
330
1E
100
AcDbEntity
  8
OVERLAY_MAP
  6
C_SOLID_L
100
AcDbText
 10
177.7999969999999
 20
0.0
 30
0.0
 40
4.1672
  1
File Text
100
AcDbText
  0
TEXT
  5
4E
330
1E
100
AcDbEntity
  8
OVERLAY_MAP
  6
C_SOLID_L
100
AcDbText
 10
0.0
 20
-6.349999999999997
 30
0.0
 40
4.1672
  1
rs 3e6 
100
AcDbText
  0
TEXT
  5
4F
330
1E
100
AcDbEntity
  8
OVERLAY_MAP
  6
C_SOLID_L
100
AcDbText
 10
126.999998
 20
-6.349999999999997
 30
0.0
 40
4.1672
  1
001
100
AcDbText
  0
TEXT
  5
50
330
1E
100
AcDbEntity
  8
OVERLAY_MAP
  6
C_SOLID_L
100
AcDbText
 10
177.7999969999999
 20
-6.349999999999997
 30
0.0
 40
4.1672
  1
                                                                   00139
100
AcDbText
  0
CIRCLE
  5
51
330
1E
100
AcDbEntity
  8
MO_001_VIEW_PV
  6
C_SOLID_M
100
AcDbCircle
 10
0.0
 20
0.0
 30
0.0
 40
15.0
  0
ARC
  5
52
330
1E
100
AcDbEntity
  8
MO_001_VIEW_PV
  6
C_SOLID_M
100
AcDbCircle
 10
0.0
 20
0.0
 30
0.0
 40
5.549999999999998
100
AcDbArc
 50
44.80160099999999
 51
82.69839400000001
  0
LINE
  5
53
330
1E
100
AcDbEntity
  8
1
  6
C_CENTER_L
100
AcDbLine
 10
-20.0
 20
0.0
 30
0.0
 11
20.0
 21
0.0
 31
0.0
  0
LINE
  5
54
102
{ACAD_REACTORS
102
}
330
1E
100
AcDbEntity
  8
1
  6
C_CENTER_L
100
AcDbLine
 10
0.0
 20
-20.0
 30
0.0
 11
0.0
 21
20.0
 31
0.0
  0
ARC
  5
55
330
1E
100
AcDbEntity
  8
MO_001_VIEW_PV
  6
C_SOLID_M
100
AcDbCircle
 10
4.215301999999998
 20
-2.078758
 30
0.0
 40
1.3
100
AcDbArc
 50
278.8267119999999
 51
28.673271
  0
ARC
  5
56
330
1E
100
AcDbEntity
  8
MO_001_VIEW_PV
  6
C_SOLID_M
100
AcDbCircle
 10
3.907905999999998
 20
2.611177999999998
 30
0.0
 40
1.3
100
AcDbArc
 50
338.826728
 51
88.67327200000004
  0
ARC
  5
57
330
1E
100
AcDbEntity
  8
MO_001_VIEW_PV
  6
C_SOLID_M
100
AcDbCircle
 10
-0.307396
 20
4.689936
 30
0.0
 40
1.3
100
AcDbArc
 50
38.826729
 51
148.6732879999999
  0
ARC
  5
58
330
1E
100
AcDbEntity
  8
MO_001_VIEW_PV
  6
C_SOLID_M
100
AcDbCircle
 10
-4.215301999999998
 20
2.078758
 30
0.0
 40
1.3
100
AcDbArc
 50
98.826731
 51
208.6732759999999
  0
ARC
  5
59
330
1E
100
AcDbEntity
  8
MO_001_VIEW_PV
  6
C_SOLID_M
100
AcDbCircle
 10
-3.907905999999998
 20
-2.611177999999998
 30
0.0
 40
1.3
100
AcDbArc
 50
158.826719
 51
268.67325
  0
ARC
  5
5A
330
1E
100
AcDbEntity
  8
MO_001_VIEW_PV
  6
C_SOLID_M
100
AcDbCircle
 10
0.307396
 20
-4.689936
 30
0.0
 40
1.3
100
AcDbArc
 50
218.826724
 51
328.673269
  0
ARC
  5
5B
330
1E
100
AcDbEntity
  8
1
  6
C_SOLID_M
100
AcDbCircle
 10
2.081116
 20
-10.90316499999999
 30
0.0
 40
1.190499999999999
100
AcDbArc
 50
100.8876490000001
 51
280.902339
  0
ARC
  5
5C
330
1E
100
AcDbEntity
  8
1
  6
C_SOLID_M
100
AcDbCircle
 10
7.093894999999997
 20
-8.537363
 30
0.0
 40
1.190499999999999
100
AcDbArc
 50
309.7239949999999
 51
129.843412
  0
ARC
  5
5D
330
1E
100
AcDbEntity
  8
1
  6
C_SOLID_M
100
AcDbCircle
 10
0.0
 20
0.0
 30
0.0
 40
12.290497
100
AcDbArc
 50
280.796881
 51
309.7239950000001
  0
ARC
  5
5E
330
1E
100
AcDbEntity
  8
1
  6
C_SOLID_M
100
AcDbCircle
 10
0.0
 20
0.0
 30
0.0
 40
9.9095
100
AcDbArc
 50
280.796409
 51
309.738339
  0
ARC
  5
5F
330
1E
100
AcDbEntity
  8
1
  6
C_SOLID_M
100
AcDbCircle
 10
-10.869614
 20
-2.249766
 30
0.0
 40
1.190499999999999
100
AcDbArc
 50
191.5976840000001
 51
11.61236699999998
  0
ARC
  5
60
330
1E
100
AcDbEntity
  8
1
  6
C_SOLID_M
100
AcDbCircle
 10
-10.602211
 20
3.286798999999998
 30
0.0
 40
1.190499999999999
100
AcDbArc
 50
342.656582
 51
162.775975
  0
ARC
  5
61
330
1E
100
AcDbEntity
  8
1
  6
C_SOLID_M
100
AcDbCircle
 10
0.0
 20
0.0
 30
0.0
 40
12.290497
100
AcDbArc
 50
162.775979
 51
191.703142
  0
ARC
  5
62
330
1E
100
AcDbEntity
  8
1
  6
C_SOLID_M
100
AcDbCircle
 10
0.0
 20
0.0
 30
0.0
 40
9.9095
100
AcDbArc
 50
162.761663
 51
191.703579
  0
ARC
  5
63
330
1E
100
AcDbEntity
  8
1
  6
C_SOLID_M
100
AcDbCircle
 10
3.667083999999998
 20
10.47675899999999
 30
0.0
 40
1.190499999999999
100
AcDbArc
 50
70.61280800000011
 51
250.6274570000001
  0
ARC
  5
64
330
1E
100
AcDbEntity
  8
1
  6
C_SOLID_M
100
AcDbCircle
 10
8.275932
 20
7.397224
 30
0.0
 40
1.190499999999999
100
AcDbArc
 50
221.6716620000001
 51
41.791073
  0
ARC
  5
65
330
1E
100
AcDbEntity
  8
1
  6
C_SOLID_M
100
AcDbCircle
 10
0.0
 20
0.0
 30
0.0
 40
12.290497
100
AcDbArc
 50
41.791073
 51
70.7182350000001
  0
ARC
  5
66
330
1E
100
AcDbEntity
  8
1
  6
C_SOLID_M
100
AcDbCircle
 10
0.0
 20
0.0
 30
0.0
 40
9.9095
100
AcDbArc
 50
41.77675600000001
 51
70.71867200000004
  0
ARC
  5
67
330
1E
100
AcDbEntity
  8
1
  6
C_SOLID_M
100
AcDbCircle
 10
3.667083999999998
 20
10.47675899999999
 30
0.0
 40
1.190499999999999
100
AcDbArc
 50
70.61280800000011
 51
250.6274570000001
  0
ARC
  5
68
330
1E
100
AcDbEntity
  8
1
  6
C_SOLID_M
100
AcDbCircle
 10
0.0
 20
0.0
 30
0.0
 40
9.9095
100
AcDbArc
 50
41.77675600000001
 51
70.71867200000004
  0
CIRCLE
  5
69
330
1E
100
AcDbEntity
  8
1
  6
C_SOLID_L
100
AcDbCircle
 10
-6.166832
 20
-9.229311
 30
0.0
 40
1.3
  0
CIRCLE
  5
6A
330
1E
100
AcDbEntity
  8
1
  6
C_SOLID_M
100
AcDbCircle
 10
-4.909400999999999
 20
9.955283999999997
 30
0.0
 40
1.1
  0
CIRCLE
  5
6B
330
1E
100
AcDbEntity
  8
1
  6
C_SOLID_M
100
AcDbCircle
 10
11.07623299999999
 20
-0.7259770000000004
 30
0.0
 40
1.1
  0
ARC
  5
6C
330
1E
100
AcDbEntity
  8
MO_001_VIEW_PV
  6
C_SOLID_M
100
AcDbCircle
 10
5.321404
 20
3.555649999999998
 30
0.0
 40
1.8
100
AcDbArc
 50
159.30531
 51
268.194672
  0
ARC
  5
6D
330
1E
100
AcDbEntity
  8
MO_001_VIEW_PV
  6
C_SOLID_M
100
AcDbCircle
 10
-0.418579
 20
6.386294999999997
 30
0.0
 40
1.8
100
AcDbArc
 50
219.305316
 51
328.1946709999997
  0
ARC
  5
6E
330
1E
100
AcDbEntity
  8
MO_001_VIEW_PV
  6
C_SOLID_M
100
AcDbCircle
 10
-5.739983
 20
2.830649
 30
0.0
 40
1.8
100
AcDbArc
 50
279.3053169999998
 51
28.194671
  0
ARC
  5
6F
330
1E
100
AcDbEntity
  8
MO_001_VIEW_PV
  6
C_SOLID_M
100
AcDbCircle
 10
-5.321404
 20
-3.555649999999998
 30
0.0
 40
1.8
100
AcDbArc
 50
339.3053189999998
 51
88.19466700000004
  0
ARC
  5
70
330
1E
100
AcDbEntity
  8
MO_001_VIEW_PV
  6
C_SOLID_M
100
AcDbCircle
 10
0.418579
 20
-6.386294999999997
 30
0.0
 40
1.8
100
AcDbArc
 50
39.30531699999999
 51
148.194669
  0
ARC
  5
71
330
1E
100
AcDbEntity
  8
MO_001_VIEW_PV
  6
C_SOLID_M
100
AcDbCircle
 10
5.739983
 20
-2.830649
 30
0.0
 40
1.8
100
AcDbArc
 50
99.30532200000002
 51
208.1946709999999
  0
CIRCLE
  5
72
330
1E
100
AcDbEntity
  8
MO_001_VIEW_PV
  6
C_SOLID_M
100
AcDbCircle
 10
0.0
 20
0.0
 30
0.0
 40
2.27282
  0
CIRCLE
  5
73
330
1E
100
AcDbEntity
  8
MO_001_VIEW_PV
  6
C_SOLID_M
100
AcDbCircle
 10
0.0
 20
0.0
 30
0.0
 40
2.379999999999999
  0
ARC
  5
74
330
1E
100
AcDbEntity
  8
MO_001_VIEW_PV
  6
C_SOLID_M
100
AcDbCircle
 10
0.0
 20
0.0
 30
0.0
 40
5.549999999999998
100
AcDbArc
 50
104.801603
 51
142.6983879999999
  0
ARC
  5
75
330
1E
100
AcDbEntity
  8
MO_001_VIEW_PV
  6
C_SOLID_M
100
AcDbCircle
 10
0.0
 20
0.0
 30
0.0
 40
5.549999999999998
100
AcDbArc
 50
164.801605
 51
202.6983899999999
  0
ARC
  5
76
330
1E
100
AcDbEntity
  8
MO_001_VIEW_PV
  6
C_SOLID_M
100
AcDbCircle
 10
0.0
 20
0.0
 30
0.0
 40
5.549999999999998
100
AcDbArc
 50
224.80161
 51
262.698396
  0
ARC
  5
77
330
1E
100
AcDbEntity
  8
MO_001_VIEW_PV
  6
C_SOLID_M
100
AcDbCircle
 10
0.0
 20
0.0
 30
0.0
 40
5.549999999999998
100
AcDbArc
 50
284.801612
 51
322.698397
  0
ARC
  5
78
330
1E
100
AcDbEntity
  8
MO_001_VIEW_PV
  6
C_SOLID_M
100
AcDbCircle
 10
0.0
 20
0.0
 30
0.0
 40
5.549999999999998
100
AcDbArc
 50
344.8016129999998
 51
22.69839699999999
  0
ARC
  5
79
330
1E
100
AcDbEntity
  8
MO_001_VIEW_PV
  6
C_SOLID_M
100
AcDbCircle
 10
0.0
 20
0.0
 30
0.0
 40
16.65
100
AcDbArc
 50
293.16582
 51
246.8341849999999
  0
ARC
  5
7A
330
1E
100
AcDbEntity
  8
MO_001_VIEW_PV
  6
C_SOLID_M
100
AcDbCircle
 10
-5.550003
 20
-15.69777
 30
0.0
 40
1.7
100
AcDbArc
 50
343.4550619999999
 51
57.32086
  0
ARC
  5
7B
330
1E
100
AcDbEntity
  8
MO_001_VIEW_PV
  6
C_SOLID_M
100
AcDbCircle
 10
5.550003
 20
-15.69777
 30
0.0
 40
1.7
100
AcDbArc
 50
22.39754599999999
 51
96.263327
  0
LINE
  5
7C
330
1E
100
AcDbEntity
  8
MO_001_VIEW_PV
  6
C_SOLID_M
100
AcDbLine
 10
4.820007
 20
-30.856337
 30
0.0
 11
4.820007
 21
-25.856337
 31
0.0
  0
LINE
  5
7D
330
1E
100
AcDbEntity
  8
MO_001_VIEW_PV
  6
C_SOLID_M
100
AcDbLine
 10
6.279999
 20
-30.856337
 30
0.0
 11
6.279999
 21
-25.856337
 31
0.0
  0
LINE
  5
7E
330
1E
100
AcDbEntity
  8
MO_001_VIEW_PV
  6
C_SOLID_M
100
AcDbLine
 10
4.550003
 20
-25.856337
 30
0.0
 11
4.550003
 21
-14.322997
 31
0.0
  0
LINE
  5
7F
330
1E
100
AcDbEntity
  8
MO_001_VIEW_PV
  6
C_SOLID_M
100
AcDbLine
 10
6.550003
 20
-25.856337
 30
0.0
 11
6.550003
 21
-14.322997
 31
0.0
  0
LINE
  5
80
330
1E
100
AcDbEntity
  8
MO_001_VIEW_PV
  6
C_SOLID_M
100
AcDbLine
 10
6.550003
 20
-25.856337
 30
0.0
 11
4.550003
 21
-25.856337
 31
0.0
  0
ARC
  5
81
330
1E
100
AcDbEntity
  8
MO_001_VIEW_PV
  6
C_SOLID_M
100
AcDbCircle
 10
5.184998
 20
-31.13640399999999
 30
0.0
 40
0.4600680000000001
100
AcDbArc
 50
37.499371
 51
142.500573
  0
ARC
  5
82
330
1E
100
AcDbEntity
  8
MO_001_VIEW_PV
  6
C_SOLID_M
100
AcDbCircle
 10
5.184998
 20
-30.576269
 30
0.0
 40
0.4600680000000001
100
AcDbArc
 50
217.499441
 51
322.500605
  0
ARC
  5
83
330
1E
100
AcDbEntity
  8
MO_001_VIEW_PV
  6
C_SOLID_M
100
AcDbCircle
 10
5.915001
 20
-30.576269
 30
0.0
 40
0.4600680000000001
100
AcDbArc
 50
217.4995779999999
 51
322.5011519999998
  0
LINE
  5
84
330
1E
100
AcDbEntity
  8
MO_001_VIEW_PV
  6
C_SOLID_M
100
AcDbLine
 10
-6.279999
 20
-30.856337
 30
0.0
 11
-6.279999
 21
-25.856337
 31
0.0
  0
LINE
  5
85
330
1E
100
AcDbEntity
  8
MO_001_VIEW_PV
  6
C_SOLID_M
100
AcDbLine
 10
-4.820007
 20
-30.856337
 30
0.0
 11
-4.820007
 21
-25.856337
 31
0.0
  0
LINE
  5
86
330
1E
100
AcDbEntity
  8
MO_001_VIEW_PV
  6
C_SOLID_M
100
AcDbLine
 10
-4.550003
 20
-25.856337
 30
0.0
 11
-4.550003
 21
-14.322997
 31
0.0
  0
LINE
  5
87
330
1E
100
AcDbEntity
  8
MO_001_VIEW_PV
  6
C_SOLID_M
100
AcDbLine
 10
-6.550003
 20
-25.856337
 30
0.0
 11
-6.550003
 21
-14.322997
 31
0.0
  0
LINE
  5
88
330
1E
100
AcDbEntity
  8
MO_001_VIEW_PV
  6
C_SOLID_M
100
AcDbLine
 10
-6.550003
 20
-25.856337
 30
0.0
 11
-4.550003
 21
-25.856337
 31
0.0
  0
ARC
  5
89
330
1E
100
AcDbEntity
  8
MO_001_VIEW_PV
  6
C_SOLID_M
100
AcDbCircle
 10
-5.915008999999997
 20
-31.13640399999999
 30
0.0
 40
0.4600680000000001
100
AcDbArc
 50
37.49937399999995
 51
142.500573
  0
ARC
  5
8A
330
1E
100
AcDbEntity
  8
MO_001_VIEW_PV
  6
C_SOLID_M
100
AcDbCircle
 10
-5.915008999999997
 20
-30.576269
 30
0.0
 40
0.4600680000000001
100
AcDbArc
 50
217.499441
 51
322.500598
  0
ARC
  5
8B
330
1E
100
AcDbEntity
  8
MO_001_VIEW_PV
  6
C_SOLID_M
100
AcDbCircle
 10
-5.185005
 20
-30.576269
 30
0.0
 40
0.4600680000000001
100
AcDbArc
 50
217.4995779999999
 51
322.501145
  0
LINE
  5
8C
330
1E
100
AcDbEntity
  8
MO_001_VIEW_PV
  6
C_SOLID_M
100
AcDbLine
 10
6.279999
 20
-35.356339
 30
0.0
 11
6.279999
 21
-31.856339
 31
0.0
  0
LINE
  5
8D
330
1E
100
AcDbEntity
  8
MO_001_VIEW_PV
  6
C_SOLID_M
100
AcDbLine
 10
4.820007
 20
-35.356339
 30
0.0
 11
4.820007
 21
-31.856339
 31
0.0
  0
ARC
  5
8E
330
1E
100
AcDbEntity
  8
MO_001_VIEW_PV
  6
C_SOLID_M
100
AcDbCircle
 10
5.915008999999997
 20
-32.136406
 30
0.0
 40
0.4600680000000001
100
AcDbArc
 50
37.49942899999999
 51
142.500627
  0
ARC
  5
8F
330
1E
100
AcDbEntity
  8
MO_001_VIEW_PV
  6
C_SOLID_M
100
AcDbCircle
 10
5.915008999999997
 20
-31.576271
 30
0.0
 40
0.4600680000000001
100
AcDbArc
 50
217.4994
 51
322.500557
  0
ARC
  5
90
330
1E
100
AcDbEntity
  8
MO_001_VIEW_PV
  6
C_SOLID_M
100
AcDbCircle
 10
5.185005
 20
-32.136406
 30
0.0
 40
0.4600680000000001
100
AcDbArc
 50
37.499579
 51
142.501146
  0
LINE
  5
91
330
1E
100
AcDbEntity
  8
MO_001_VIEW_PV
  6
C_SOLID_M
100
AcDbLine
 10
-4.820007
 20
-35.356339
 30
0.0
 11
-4.820007
 21
-31.85633499999999
 31
0.0
  0
LINE
  5
92
330
1E
100
AcDbEntity
  8
MO_001_VIEW_PV
  6
C_SOLID_M
100
AcDbLine
 10
-6.279999
 20
-35.356339
 30
0.0
 11
-6.279999
 21
-31.85633499999999
 31
0.0
  0
ARC
  5
93
330
1E
100
AcDbEntity
  8
MO_001_VIEW_PV
  6
C_SOLID_M
100
AcDbCircle
 10
-5.184998
 20
-32.136406
 30
0.0
 40
0.4600680000000001
100
AcDbArc
 50
37.49942899999999
 51
142.500627
  0
ARC
  5
94
330
1E
100
AcDbEntity
  8
MO_001_VIEW_PV
  6
C_SOLID_M
100
AcDbCircle
 10
-5.184998
 20
-31.576271
 30
0.0
 40
0.4600680000000001
100
AcDbArc
 50
217.4994
 51
322.500557
  0
ARC
  5
95
330
1E
100
AcDbEntity
  8
MO_001_VIEW_PV
  6
C_SOLID_M
100
AcDbCircle
 10
-5.915001
 20
-32.136406
 30
0.0
 40
0.4600680000000001
100
AcDbArc
 50
37.499579
 51
142.501146
  0
LINE
  5
96
330
1E
100
AcDbEntity
  8
MO_001_VIEW_PV
  6
C_SOLID_M
100
AcDbLine
 10
6.279999
 20
-35.356339
 30
0.0
 11
4.820007
 21
-35.356339
 31
0.0
  0
LINE
  5
97
330
1E
100
AcDbEntity
  8
MO_001_VIEW_PV
  6
C_SOLID_M
100
AcDbLine
 10
-6.279999
 20
-35.356339
 30
0.0
 11
-4.820007
 21
-35.356339
 31
0.0
  0
LINE
  5
98
330
1E
100
AcDbEntity
  8
MO_001_VIEW_PV
  6
C_SOLID_M
100
AcDbLine
 10
-5.300003
 20
-35.356339
 30
0.0
 11
-5.300003
 21
-40.35633899999999
 31
0.0
  0
LINE
  5
99
330
1E
100
AcDbEntity
  8
MO_001_VIEW_PV
  6
C_SOLID_M
100
AcDbLine
 10
-5.800003
 20
-35.356339
 30
0.0
 11
-5.800003
 21
-40.35633899999999
 31
0.0
  0
LINE
  5
9A
330
1E
100
AcDbEntity
  8
MO_001_VIEW_PV
  6
C_SOLID_M
100
AcDbLine
 10
-5.800003
 20
-40.35633899999999
 30
0.0
 11
-5.300003
 21
-40.35633899999999
 31
0.0
  0
LINE
  5
9B
330
1E
100
AcDbEntity
  8
MO_001_VIEW_PV
  6
C_SOLID_M
100
AcDbLine
 10
5.300003
 20
-35.356339
 30
0.0
 11
5.300003
 21
-40.35633899999999
 31
0.0
  0
LINE
  5
9C
330
1E
100
AcDbEntity
  8
MO_001_VIEW_PV
  6
C_SOLID_M
100
AcDbLine
 10
5.800003
 20
-35.356339
 30
0.0
 11
5.800003
 21
-40.35633899999999
 31
0.0
  0
LINE
  5
9D
330
1E
100
AcDbEntity
  8
MO_001_VIEW_PV
  6
C_SOLID_M
100
AcDbLine
 10
5.800003
 20
-40.35633899999999
 30
0.0
 11
5.300003
 21
-40.35633899999999
 31
0.0
  0
ARC
  5
9E
330
1E
100
AcDbEntity
  8
MO_001_VIEW_PV
  6
C_SOLID_M
100
AcDbCircle
 10
0.0
 20
0.0
 30
0.0
 40
16.65
100
AcDbArc
 50
254.1408519999999
 51
285.8591499999999
  0
ARC
  5
9F
330
1E
100
AcDbEntity
  8
MO_001_VIEW_PV
  6
C_SOLID_M
100
AcDbCircle
 10
-5.550003
 20
-15.69777
 30
0.0
 40
1.7
100
AcDbArc
 50
83.73667799999997
 51
157.6024899999999
  0
ARC
  5
A0
330
1E
100
AcDbEntity
  8
MO_001_VIEW_PV
  6
C_SOLID_M
100
AcDbCircle
 10
5.550003
 20
-15.69777
 30
0.0
 40
1.7
100
AcDbArc
 50
122.679145
 51
196.544936
  0
CIRCLE
  5
A1
330
1E
100
AcDbEntity
  8
1
  6
C_SOLID_M
100
AcDbCircle
 10
-6.166832
 20
-9.229311
 30
0.0
 40
2.0
  0
CIRCLE
  5
A2
330
1E
100
AcDbEntity
  8
1
  6
C_SOLID_M
100
AcDbCircle
 10
-4.909400999999999
 20
9.955283999999997
 30
0.0
 40
2.0
  0
CIRCLE
  5
A3
330
1E
100
AcDbEntity
  8
1
  6
C_SOLID_M
100
AcDbCircle
 10
11.07623299999999
 20
-0.7259770000000004
 30
0.0
 40
2.0
  0
CIRCLE
  5
A4
330
1E
100
AcDbEntity
  8
1
  6
C_SOLID_M
100
AcDbCircle
 10
-6.166832
 20
-9.229311
 30
0.0
 40
1.1
  0
CIRCLE
  5
A5
330
1E
100
AcDbEntity
  8
1
  6
C_SOLID_L
100
AcDbCircle
 10
-4.909400999999999
 20
9.955289
 30
0.0
 40
1.3
  0
CIRCLE
  5
A6
330
1E
100
AcDbEntity
  8
1
  6
C_SOLID_L
100
AcDbCircle
 10
11.07623299999999
 20
-0.7259780000000001
 30
0.0
 40
1.3
  0
LINE
  5
A7
330
1E
100
AcDbEntity
  8
MO_001_VIEW_PV
  6
C_SOLID_M
100
AcDbLine
 10
-36.420033
 20
-21.18955199999998
 30
0.0
 11
-36.420033
 21
-34.198917
 31
0.0
  0
LINE
  5
A8
330
1E
100
AcDbEntity
  8
MO_001_VIEW_PV
  6
C_SOLID_M
100
AcDbLine
 10
-38.020031
 20
-30.424309
 30
0.0
 11
-38.020031
 21
-34.198917
 31
0.0
  0
LINE
  5
A9
330
1E
100
AcDbEntity
  8
MO_001_VIEW_PV
  6
C_CENTER_L
100
AcDbLine
 10
-41.45565399999997
 20
-28.424309
 30
0.0
 11
-33.609646
 21
-28.424309
 31
0.0
  0
LINE
  5
AA
330
1E
100
AcDbEntity
  8
MO_001_VIEW_PV
  6
C_SOLID_M
100
AcDbLine
 10
-38.62002899999996
 20
-26.424309
 30
0.0
 11
-38.62002899999996
 21
-30.424309
 31
0.0
  0
LINE
  5
AB
330
1E
100
AcDbEntity
  8
MO_001_VIEW_PV
  6
C_SOLID_M
100
AcDbLine
 10
-37.020031
 20
-26.424309
 30
0.0
 11
-36.420033
 21
-26.424309
 31
0.0
  0
LINE
  5
AC
330
1E
100
AcDbEntity
  8
MO_001_VIEW_PV
  6
C_SOLID_M
100
AcDbLine
 10
-37.020031
 20
-30.424309
 30
0.0
 11
-36.420033
 21
-30.424309
 31
0.0
  0
LINE
  5
AD
330
1E
100
AcDbEntity
  8
MO_001_VIEW_PV
  6
C_SOLID_M
100
AcDbLine
 10
-38.62002899999996
 20
-26.424309
 30
0.0
 11
-38.020031
 21
-26.424309
 31
0.0
  0
LINE
  5
AE
330
1E
100
AcDbEntity
  8
MO_001_VIEW_PV
  6
C_SOLID_M
100
AcDbLine
 10
-38.62002899999996
 20
-30.424309
 30
0.0
 11
-38.020031
 21
-30.424309
 31
0.0
  0
LINE
  5
AF
330
1E
100
AcDbEntity
  8
MO_001_VIEW_PV
  6
C_SOLID_M
100
AcDbLine
 10
-37.020031
 20
-26.424309
 30
0.0
 11
-37.020031
 21
-30.424309
 31
0.0
  0
LINE
  5
B0
330
1E
100
AcDbEntity
  8
MO_001_VIEW_PV
  6
C_SOLID_M
100
AcDbLine
 10
-38.020031
 20
-21.18955199999998
 30
0.0
 11
-38.020031
 21
-26.424309
 31
0.0
  0
LINE
  5
B1
330
1E
100
AcDbEntity
  8
MO_001_VIEW_PV
  6
C_SOLID_L
100
AcDbLine
 10
-38.62002899999996
 20
-27.12431
 30
0.0
 11
-37.020031
 21
-27.12431
 31
0.0
  0
LINE
  5
B2
330
1E
100
AcDbEntity
  8
MO_001_VIEW_PV
  6
C_SOLID_L
100
AcDbLine
 10
-38.62002899999996
 20
-29.724308
 30
0.0
 11
-37.020031
 21
-29.724308
 31
0.0
  0
LINE
  5
B3
330
1E
100
AcDbEntity
  8
MO_001_VIEW_PV
  6
C_SOLID_M
100
AcDbLine
 10
-38.62002899999996
 20
-27.324308
 30
0.0
 11
-37.020031
 21
-27.324308
 31
0.0
  0
LINE
  5
B4
330
1E
100
AcDbEntity
  8
MO_001_VIEW_PV
  6
C_SOLID_M
100
AcDbLine
 10
-38.62002899999996
 20
-29.524309
 30
0.0
 11
-37.020031
 21
-29.524309
 31
0.0
  0
CIRCLE
  5
B5
330
1E
100
AcDbEntity
  8
MO_001_VIEW_PV
  6
C_SOLID_M
100
AcDbCircle
 10
-40.10004
 20
-37.602028
 30
0.0
 40
25.28653915737144
  0
ARC
  5
B6
330
1E
100
AcDbEntity
  8
1
  6
C_CENTER_L
100
AcDbCircle
 10
0.0
 20
0.0
 30
0.0
 40
11.1
100
AcDbArc
 50
219.9943061569967
 51
251.7828520000001
  0
ARC
  5
B7
330
1E
100
AcDbEntity
  8
1
  6
C_CENTER_L
100
AcDbCircle
 10
0.0
 20
0.0
 30
0.0
 40
11.1
100
AcDbArc
 50
340.717121
 51
11.78285800000025
  0
ARC
  5
B8
330
1E
100
AcDbEntity
  8
1
  6
C_CENTER_L
100
AcDbCircle
 10
0.0
 20
0.0
 30
0.0
 40
11.1
100
AcDbArc
 50
100.717123
 51
154.8954294608839
  0
LINE
  5
BA
330
1E
100
AcDbEntity
  8
1
  6
C_CENTER_L
100
AcDbLine
 10
8.082655
 20
-0.529767
 30
0.0
 11
14.06980899999999
 21
-0.922187
 31
0.0
  0
LINE
  5
BB
102
{ACAD_REACTORS
102
}
330
1E
100
AcDbEntity
  8
1
  6
C_CENTER_L
100
AcDbLine
 10
-3.582535
 20
7.264666
 30
0.0
 11
-6.236266999999998
 21
12.645903
 31
0.0
  0
LINE
  5
BC
330
1E
100
AcDbEntity
  8
MO_001_VIEW_PV
  6
C_SOLID_L
100
AcDbLine
 10
22.6365939149065
 20
-20.74910676428046
 30
0.0
 11
59.57982191490647
 21
-20.74910676428046
 31
0.0
  0
TEXT
  5
C1
330
1E
100
AcDbEntity
  8
MO_001_VIEW_PV
  6
C_SOLID_L
100
AcDbText
 10
-13.840622
 20
-67.099867
 30
0.0
 40
4.167187
  1
3E X6付
100
AcDbText
  0
TEXT
  5
C2
330
1E
100
AcDbEntity
  8
MO_001_VIEW_PV
  6
C_SOLID_L
100
AcDbText
 10
23.1785789149065
 20
-19.88415476428045
 30
0.0
 40
3.0
  1
3-M2.6 P0.45
100
AcDbText
  0
TEXT
  5
C3
330
1E
100
AcDbEntity
  8
MO_001_VIEW_PV
  6
C_SOLID_L
100
AcDbText
 10
-40.069888
 20
33.683159
 30
0.0
 40
3.0
  1
※1/2回転角度(%%P3%%D)
100
AcDbText
  0
TEXT
  5
C4
330
1E
100
AcDbEntity
  8
MO_001_VIEW_PV
  6
C_SOLID_L
100
AcDbText
 10
17.82858
 20
34.01495399999999
 30
0.0
 40
3.0
  1
※図は右回転を示し，
100
AcDbText
  0
TEXT
  5
C5
330
1E
100
AcDbEntity
  8
MO_001_VIEW_PV
  6
C_SOLID_L
100
AcDbText
 10
17.82858
 20
29.514954
 30
0.0
 40
3.0
  1
　左回転の場合は反対
100
AcDbText
  0
TEXT
  5
C6
330
1E
100
AcDbEntity
  8
MO_001_VIEW_PV
  6
C_SOLID_L
100
AcDbText
 10
17.82858
 20
25.014954
 30
0.0
 40
3.0
  1
　になります。
100
AcDbText
  0
TEXT
  5
C9
330
1E
100
AcDbEntity
  8
MO_001_VIEW_PV
  6
C_SOLID_L
100
AcDbText
 10
34.159378
 20
-73.099867
 30
0.0
 40
4.167187
  1
単位：mm
100
AcDbText
  0
TEXT
  5
CA
330
1E
100
AcDbEntity
  8
MO_001_VIEW_PV
  6
C_SOLID_L
100
AcDbText
 10
34.159378
 20
-79.35064799999998
 30
0.0
 40
4.167187
  1
図は右回転、無励磁時を示す
100
AcDbText
  0
DIMENSION
  5
CE
330
1E
100
AcDbEntity
  8
MO_001_VIEW_PV
  6
C_SOLID_M
100
AcDbDimension
  2
*D4
 10
-38.62002899999996
 20
-39.49569003343282
 30
0.0
 11
-24.90109766666666
 21
-39.49569003343282
 31
0.0
 70
   160
  1
(0.6)
  3
STANDARD
100
AcDbAlignedDimension
 13
-38.020031
 23
-34.198917
 33
0.0
 14
-38.62002899999996
 24
-30.424309
 34
0.0
100
AcDbRotatedDimension
1001
ACAD
1000
DSTYLE
1002
{
1070
   172
1070
     1
1002
}
  0
LINE
  5
D1
330
1E
100
AcDbEntity
  8
MO_001_VIEW_PV
  6
C_SOLID_L
100
AcDbLine
 10
-7.17025315577065
 20
-10.73103723668341
 30
0.0
 11
-20.71156350358929
 21
-21.36946684331839
 31
0.0
  0
LWPOLYLINE
  5
D2
330
1E
100
AcDbEntity
  8
MO_001_VIEW_PV
  6
C_SOLID_L
100
AcDbPolyline
 90
        3
 70
     1
 43
0.0
 10
-9.419090155770654
 20
-13.23983523668342
 10
-7.569719155770652
 20
-11.04486923668342
 10
-10.14005315577065
 20
-12.32214423668342
  0
LINE
  5
D7
330
1E
100
AcDbEntity
  8
MO_001_VIEW_PV
  6
C_SOLID_L
100
AcDbLine
 10
11.0762339149065
 20
-0.725976764280464
 30
0.0
 11
22.6365939149065
 21
-20.74910676428046
 31
0.0
  0
LWPOLYLINE
  5
D8
330
1E
100
AcDbEntity
  8
MO_001_VIEW_PV
  6
C_SOLID_L
100
AcDbPolyline
 90
        3
 70
     1
 43
0.0
 10
13.2406999149065
 20
-3.307917764280464
 10
11.3302339149065
 20
-1.165917764280464
 10
12.2300289149065
 20
-3.891429764280464
  0
DIMENSION
  5
144
330
1E
100
AcDbEntity
  8
0
  6
CONTINUOUS
100
AcDbDimension
  2
*D6
 10
0.0
 20
0.0
 30
0.0
 11
-35.25816041187056
 21
19.70571791578752
 31
0.0
 70
   164
  3
STANDARD
100
AcDbRadialDimension
 15
-9.689365059540698
 25
5.415367461488813
 35
0.0
 40
0.0
1001
ACAD
1000
DSTYLE
1002
{
1070
   147
1040
1.0
1070
   287
1070
     4
1070
   287
1070
     4
1070
   287
1070
     4
1070
    73
1070
     0
1070
    74
1070
     0
1070
   279
1070
     1
1070
   288
1070
     1
1002
}
  0
DIMENSION
  5
1BB
330
1E
100
AcDbEntity
  8
0
  6
CONTINUOUS
100
AcDbDimension
  2
*D8
 10
-47.76697086558414
 20
-30.42430899999999
 30
0.0
 11
-47.76697086558414
 21
-45.62684233333334
 31
0.0
 70
   160
  1
(%%C4.0)
  3
STANDARD
100
AcDbAlignedDimension
 13
-38.62002899458028
 23
-26.424309
 33
0.0
 14
-38.62002899375987
 24
-30.424309
 34
0.0
 50
90.0
100
AcDbRotatedDimension
1001
ACAD
1000
DSTYLE
1002
{
1070
   287
1070
     3
1070
   172
1070
     1
1070
    73
1070
     0
1070
    74
1070
     0
1070
   279
1070
     0
1002
}
  0
LINE
  5
431
330
1E
100
AcDbEntity
  8
1
  6
C_CENTER_L
100
AcDbLine
 10
-4.500119180086674
 20
-6.734901060025311
 30
0.0
 11
-7.833541869039761
 21
-11.72371852039492
 31
0.0
  0
DIMENSION
  5
439
102
{ACAD_REACTORS
102
}
102
{ACAD_XDICTIONARY
360
43A
102
}
330
1E
100
AcDbEntity
  8
MO_001_VIEW_PV
  6
CONTINUOUS
100
AcDbDimension
  2
*D10
 10
-6.236266999999998
 20
12.645903
 30
0.0
 11
-7.795612540694854
 21
33.43356600717009
 31
0.0
 70
    34
  1
 
  3
STANDARD
100
AcDb2LineAngularDimension
 13
0.0
 23
-20.0
 33
0.0
 14
0.0
 24
20.0
 34
0.0
 15
-3.582535
 25
7.264666
 35
0.0
 16
-4.980576251320359
 26
32.35933047458345
 36
0.0
1001
ACAD
1000
DSTYLE
1002
{
1070
   287
1070
     5
1070
    73
1070
     0
1070
   279
1070
     2
1070
    74
1070
     0
1002
}
  0
ENDSEC
  0
SECTION
  2
OBJECTS
  0
DICTIONARY
  5
1A
330
0
100
AcDbDictionary
  3
ACAD_DETAILVIEWSTYLE
350
421
  3
ACAD_GROUP
350
1B
  3
ACAD_IMAGE_VARS
350
41B
  3
ACAD_MLINESTYLE
350
1C
  3
ACAD_SCALELIST
350
3D4
  3
ACAD_SECTIONVIEWSTYLE
350
422
  3
ACDBVARIABLEDICTIONARY
350
41C
  3
APPDATA
350
419
  3
DWGPROPS
350
44B
1001
ACAD
1000
TREAT_AS_HARD
1070
     0
1000
TREAT_AS_HARD
1070
     0
1000
TREAT_AS_HARD
1070
     0
  0
DICTIONARY
  5
423
330
2
100
AcDbDictionary
280
     1
  3
ACAD_LAYERSTATES
360
424
  3
ACLYDICTIONARY
360
428
  0
DICTIONARY
  5
31B
330
1E
100
AcDbDictionary
  3
ACAD_LAYOUTSELFREF
350
3C1
1001
ACAD
1000
TREAT_AS_HARD
1070
     0
1000
TREAT_AS_HARD
1070
     0
  0
DICTIONARY
  5
31D
330
1F
100
AcDbDictionary
  3
ACAD_LAYOUTSELFREF
350
3C2
1001
ACAD
1000
TREAT_AS_HARD
1070
     0
1000
TREAT_AS_HARD
1070
     0
  0
DICTIONARY
  5
43A
330
439
100
AcDbDictionary
280
     1
  0
DICTIONARY
  5
421
102
{ACAD_REACTORS
330
1A
102
}
330
1A
100
AcDbDictionary
  0
DICTIONARY
  5
1B
102
{ACAD_REACTORS
330
1A
102
}
330
1A
100
AcDbDictionary
1001
ACAD
1000
TREAT_AS_HARD
1070
     0
1000
TREAT_AS_HARD
1070
     0
1000
TREAT_AS_HARD
1070
     0
  0
RASTERVARIABLES
  5
41B
102
{ACAD_REACTORS
330
1A
102
}
330
1A
100
AcDbRasterVariables
 90
        0
 70
     1
 71
     1
 72
     0
  0
DICTIONARY
  5
1C
102
{ACAD_REACTORS
330
1A
102
}
330
1A
100
AcDbDictionary
  3
STANDARD
350
1D
1001
ACAD
1000
TREAT_AS_HARD
1070
     0
1000
TREAT_AS_HARD
1070
     0
1000
TREAT_AS_HARD
1070
     0
  0
DICTIONARY
  5
3D4
102
{ACAD_REACTORS
330
1A
102
}
330
1A
100
AcDbDictionary
  0
DICTIONARY
  5
422
102
{ACAD_REACTORS
330
1A
102
}
330
1A
100
AcDbDictionary
  0
DICTIONARY
  5
41C
102
{ACAD_REACTORS
330
1A
102
}
330
1A
100
AcDbDictionary
  0
DICTIONARY
  5
419
102
{ACAD_REACTORS
330
1A
102
}
330
1A
100
AcDbDictionary
  0
XRECORD
  5
44B
102
{ACAD_REACTORS
330
1A
102
}
330
1A
100
AcDbXrecord
  1
DWGPROPS COOKIE
  2

  3

  4

  6

  7

  8
SMT204
  9

300
=
301
=
302
=
303
=
304
=
305
=
306
=
307
=
308
=
309
=
 40
0.0
 41
2305814.194090185
 42
2457323.379565185
  1

 90
        0
  0
DICTIONARY
  5
424
102
{ACAD_REACTORS
330
423
102
}
330
423
100
AcDbDictionary
  0
DICTIONARY
  5
428
102
{ACAD_REACTORS
330
423
102
}
330
423
100
AcDbDictionary
1001
ACAD
1000
<All
  0
XRECORD
  5
3C1
102
{ACAD_REACTORS
330
31B
102
}
330
31B
100
AcDbXrecord
340
1E
  0
XRECORD
  5
3C2
102
{ACAD_REACTORS
330
31D
102
}
330
31D
100
AcDbXrecord
340
1F
  0
MLINESTYLE
  5
1D
102
{ACAD_REACTORS
330
1C
102
}
330
1C
100
AcDbMlineStyle
  2
STANDARD
 70
     0
  3

 62
     0
 51
90.0
 52
90.0
 71
     2
 49
0.5
 62
   256
  6
BYLAYER
 49
-0.5
 62
   256
  6
BYLAYER
  0
ENDSEC
  0
EOF
