  0
SECTION
  2
HEADER
  9
$ACADVER
  1
AC1014
  9
$ACADMAINTVER
 70
     9
  9
$DWGCODEPAGE
  3
ANSI_932
  9
$INSBASE
 10
0.0
 20
0.0
 30
0.0
  9
$EXTMIN
 10
-57.58021022555869
 20
-65.40911399374235
 30
-0.0015258207003583
  9
$EXTMAX
 10
91.5092857864351
 20
36.66863586741601
 30
0.0000000349246037
  9
$LIMMIN
 10
-57.575661
 20
-68.528908
  9
$LIMMAX
 10
82.20794699999997
 20
38.911346
  9
$ORTHOMODE
 70
     0
  9
$REGENMODE
 70
     1
  9
$FILLMODE
 70
     1
  9
$QTEXTMODE
 70
     0
  9
$MIRRTEXT
 70
     1
  9
$DRAGMODE
 70
     2
  9
$LTSCALE
 40
1.0
  9
$OSMODE
 70
   301
  9
$ATTMODE
 70
     1
  9
$TEXTSIZE
 40
4.1672
  9
$TRACEWID
 40
0.05
  9
$TEXTSTYLE
  7
STANDARD
  9
$CLAYER
  8
0
  9
$CELTYPE
  6
CONTINUOUS
  9
$CECOLOR
 62
   256
  9
$CELTSCALE
 40
1.0
  9
$DELOBJ
 70
     1
  9
$DISPSILH
 70
     0
  9
$DIMSCALE
 40
1.0
  9
$DIMASZ
 40
2.0
  9
$DIMEXO
 40
0.0625
  9
$DIMDLI
 40
0.38
  9
$DIMRND
 40
0.0
  9
$DIMDLE
 40
0.0
  9
$DIMEXE
 40
0.18
  9
$DIMTP
 40
0.1
  9
$DIMTM
 40
0.1
  9
$DIMTXT
 40
0.18
  9
$DIMCEN
 40
0.09
  9
$DIMTSZ
 40
0.0
  9
$DIMTOL
 70
     1
  9
$DIMLIM
 70
     0
  9
$DIMTIH
 70
     0
  9
$DIMTOH
 70
     0
  9
$DIMSE1
 70
     0
  9
$DIMSE2
 70
     0
  9
$DIMTAD
 70
     1
  9
$DIMZIN
 70
     0
  9
$DIMBLK
  1

  9
$DIMASO
 70
     1
  9
$DIMSHO
 70
     1
  9
$DIMPOST
  1

  9
$DIMAPOST
  1

  9
$DIMALT
 70
     0
  9
$DIMALTD
 70
     2
  9
$DIMALTF
 40
25.4
  9
$DIMLFAC
 40
1.0
  9
$DIMTOFL
 70
     0
  9
$DIMTVP
 40
0.0
  9
$DIMTIX
 70
     0
  9
$DIMSOXD
 70
     0
  9
$DIMSAH
 70
     0
  9
$DIMBLK1
  1

  9
$DIMBLK2
  1

  9
$DIMSTYLE
  2
STANDARD
  9
$DIMCLRD
 70
     0
  9
$DIMCLRE
 70
     0
  9
$DIMCLRT
 70
     0
  9
$DIMTFAC
 40
0.5
  9
$DIMGAP
 40
0.09
  9
$DIMJUST
 70
     0
  9
$DIMSD1
 70
     0
  9
$DIMSD2
 70
     0
  9
$DIMTOLJ
 70
     2
  9
$DIMTZIN
 70
     0
  9
$DIMALTZ
 70
     0
  9
$DIMALTTZ
 70
     0
  9
$DIMFIT
 70
     3
  9
$DIMUPT
 70
     0
  9
$DIMUNIT
 70
     2
  9
$DIMDEC
 70
     1
  9
$DIMTDEC
 70
     1
  9
$DIMALTU
 70
     2
  9
$DIMALTTD
 70
     2
  9
$DIMTXSTY
  7
STANDARD
  9
$DIMAUNIT
 70
     0
  9
$LUNITS
 70
     2
  9
$LUPREC
 70
     6
  9
$SKETCHINC
 40
0.1
  9
$FILLETRAD
 40
0.0
  9
$AUNITS
 70
     0
  9
$AUPREC
 70
     4
  9
$MENU
  1
acad
  9
$ELEVATION
 40
0.0
  9
$PELEVATION
 40
0.0
  9
$THICKNESS
 40
0.0
  9
$LIMCHECK
 70
     0
  9
$BLIPMODE
 70
     0
  9
$CHAMFERA
 40
0.0
  9
$CHAMFERB
 40
0.0
  9
$CHAMFERC
 40
0.0
  9
$CHAMFERD
 40
0.0
  9
$SKPOLY
 70
     0
  9
$TDCREATE
 40
2376123.569090092
  9
$TDUPDATE
 40
2453066.414439560
  9
$TDINDWG
 40
0.0060911921
  9
$TDUSRTIMER
 40
0.0060904977
  9
$USRTIMER
 70
     1
  9
$ANGBASE
 50
0.0
  9
$ANGDIR
 70
     0
  9
$PDMODE
 70
     0
  9
$PDSIZE
 40
0.0
  9
$PLINEWID
 40
0.0
  9
$COORDS
 70
     1
  9
$SPLFRAME
 70
     0
  9
$SPLINETYPE
 70
     6
  9
$SPLINESEGS
 70
     8
  9
$ATTDIA
 70
     0
  9
$ATTREQ
 70
     1
  9
$HANDLING
 70
 10241
  9
$HANDSEED
  5
268
  9
$SURFTAB1
 70
     6
  9
$SURFTAB2
 70
     6
  9
$SURFTYPE
 70
     6
  9
$SURFU
 70
     6
  9
$SURFV
 70
     6
  9
$UCSNAME
  2

  9
$UCSORG
 10
0.09
 20
0.0
 30
0.0
  9
$UCSXDIR
 10
1.0
 20
0.0
 30
0.0
  9
$UCSYDIR
 10
0.0
 20
1.0
 30
0.0
  9
$PUCSNAME
  2

  9
$PUCSORG
 10
0.0
 20
0.0
 30
0.0
  9
$PUCSXDIR
 10
1.0
 20
0.0
 30
0.0
  9
$PUCSYDIR
 10
0.0
 20
1.0
 30
0.0
  9
$USERI1
 70
     0
  9
$USERI2
 70
     0
  9
$USERI3
 70
     0
  9
$USERI4
 70
     0
  9
$USERI5
 70
     0
  9
$USERR1
 40
0.0
  9
$USERR2
 40
0.0
  9
$USERR3
 40
0.0
  9
$USERR4
 40
0.0
  9
$USERR5
 40
0.0
  9
$WORLDVIEW
 70
     1
  9
$SHADEDGE
 70
     3
  9
$SHADEDIF
 70
    70
  9
$TILEMODE
 70
     1
  9
$MAXACTVP
 70
    16
  9
$PINSBASE
 10
0.0
 20
0.0
 30
0.0
  9
$PLIMCHECK
 70
     0
  9
$PEXTMIN
 10
-57.575661
 20
-68.528908
 30
1.000000000000000E+20
  9
$PEXTMAX
 10
82.20794699999997
 20
38.911346
 30
-1.000000000000000E+20
  9
$PLIMMIN
 10
0.0
 20
0.0
  9
$PLIMMAX
 10
12.0
 20
9.0
  9
$UNITMODE
 70
     0
  9
$VISRETAIN
 70
     0
  9
$PLINEGEN
 70
     0
  9
$PSLTSCALE
 70
     1
  9
$TREEDEPTH
 70
  3020
  9
$PICKSTYLE
 70
     1
  9
$CMLSTYLE
  2
STANDARD
  9
$CMLJUST
 70
     0
  9
$CMLSCALE
 40
1.0
  9
$PROXYGRAPHICS
 70
     1
  9
$MEASUREMENT
 70
     0
  0
ENDSEC
  0
SECTION
  2
CLASSES
  0
CLASS
  1
ACDBDICTIONARYWDFLT
  2
AcDbDictionaryWithDefault
  3
AutoCAD 2000
 90
        0
280
     0
281
     0
  0
CLASS
  1
ACDBPLACEHOLDER
  2
AcDbPlaceHolder
  3
AutoCAD 2000
 90
        0
280
     0
281
     0
  0
CLASS
  1
LAYOUT
  2
AcDbLayout
  3
AutoCAD 2000
 90
        0
280
     0
281
     0
  0
CLASS
  1
LONG_TRANSACTION
  2
AcDbLongTransaction
  3
AutoCAD 2000
 90
        0
280
     0
281
     0
  0
CLASS
  1
LWPOLYLINE
  2
AcDbPolyline
  3
AutoCAD 2000
 90
        0
280
     0
281
     1
  0
CLASS
  1
HATCH
  2
AcDbHatch
  3
AutoCAD 2000
 90
        0
280
     0
281
     1
  0
CLASS
  1
XRECORD
  2
AcDbXrecord
  3
AutoCAD 2000
 90
        0
280
     0
281
     0
  0
CLASS
  1
LONG_TRANSACTION
  2
AcDbLongTransaction
  3
AutoCAD 2000
 90
        0
280
     0
281
     0
  0
CLASS
  1
LWPOLYLINE
  2
AcDbPolyline
  3
AutoCAD 2000
 90
        0
280
     0
281
     1
  0
CLASS
  1
HATCH
  2
AcDbHatch
  3
AutoCAD 2000
 90
        0
280
     0
281
     1
  0
CLASS
  1
XRECORD
  2
AcDbXrecord
  3
AutoCAD 2000
 90
        0
280
     0
281
     0
  0
CLASS
  1
LONG_TRANSACTION
  2
AcDbLongTransaction
  3
AutoCAD 2000
 90
        0
280
     0
281
     0
  0
CLASS
  1
LWPOLYLINE
  2
AcDbPolyline
  3
AutoCAD 2000
 90
        0
280
     0
281
     1
  0
CLASS
  1
HATCH
  2
AcDbHatch
  3
AutoCAD 2000
 90
        0
280
     0
281
     1
  0
CLASS
  1
XRECORD
  2
AcDbXrecord
  3
AutoCAD 2000
 90
        0
280
     0
281
     0
  0
CLASS
  1
LONG_TRANSACTION
  2
AcDbLongTransaction
  3
AutoCAD 2000
 90
        0
280
     0
281
     0
  0
CLASS
  1
LWPOLYLINE
  2
AcDbPolyline
  3
AutoCAD 2000
 90
        0
280
     0
281
     1
  0
CLASS
  1
HATCH
  2
AcDbHatch
  3
AutoCAD 2000
 90
        0
280
     0
281
     1
  0
CLASS
  1
XRECORD
  2
AcDbXrecord
  3
AutoCAD 2000
 90
        0
280
     0
281
     0
  0
ENDSEC
  0
SECTION
  2
TABLES
  0
TABLE
  2
VPORT
  5
7
330
0
100
AcDbSymbolTable
 70
     2
  0
VPORT
  5
234
330
7
100
AcDbSymbolTableRecord
100
AcDbViewportTableRecord
  2
*ACTIVE
 70
     0
 10
0.0
 20
0.0
 11
1.0
 21
1.0
 12
40.18083073475418
 22
-22.55725338612585
 13
0.0
 23
0.0
 14
6.349999999999997
 24
6.349999999999997
 15
6.349999999999997
 25
6.349999999999997
 16
0.0
 26
0.0
 36
1.0
 17
0.0
 27
0.0
 37
0.0
 40
152.5017455610945
 41
1.630584192439862
 42
50.0
 43
0.0
 44
0.0
 50
0.0
 51
0.0
 71
     0
 72
   100
 73
     1
 74
     1
 75
     0
 76
     0
 77
     0
 78
     0
  0
ENDTAB
  0
TABLE
  2
LTYPE
  5
4
330
0
100
AcDbSymbolTable
 70
    37
  0
LTYPE
  5
12
330
4
100
AcDbSymbolTableRecord
100
AcDbLinetypeTableRecord
  2
BYBLOCK
 70
     0
  3

 72
    65
 73
     0
 40
0.0
  0
LTYPE
  5
13
330
4
100
AcDbSymbolTableRecord
100
AcDbLinetypeTableRecord
  2
BYLAYER
 70
     0
  3

 72
    65
 73
     0
 40
0.0
  0
LTYPE
  5
14
330
4
100
AcDbSymbolTableRecord
100
AcDbLinetypeTableRecord
  2
CONTINUOUS
 70
     0
  3
DXF Default line type
 72
    65
 73
     0
 40
0.0
  0
LTYPE
  5
20
330
4
100
AcDbSymbolTableRecord
100
AcDbLinetypeTableRecord
  2
DASHED
 70
     0
  3
DXF Dashed
 72
    65
 73
     2
 40
0.75
 49
0.5
 74
     0
 49
-0.25
 74
     0
  0
LTYPE
  5
21
330
4
100
AcDbSymbolTableRecord
100
AcDbLinetypeTableRecord
  2
HIDDEN
 70
     0
  3
DXF Hidden
 72
    65
 73
     2
 40
0.375
 49
0.25
 74
     0
 49
-0.125
 74
     0
  0
LTYPE
  5
22
330
4
100
AcDbSymbolTableRecord
100
AcDbLinetypeTableRecord
  2
CENTER
 70
     0
  3
DXF Center
 72
    65
 73
     4
 40
2.0
 49
1.25
 74
     0
 49
-0.25
 74
     0
 49
0.25
 74
     0
 49
-0.25
 74
     0
  0
LTYPE
  5
23
330
4
100
AcDbSymbolTableRecord
100
AcDbLinetypeTableRecord
  2
PHANTOM
 70
     0
  3
DXF Phantom
 72
    65
 73
     6
 40
2.5
 49
1.25
 74
     0
 49
-0.25
 74
     0
 49
0.25
 74
     0
 49
-0.25
 74
     0
 49
0.25
 74
     0
 49
-0.25
 74
     0
  0
LTYPE
  5
24
330
4
100
AcDbSymbolTableRecord
100
AcDbLinetypeTableRecord
  2
DOT
 70
     0
  3
DXF DOT
 72
    65
 73
     2
 40
0.25
 49
0.0
 74
     0
 49
-0.25
 74
     0
  0
LTYPE
  5
25
330
4
100
AcDbSymbolTableRecord
100
AcDbLinetypeTableRecord
  2
DASHDOT
 70
     0
  3
DXF Dash Dot
 72
    65
 73
     4
 40
1.0
 49
0.5
 74
     0
 49
-0.25
 74
     0
 49
0.0
 74
     0
 49
-0.25
 74
     0
  0
LTYPE
  5
26
330
4
100
AcDbSymbolTableRecord
100
AcDbLinetypeTableRecord
  2
BORDER
 70
     0
  3
DXF Border
 72
    65
 73
     6
 40
1.75
 49
0.5
 74
     0
 49
-0.25
 74
     0
 49
0.5
 74
     0
 49
-0.25
 74
     0
 49
0.0
 74
     0
 49
-0.25
 74
     0
  0
LTYPE
  5
27
330
4
100
AcDbSymbolTableRecord
100
AcDbLinetypeTableRecord
  2
DIVIDE
 70
     0
  3
DXF Divide
 72
    65
 73
     6
 40
1.25
 49
0.5
 74
     0
 49
-0.25
 74
     0
 49
0.0
 74
     0
 49
-0.25
 74
     0
 49
0.0
 74
     0
 49
-0.25
 74
     0
  0
LTYPE
  5
28
330
4
100
AcDbSymbolTableRecord
100
AcDbLinetypeTableRecord
  2
C_SOLID_L
 70
     0
  3
CADAM Solid Light
 72
    65
 73
     0
 40
0.0
  0
LTYPE
  5
29
330
4
100
AcDbSymbolTableRecord
100
AcDbLinetypeTableRecord
  2
C_SOLID_M
 70
     0
  3
CADAM Solid Medium
 72
    65
 73
     0
 40
0.0
  0
LTYPE
  5
2A
330
4
100
AcDbSymbolTableRecord
100
AcDbLinetypeTableRecord
  2
C_SOLID_H
 70
     0
  3
CADAM Solid Heavy
 72
    65
 73
     0
 40
0.0
  0
LTYPE
  5
2B
330
4
100
AcDbSymbolTableRecord
100
AcDbLinetypeTableRecord
  2
C_DASHED_L
 70
     0
  3
CADAM Dashed Light
 72
    65
 73
     2
 40
0.375
 49
0.25
 74
     0
 49
-0.125
 74
     0
  0
LTYPE
  5
2C
330
4
100
AcDbSymbolTableRecord
100
AcDbLinetypeTableRecord
  2
C_DASHED_M
 70
     0
  3
CADAM Dashed Medium
 72
    65
 73
     2
 40
0.5
 49
0.375
 74
     0
 49
-0.125
 74
     0
  0
LTYPE
  5
2D
330
4
100
AcDbSymbolTableRecord
100
AcDbLinetypeTableRecord
  2
C_CENTER_L
 70
     0
  3
CADAM Center Light
 72
    65
 73
     4
 40
2.0
 49
1.25
 74
     0
 49
-0.25
 74
     0
 49
0.25
 74
     0
 49
-0.25
 74
     0
  0
LTYPE
  5
2E
330
4
100
AcDbSymbolTableRecord
100
AcDbLinetypeTableRecord
  2
C_PHANTOM_L
 70
     0
  3
CADAM Phantom Light
 72
    65
 73
     6
 40
2.5
 49
1.25
 74
     0
 49
-0.25
 74
     0
 49
0.25
 74
     0
 49
-0.25
 74
     0
 49
0.25
 74
     0
 49
-0.25
 74
     0
  0
LTYPE
  5
2F
330
4
100
AcDbSymbolTableRecord
100
AcDbLinetypeTableRecord
  2
C_BREAK_M
 70
     0
  3
CADAM Break Medium
 72
    65
 73
     4
 40
1.0
 49
0.5
 74
     0
 49
-0.25
 74
     0
 49
0.0
 74
     0
 49
-0.25
 74
     0
  0
LTYPE
  5
30
330
4
100
AcDbSymbolTableRecord
100
AcDbLinetypeTableRecord
  2
C_NC
 70
     0
  3
CADAM NC
 72
    65
 73
     0
 40
0.0
  0
LTYPE
  5
31
330
4
100
AcDbSymbolTableRecord
100
AcDbLinetypeTableRecord
  2
DSH1
 70
     0
  3
CADAM Style2 Type 1 Dashed Line
 72
    65
 73
     2
 40
0.075
 49
0.04
 74
     0
 49
-0.035
 74
     0
  0
LTYPE
  5
32
330
4
100
AcDbSymbolTableRecord
100
AcDbLinetypeTableRecord
  2
DSH2
 70
     0
  3
CADAM Style2 Type 2 Dashed Line
 72
    65
 73
     2
 40
0.15
 49
0.11
 74
     0
 49
-0.04
 74
     0
  0
LTYPE
  5
33
330
4
100
AcDbSymbolTableRecord
100
AcDbLinetypeTableRecord
  2
DSH3
 70
     0
  3
CADAM Style2 Type 3 Dashed Line
 72
    65
 73
     2
 40
0.2
 49
0.15
 74
     0
 49
-0.05
 74
     0
  0
LTYPE
  5
34
330
4
100
AcDbSymbolTableRecord
100
AcDbLinetypeTableRecord
  2
DSH4
 70
     0
  3
CADAM Style2 Type 4 Dashed Line
 72
    65
 73
     2
 40
0.36
 49
0.28
 74
     0
 49
-0.08
 74
     0
  0
LTYPE
  5
35
330
4
100
AcDbSymbolTableRecord
100
AcDbLinetypeTableRecord
  2
DSH5
 70
     0
  3
CADAM Style2 Type 5 Dashed Line
 72
    65
 73
     2
 40
0.47
 49
0.39
 74
     0
 49
-0.08
 74
     0
  0
LTYPE
  5
36
330
4
100
AcDbSymbolTableRecord
100
AcDbLinetypeTableRecord
  2
DSH6
 70
     0
  3
CADAM Style2 Type 6 Dashed Line
 72
    65
 73
     2
 40
0.9
 49
0.8100000000000001
 74
     0
 49
-0.09
 74
     0
  0
LTYPE
  5
37
330
4
100
AcDbSymbolTableRecord
100
AcDbLinetypeTableRecord
  2
PL1
 70
     0
  3
Style 2 Type 1 Phantom Line
 72
    65
 73
     6
 40
1.0
 49
0.6
 74
     0
 49
-0.08
 74
     0
 49
0.08
 74
     0
 49
-0.08
 74
     0
 49
0.08
 74
     0
 49
-0.08
 74
     0
  0
LTYPE
  5
38
330
4
100
AcDbSymbolTableRecord
100
AcDbLinetypeTableRecord
  2
PL2
 70
     0
  3
Style 2 Type 2 Phantom Line
 72
    65
 73
     6
 40
1.08
 49
0.6
 74
     0
 49
-0.08
 74
     0
 49
0.12
 74
     0
 49
-0.08
 74
     0
 49
0.12
 74
     0
 49
-0.08
 74
     0
  0
LTYPE
  5
39
330
4
100
AcDbSymbolTableRecord
100
AcDbLinetypeTableRecord
  2
PL3
 70
     0
  3
Style 2 Type 3 Phantom Line
 72
    65
 73
     6
 40
2.0
 49
1.439999999999999
 74
     0
 49
-0.08
 74
     0
 49
0.16
 74
     0
 49
-0.08
 74
     0
 49
0.16
 74
     0
 49
-0.08
 74
     0
  0
LTYPE
  5
3A
330
4
100
AcDbSymbolTableRecord
100
AcDbLinetypeTableRecord
  2
CL1
 70
     0
  3
CADAM Style 2 Type 1 Center Line
 72
    65
 73
     4
 40
0.7
 49
0.45
 74
     0
 49
-0.06
 74
     0
 49
0.13
 74
     0
 49
-0.06
 74
     0
  0
LTYPE
  5
3B
330
4
100
AcDbSymbolTableRecord
100
AcDbLinetypeTableRecord
  2
CL2
 70
     0
  3
CADAM Style 2 Type 2 Center Line
 72
    65
 73
     4
 40
1.199999999999999
 49
1.01
 74
     0
 49
-0.06
 74
     0
 49
0.11
 74
     0
 49
-0.06
 74
     0
  0
LTYPE
  5
3C
330
4
100
AcDbSymbolTableRecord
100
AcDbLinetypeTableRecord
  2
CL3
 70
     0
  3
CADAM Style 2 Type 3 Center Line
 72
    65
 73
     4
 40
1.199999999999999
 49
0.98
 74
     0
 49
-0.06
 74
     0
 49
0.1
 74
     0
 49
-0.06
 74
     0
  0
LTYPE
  5
3D
330
4
100
AcDbSymbolTableRecord
100
AcDbLinetypeTableRecord
  2
CL4
 70
     0
  3
CADAM Style 2 Type 4 Center Line
 72
    65
 73
     4
 40
2.2
 49
1.929999999999999
 74
     0
 49
-0.07
 74
     0
 49
0.13
 74
     0
 49
-0.07
 74
     0
  0
LTYPE
  5
3E
330
4
100
AcDbSymbolTableRecord
100
AcDbLinetypeTableRecord
  2
CL5
 70
     0
  3
CADAM Style 2 Type 5 Center Line
 72
    65
 73
     4
 40
2.2
 49
1.879999999999999
 74
     0
 49
-0.07
 74
     0
 49
0.18
 74
     0
 49
-0.07
 74
     0
  0
LTYPE
  5
3F
330
4
100
AcDbSymbolTableRecord
100
AcDbLinetypeTableRecord
  2
SBK1
 70
     0
  3
CADAM Style 2 Type 1 SetBack Line
 72
    65
 73
     8
 40
2.7
 49
0.1
 74
     0
 49
-0.08
 74
     0
 49
0.1
 74
     0
 49
-0.8
 74
     0
 49
0.0
 74
     0
 49
0.0
 74
     0
 49
0.0
 74
     0
 49
0.0
 74
     0
  0
LTYPE
  5
40
330
4
100
AcDbSymbolTableRecord
100
AcDbLinetypeTableRecord
  2
SBK2
 70
     0
  3
CADAM Style 2 Type 2 SetBack Line
 72
    65
 73
     8
 40
3.709999999999998
 49
0.13
 74
     0
 49
-0.08
 74
     0
 49
0.13
 74
     0
 49
-0.8
 74
     0
 49
0.0
 74
     0
 49
0.0
 74
     0
 49
0.0
 74
     0
 49
0.0
 74
     0
  0
LTYPE
  5
41
330
4
100
AcDbSymbolTableRecord
100
AcDbLinetypeTableRecord
  2
STCH
 70
     0
  3
CADAM Style2 Stitch Line
 72
    65
 73
     2
 40
0.25
 49
0.0
 74
     0
 49
-0.25
 74
     0
  0
LTYPE
  5
42
330
4
100
AcDbSymbolTableRecord
100
AcDbLinetypeTableRecord
  2
MTCH
 70
     0
  3
CADAM Style2 Match Line
 72
    65
 73
     6
 40
2.0
 49
1.439999999999999
 74
     0
 49
-0.8
 74
     0
 49
0.16
 74
     0
 49
-0.08
 74
     0
 49
0.16
 74
     0
 49
-0.08
 74
     0
  0
LTYPE
  5
43
330
4
100
AcDbSymbolTableRecord
100
AcDbLinetypeTableRecord
  2
SLD
 70
     0
  3
CADAM Solid_EXT2
 72
    65
 73
     0
 40
0.0
  0
ENDTAB
  0
TABLE
  2
LAYER
  5
2
330
0
100
AcDbSymbolTable
 70
     8
  0
LAYER
  5
15
330
2
100
AcDbSymbolTableRecord
100
AcDbLayerTableRecord
  2
0
 70
     0
 62
     7
  6
CONTINUOUS
  0
LAYER
  5
44
330
2
100
AcDbSymbolTableRecord
100
AcDbLayerTableRecord
  2
MO_001_NOSHOW
 70
     1
 62
     7
  6
CONTINUOUS
  0
LAYER
  5
45
330
2
100
AcDbSymbolTableRecord
100
AcDbLayerTableRecord
  2
MO_001_VIEW_PV
 70
     0
 62
     7
  6
CONTINUOUS
  0
LAYER
  5
46
330
2
100
AcDbSymbolTableRecord
100
AcDbLayerTableRecord
  2
OVERLAY_MAP
 70
     1
 62
     7
  6
CONTINUOUS
  0
LAYER
  5
47
330
2
100
AcDbSymbolTableRecord
100
AcDbLayerTableRecord
  2
DITTOS
 70
     0
 62
     7
  6
CONTINUOUS
  0
LAYER
  5
48
330
2
100
AcDbSymbolTableRecord
100
AcDbLayerTableRecord
  2
SYMBOLS
 70
     0
 62
     7
  6
CONTINUOUS
  0
LAYER
  5
49
330
2
100
AcDbSymbolTableRecord
100
AcDbLayerTableRecord
  2
SETS
 70
     0
 62
     7
  6
CONTINUOUS
  0
LAYER
  5
120
330
2
100
AcDbSymbolTableRecord
100
AcDbLayerTableRecord
  2
DEFPOINTS
 70
     0
 62
     7
  6
CONTINUOUS
  0
ENDTAB
  0
TABLE
  2
STYLE
  5
3
330
0
100
AcDbSymbolTable
 70
     1
  0
STYLE
  5
18
330
3
100
AcDbSymbolTableRecord
100
AcDbTextStyleTableRecord
  2
STANDARD
 70
     0
 40
3.0
 41
1.0
 50
0.0
 71
     0
 42
4.1672
  3
monotxt.shx
  4
BIGFONT.shx
  0
ENDTAB
  0
TABLE
  2
VIEW
  5
5
330
0
100
AcDbSymbolTable
 70
     0
  0
ENDTAB
  0
TABLE
  2
UCS
  5
6
330
0
100
AcDbSymbolTable
 70
     1
  0
UCS
  5
4A
330
6
100
AcDbSymbolTableRecord
100
AcDbUCSTableRecord
  2
MO_001_VIEW_PV_P
 70
     0
 10
0.0
 20
0.0
 30
0.0
 11
1.0
 21
0.0
 31
0.0
 12
-0.0000000002051034
 22
1.0
 32
0.0
  0
ENDTAB
  0
TABLE
  2
APPID
  5
8
330
0
100
AcDbSymbolTable
 70
     1
  0
APPID
  5
17
330
8
100
AcDbSymbolTableRecord
100
AcDbRegAppTableRecord
  2
ACAD
 70
     0
  0
ENDTAB
  0
TABLE
  2
DIMSTYLE
  5
9
330
0
100
AcDbSymbolTable
 70
     1
  0
DIMSTYLE
105
19
102
{ACAD_REACTORS
330
DB
330
EB
330
145
330
150
102
}
330
9
100
AcDbSymbolTableRecord
100
AcDbDimStyleTableRecord
  2
STANDARD
 70
     0
  3

  4

  5

  6

  7

 40
1.0
 41
2.0
 42
0.0625
 43
0.38
 44
0.18
 45
0.0
 46
0.0
 47
0.1
 48
0.1
140
0.18
141
0.09
142
0.0
143
25.4
144
1.0
145
0.0
146
0.5
147
0.09
 71
     1
 72
     0
 73
     0
 74
     0
 75
     0
 76
     0
 77
     1
 78
     0
170
     0
171
     2
172
     0
173
     0
174
     0
175
     0
176
     0
177
     0
178
     0
270
     2
271
     1
272
     1
273
     2
274
     2
340
18
275
     0
280
     0
281
     0
282
     0
283
     2
284
     0
285
     0
286
     0
287
     3
288
     0
  0
ENDTAB
  0
TABLE
  2
BLOCK_RECORD
  5
C
330
0
100
AcDbSymbolTable
 70
     8
  0
BLOCK_RECORD
  5
1E
102
{ACAD_XDICTIONARY
360
18A
102
}
330
C
100
AcDbSymbolTableRecord
100
AcDbBlockTableRecord
  2
*MODEL_SPACE
  0
BLOCK_RECORD
  5
1F
102
{ACAD_XDICTIONARY
360
18C
102
}
330
C
100
AcDbSymbolTableRecord
100
AcDbBlockTableRecord
  2
*PAPER_SPACE
  0
BLOCK_RECORD
  5
DA
330
C
100
AcDbSymbolTableRecord
100
AcDbBlockTableRecord
  2
*D0
  0
BLOCK_RECORD
  5
E2
330
C
100
AcDbSymbolTableRecord
100
AcDbBlockTableRecord
  2
*D1
  0
BLOCK_RECORD
  5
EA
330
C
100
AcDbSymbolTableRecord
100
AcDbBlockTableRecord
  2
*D2
  0
BLOCK_RECORD
  5
121
330
C
100
AcDbSymbolTableRecord
100
AcDbBlockTableRecord
  2
*D3
  0
BLOCK_RECORD
  5
12E
330
C
100
AcDbSymbolTableRecord
100
AcDbBlockTableRecord
  2
*D4
  0
BLOCK_RECORD
  5
138
330
C
100
AcDbSymbolTableRecord
100
AcDbBlockTableRecord
  2
*D5
  0
BLOCK_RECORD
  5
146
330
C
100
AcDbSymbolTableRecord
100
AcDbBlockTableRecord
  2
*D6
  0
BLOCK_RECORD
  5
151
330
C
100
AcDbSymbolTableRecord
100
AcDbBlockTableRecord
  2
*D7
  0
ENDTAB
  0
ENDSEC
  0
SECTION
  2
BLOCKS
  0
BLOCK
  5
E
330
1E
100
AcDbEntity
  8
0
100
AcDbBlockBegin
  2
*MODEL_SPACE
 70
     0
 10
0.0
 20
0.0
 30
0.0
  3
*MODEL_SPACE
  1

  0
ENDBLK
  5
F
330
1E
100
AcDbEntity
  8
0
100
AcDbBlockEnd
  0
BLOCK
  5
10
330
1F
100
AcDbEntity
 67
     1
  8
0
100
AcDbBlockBegin
  2
*PAPER_SPACE
 70
     0
 10
0.0
 20
0.0
 30
0.0
  3
*PAPER_SPACE
  1

  0
ENDBLK
  5
11
330
1F
100
AcDbEntity
 67
     1
  8
0
100
AcDbBlockEnd
  0
BLOCK
  5
F8
330
DA
100
AcDbEntity
  8
0
100
AcDbBlockBegin
  2
*D0
 70
     1
 10
0.0
 20
0.0
 30
0.0
  3
*D0
  1

  0
TEXT
  5
F9
330
DA
100
AcDbEntity
  8
MO_001_VIEW_PV
  6
BYBLOCK
100
AcDbText
 10
-46.447293
 20
-47.573481
 30
0.0
 40
3.0
  1
(%%C4.2)
 50
90.0
100
AcDbText
  0
LINE
  5
FA
330
DA
100
AcDbEntity
  8
MO_001_VIEW_PV
  6
BYBLOCK
100
AcDbLine
 10
-45.697292
 20
-25.951553
 30
0.0
 11
-45.697292
 21
-21.751553
 31
0.0
  0
LINE
  5
FB
330
DA
100
AcDbEntity
  8
MO_001_VIEW_PV
  6
BYBLOCK
100
AcDbLine
 10
-45.697292
 20
-25.951553
 30
0.0
 11
-45.697292
 21
-32.301553
 31
0.0
  0
LINE
  5
FC
330
DA
100
AcDbEntity
  8
MO_001_VIEW_PV
  6
BYBLOCK
100
AcDbLine
 10
-45.697292
 20
-21.751553
 30
0.0
 11
-45.697292
 21
-15.401553
 31
0.0
  0
SOLID
  5
FD
330
DA
100
AcDbEntity
  8
MO_001_VIEW_PV
  6
BYBLOCK
100
AcDbTrace
 10
-45.113781
 20
-29.26981299999999
 30
0.0
 11
-45.697292
 21
-26.459553
 31
0.0
 12
-46.28080399999999
 22
-29.26981299999999
 32
0.0
 13
-46.28080399999999
 23
-29.26981299999999
 33
0.0
  0
SOLID
  5
FE
330
DA
100
AcDbEntity
  8
MO_001_VIEW_PV
  6
BYBLOCK
100
AcDbTrace
 10
-46.28080399999999
 20
-18.433292
 30
0.0
 11
-45.697292
 21
-21.24355299999999
 31
0.0
 12
-45.113781
 22
-18.433292
 32
0.0
 13
-45.113781
 23
-18.433292
 33
0.0
  0
LINE
  5
FF
330
DA
100
AcDbEntity
  8
MO_001_VIEW_PV
  6
BYBLOCK
100
AcDbLine
 10
-34.90911899999999
 20
-25.951553
 30
0.0
 11
-47.983292
 21
-25.951553
 31
0.0
  0
LINE
  5
100
330
DA
100
AcDbEntity
  8
MO_001_VIEW_PV
  6
BYBLOCK
100
AcDbLine
 10
-34.90911899999999
 20
-21.751553
 30
0.0
 11
-47.983292
 21
-21.751553
 31
0.0
  0
LINE
  5
101
330
DA
100
AcDbEntity
  8
MO_001_VIEW_PV
  6
BYBLOCK
100
AcDbLine
 10
-45.697292
 20
-48.53776599999999
 30
0.0
 11
-45.697292
 21
-25.951553
 31
0.0
  0
ENDBLK
  5
102
330
DA
100
AcDbEntity
  8
0
100
AcDbBlockEnd
  0
BLOCK
  5
103
330
E2
100
AcDbEntity
  8
0
100
AcDbBlockBegin
  2
*D1
 70
     1
 10
0.0
 20
0.0
 30
0.0
  3
*D1
  1

  0
LINE
  5
104
330
E2
100
AcDbEntity
  8
MO_001_VIEW_PV
  6
BYBLOCK
100
AcDbLine
 10
0.0
 20
0.0
 30
0.0
 11
-7.730811
 21
5.521285999999999
 31
0.0
  0
LINE
  5
105
330
E2
100
AcDbEntity
  8
MO_001_VIEW_PV
  6
BYBLOCK
100
AcDbLine
 10
-7.730811
 20
5.521285999999999
 30
0.0
 11
-12.898246
 21
9.211828999999999
 31
0.0
  0
SOLID
  5
106
330
E2
100
AcDbEntity
  8
MO_001_VIEW_PV
  6
BYBLOCK
100
AcDbTrace
 10
-10.770239
 20
6.974974999999997
 30
0.0
 11
-8.144206
 21
5.81653
 31
0.0
 12
-10.09197899999999
 22
7.924663
 32
0.0
 13
-10.09197899999999
 23
7.924663
 33
0.0
  0
LINE
  5
107
330
E2
100
AcDbEntity
  8
MO_001_VIEW_PV
  6
BYBLOCK
100
AcDbLine
 10
-7.730811
 20
5.521285999999999
 30
0.0
 11
-19.174545
 21
13.694314
 31
0.0
  0
ENDBLK
  5
108
330
E2
100
AcDbEntity
  8
0
100
AcDbBlockEnd
  0
BLOCK
  5
109
330
EA
100
AcDbEntity
  8
0
100
AcDbBlockBegin
  2
*D2
 70
     1
 10
0.0
 20
0.0
 30
0.0
  3
*D2
  1

  0
LINE
  5
10A
330
EA
100
AcDbEntity
  8
MO_001_VIEW_PV
  6
BYBLOCK
100
AcDbLine
 10
-34.90911899999999
 20
-36.757401
 30
0.0
 11
-34.309113
 21
-36.757401
 31
0.0
  0
LINE
  5
10B
330
EA
100
AcDbEntity
  8
MO_001_VIEW_PV
  6
BYBLOCK
100
AcDbLine
 10
-34.90911899999999
 20
-36.757401
 30
0.0
 11
-41.259119
 21
-36.757401
 31
0.0
  0
LINE
  5
10C
330
EA
100
AcDbEntity
  8
MO_001_VIEW_PV
  6
BYBLOCK
100
AcDbLine
 10
-34.309113
 20
-36.757401
 30
0.0
 11
-27.959113
 21
-36.757401
 31
0.0
  0
SOLID
  5
10D
330
EA
100
AcDbEntity
  8
MO_001_VIEW_PV
  6
BYBLOCK
100
AcDbTrace
 10
-38.22737899999999
 20
-37.340912
 30
0.0
 11
-35.417119
 21
-36.757401
 31
0.0
 12
-38.22737899999999
 22
-36.173889
 32
0.0
 13
-38.22737899999999
 23
-36.173889
 33
0.0
  0
SOLID
  5
10E
330
EA
100
AcDbEntity
  8
MO_001_VIEW_PV
  6
BYBLOCK
100
AcDbTrace
 10
-30.990852
 20
-36.173889
 30
0.0
 11
-33.801113
 21
-36.757401
 31
0.0
 12
-30.990852
 22
-37.340912
 32
0.0
 13
-30.990852
 23
-37.340912
 33
0.0
  0
LINE
  5
10F
330
EA
100
AcDbEntity
  8
MO_001_VIEW_PV
  6
BYBLOCK
100
AcDbLine
 10
-34.90911899999999
 20
-25.951553
 30
0.0
 11
-34.90911899999999
 21
-39.04339999999999
 31
0.0
  0
LINE
  5
110
330
EA
100
AcDbEntity
  8
MO_001_VIEW_PV
  6
BYBLOCK
100
AcDbLine
 10
-34.309113
 20
-27.05154999999999
 30
0.0
 11
-34.309113
 21
-39.04339999999999
 31
0.0
  0
TEXT
  5
111
330
EA
100
AcDbEntity
  8
MO_001_VIEW_PV
  6
BYBLOCK
100
AcDbText
 10
-29.09677
 20
-36.0074
 30
0.0
 40
3.0
  1
(0.6)
100
AcDbText
  0
LINE
  5
112
330
EA
100
AcDbEntity
  8
MO_001_VIEW_PV
  6
BYBLOCK
100
AcDbLine
 10
-34.309113
 20
-36.757401
 30
0.0
 11
-13.989627
 21
-36.757401
 31
0.0
  0
ENDBLK
  5
113
330
EA
100
AcDbEntity
  8
0
100
AcDbBlockEnd
  0
BLOCK
  5
12C
330
121
100
AcDbEntity
  8
0
100
AcDbBlockBegin
  2
*D3
 70
     1
 10
0.0
 20
0.0
 30
0.0
  3
*D3
  1

  0
LINE
  5
17F
330
121
100
AcDbEntity
  8
MO_001_VIEW_PV
  6
C_SOLID_M
 62
     0
100
AcDbLine
 10
-34.97161899999783
 20
-21.7515524796737
 30
0.0
 11
-42.48126623525549
 21
-21.75148996020435
 31
0.0
  0
LINE
  5
180
330
121
100
AcDbEntity
  8
MO_001_VIEW_PV
  6
C_SOLID_M
 62
     0
100
AcDbLine
 10
-34.97161899999783
 20
-25.95155247967371
 30
0.0
 11
-42.48130120118172
 21
-25.95148995991324
 31
0.0
  0
LINE
  5
181
330
121
100
AcDbEntity
  8
MO_001_VIEW_PV
  6
C_SOLID_M
 62
     0
100
AcDbLine
 10
-42.30128288570279
 20
-23.75149145867473
 30
0.0
 11
-42.3012845507469
 21
-23.95149145852226
 31
0.0
  0
LINE
  5
182
330
121
100
AcDbEntity
  8
MO_001_VIEW_PV
  6
C_SOLID_M
 62
     0
100
AcDbLine
 10
-42.30130120118796
 20
-25.95149145845295
 30
0.0
 11
-42.30150437875006
 21
-50.35655812427386
 31
0.0
  0
SOLID
  5
183
330
121
100
AcDbEntity
  8
MO_001_VIEW_PV
  6
C_SOLID_M
 62
     0
100
AcDbTrace
 10
-42.63461621902457
 20
-23.75148868360123
 30
0.0
 11
-41.96794955238099
 21
-23.75149423374824
 31
0.0
 12
-42.30126623526173
 22
-21.75149145874403
 32
0.0
 13
-42.30126623526173
 23
-21.75149145874403
 33
0.0
  0
SOLID
  5
184
330
121
100
AcDbEntity
  8
MO_001_VIEW_PV
  6
C_SOLID_M
 62
     0
100
AcDbTrace
 10
-42.63461788406869
 20
-23.95148868344874
 30
0.0
 11
-41.96795121742511
 21
-23.95149423359577
 31
0.0
 12
-42.30130120118796
 22
-25.95149145845295
 32
0.0
 13
-42.30130120118796
 23
-25.95149145845295
 33
0.0
  0
MTEXT
  5
185
330
121
100
AcDbEntity
  8
MO_001_VIEW_PV
  6
C_SOLID_M
 62
     0
100
AcDbMText
 10
-44.47501111511423
 20
-39.1540066956294
 30
0.0
 40
4.1672
 41
0.0
 71
     5
 72
     5
  1
\A2;(%%C4.2)
 11
0.000008325220532
 21
0.9999999999653454
 31
0.0
1001
ACAD
1000
MTEXTBEGIN
1070
    73
1070
     1
1070
    44
1040
1.0
1070
    74
1070
     0
1000
MTEXTEND
1000
MTEXTBEGIN
1070
    73
1070
     1
1070
    44
1040
1.0
1070
    74
1070
     0
1000
MTEXTEND
1000
MTEXTBEGIN
1070
    73
1070
     1
1070
    44
1040
1.0
1070
    74
1070
     0
1000
MTEXTEND
1000
MTEXTBEGIN
1070
    73
1070
     1
1070
    44
1040
1.0
1070
    74
1070
     0
1000
MTEXTEND
  0
POINT
  5
186
330
121
100
AcDbEntity
  8
DEFPOINTS
  6
C_SOLID_M
 62
     0
100
AcDbPoint
 10
-34.90911899999999
 20
-21.75155299999999
 30
0.0
  0
POINT
  5
187
330
121
100
AcDbEntity
  8
DEFPOINTS
  6
C_SOLID_M
 62
     0
100
AcDbPoint
 10
-34.90911899999999
 20
-25.95155299999999
 30
0.0
  0
POINT
  5
188
330
121
100
AcDbEntity
  8
DEFPOINTS
  6
C_SOLID_M
 62
     0
100
AcDbPoint
 10
-42.30130120118796
 20
-25.95149145845295
 30
0.0
  0
ENDBLK
  5
12D
330
121
100
AcDbEntity
  8
0
100
AcDbBlockEnd
  0
BLOCK
  5
136
330
12E
100
AcDbEntity
  8
0
100
AcDbBlockBegin
  2
*D4
 70
     1
 10
0.0
 20
0.0
 30
0.0
  3
*D4
  1

  0
LINE
  5
12F
330
12E
100
AcDbEntity
  8
MO_001_VIEW_PV
  6
C_SOLID_M
 62
     0
100
AcDbLine
 10
-35.80352944726527
 20
-2.698374969280812
 30
0.0
 11
-11.46748002341458
 21
-0.864260075294702
 31
0.0
  0
MTEXT
  5
130
330
12E
100
AcDbEntity
  8
MO_001_VIEW_PV
  6
C_SOLID_M
 62
     0
100
AcDbMText
 10
-24.79602938967751
 20
0.3109825247118707
 30
0.0
 40
4.1672
 41
0.0
 71
     5
 72
     5
  1
\A2;(%%C4.2)
 11
0.9971720117072962
 21
0.075153037647351
 31
0.0
1001
ACAD
1000
MTEXTBEGIN
1070
    73
1070
     1
1070
    44
1040
1.0
1070
    74
1070
     0
1000
MTEXTEND
1000
MTEXTBEGIN
1070
    73
1070
     1
1070
    44
1040
1.0
1070
    74
1070
     0
1000
MTEXTEND
1000
MTEXTBEGIN
1070
    73
1070
     1
1070
    44
1040
1.0
1070
    74
1070
     0
1000
MTEXTEND
1000
MTEXTBEGIN
1070
    73
1070
     1
1070
    44
1040
1.0
1070
    74
1070
     0
1000
MTEXTEND
  0
SOLID
  5
131
330
12E
100
AcDbEntity
  8
MO_001_VIEW_PV
  6
C_SOLID_M
 62
     0
100
AcDbTrace
 10
-11.4925310359637
 20
-0.5318694047256033
 30
0.0
 11
-11.44242901086547
 21
-1.1966507458638
 31
0.0
 12
-9.473135999999998
 22
-0.7139539999999999
 32
0.0
 13
-9.473135999999998
 23
-0.7139539999999999
 33
0.0
  0
LINE
  5
132
330
12E
100
AcDbEntity
  8
MO_001_VIEW_PV
  6
C_SOLID_M
 62
     0
100
AcDbLine
 10
-0.09
 20
0.0
 30
0.0
 11
0.09
 21
0.0
 31
0.0
  0
LINE
  5
133
330
12E
100
AcDbEntity
  8
MO_001_VIEW_PV
  6
C_SOLID_M
 62
     0
100
AcDbLine
 10
0.0
 20
-0.09
 30
0.0
 11
0.0
 21
0.09
 31
0.0
  0
POINT
  5
134
330
12E
100
AcDbEntity
  8
DEFPOINTS
  6
C_SOLID_M
 62
     0
100
AcDbPoint
 10
-9.473135999999998
 20
-0.7139539999999999
 30
0.0
  0
POINT
  5
135
330
12E
100
AcDbEntity
  8
DEFPOINTS
  6
C_SOLID_M
 62
     0
100
AcDbPoint
 10
0.0
 20
0.0
 30
0.0
  0
ENDBLK
  5
137
330
12E
100
AcDbEntity
  8
0
100
AcDbBlockEnd
  0
BLOCK
  5
143
330
138
100
AcDbEntity
  8
0
100
AcDbBlockBegin
  2
*D5
 70
     1
 10
0.0
 20
0.0
 30
0.0
  3
*D5
  1

  0
LINE
  5
175
330
138
100
AcDbEntity
  8
MO_001_VIEW_PV
  6
C_SOLID_M
 62
     0
100
AcDbLine
 10
-34.309113
 20
-27.11405
 30
0.0
 11
-34.309113
 21
-33.8524991331004
 31
0.0
  0
LINE
  5
176
330
138
100
AcDbEntity
  8
MO_001_VIEW_PV
  6
C_SOLID_M
 62
     0
100
AcDbLine
 10
-34.90911899999999
 20
-26.014053
 30
0.0
 11
-34.90911899999999
 21
-33.8524991331004
 31
0.0
  0
LINE
  5
177
330
138
100
AcDbEntity
  8
MO_001_VIEW_PV
  6
C_SOLID_M
 62
     0
100
AcDbLine
 10
-36.90911899999999
 20
-33.67249913310041
 30
0.0
 11
-38.90911899999997
 21
-33.67249913310041
 31
0.0
  0
LINE
  5
178
330
138
100
AcDbEntity
  8
MO_001_VIEW_PV
  6
C_SOLID_M
 62
     0
100
AcDbLine
 10
-32.309113
 20
-33.67249913310041
 30
0.0
 11
-12.07124633333332
 21
-33.67249913310041
 31
0.0
  0
SOLID
  5
179
330
138
100
AcDbEntity
  8
MO_001_VIEW_PV
  6
C_SOLID_M
 62
     0
100
AcDbTrace
 10
-36.90911899999999
 20
-33.33916579976708
 30
0.0
 11
-36.90911899999999
 21
-34.00583246643375
 31
0.0
 12
-34.90911899999999
 22
-33.67249913310041
 32
0.0
 13
-34.90911899999999
 23
-33.67249913310041
 33
0.0
  0
SOLID
  5
17A
330
138
100
AcDbEntity
  8
MO_001_VIEW_PV
  6
C_SOLID_M
 62
     0
100
AcDbTrace
 10
-32.309113
 20
-33.33916579976708
 30
0.0
 11
-32.309113
 21
-34.00583246643375
 31
0.0
 12
-34.309113
 22
-33.67249913310041
 32
0.0
 13
-34.309113
 23
-33.67249913310041
 33
0.0
  0
MTEXT
  5
17B
330
138
100
AcDbEntity
  8
MO_001_VIEW_PV
  6
C_SOLID_M
 62
     0
100
AcDbMText
 10
-21.19017966666667
 20
-31.4988991331004
 30
0.0
 40
4.1672
 41
0.0
 71
     5
 72
     5
  1
\A2;(0.6)
1001
ACAD
1000
MTEXTBEGIN
1070
    73
1070
     1
1070
    44
1040
1.0
1070
    74
1070
     0
1000
MTEXTEND
1000
MTEXTBEGIN
1070
    73
1070
     1
1070
    44
1040
1.0
1070
    74
1070
     0
1000
MTEXTEND
1000
MTEXTBEGIN
1070
    73
1070
     1
1070
    44
1040
1.0
1070
    74
1070
     0
1000
MTEXTEND
1000
MTEXTBEGIN
1070
    73
1070
     1
1070
    44
1040
1.0
1070
    74
1070
     0
1000
MTEXTEND
  0
POINT
  5
17C
330
138
100
AcDbEntity
  8
DEFPOINTS
  6
C_SOLID_M
 62
     0
100
AcDbPoint
 10
-34.309113
 20
-27.05154999999999
 30
0.0
  0
POINT
  5
17D
330
138
100
AcDbEntity
  8
DEFPOINTS
  6
C_SOLID_M
 62
     0
100
AcDbPoint
 10
-34.90911899999999
 20
-25.951553
 30
0.0
  0
POINT
  5
17E
330
138
100
AcDbEntity
  8
DEFPOINTS
  6
C_SOLID_M
 62
     0
100
AcDbPoint
 10
-34.90911899999999
 20
-33.67249913310041
 30
0.0
  0
ENDBLK
  5
144
330
138
100
AcDbEntity
  8
0
100
AcDbBlockEnd
  0
BLOCK
  5
14E
330
146
100
AcDbEntity
  8
0
100
AcDbBlockBegin
  2
*D6
 70
     1
 10
0.0
 20
0.0
 30
0.0
  3
*D6
  1

  0
LINE
  5
257
330
146
100
AcDbEntity
  8
0
  6
CONTINUOUS
 62
     0
100
AcDbLine
 10
-36.39844389601496
 20
22.73926921905476
 30
0.0
 11
-9.753157186523136
 21
6.093108475562866
 31
0.0
  0
MTEXT
  5
258
330
146
100
AcDbEntity
  8
0
  6
CONTINUOUS
 62
     0
100
AcDbMText
 10
-26.78367316056893
 20
19.68037910909485
 30
0.0
 40
3.0
 41
0.0
 71
     5
 72
     1
  1
\A2;R9.5{\H1.500000;±0.1}
 11
0.8481004774193204
 21
-0.5298354274688711
 31
0.0
  0
SOLID
  5
259
330
146
100
AcDbEntity
  8
0
  6
CONTINUOUS
 62
     0
100
AcDbTrace
 10
-9.576545377366846
 20
6.375808634702639
 30
0.0
 11
-9.929768995679426
 21
5.810408316423093
 31
0.0
 12
-8.056956231684495
 22
5.033437620625123
 32
0.0
 13
-8.056956231684495
 23
5.033437620625123
 33
0.0
  0
LINE
  5
25A
330
146
100
AcDbEntity
  8
0
  6
CONTINUOUS
 62
     0
100
AcDbLine
 10
-0.09
 20
0.0
 30
0.0
 11
0.09
 21
0.0
 31
0.0
  0
LINE
  5
25B
330
146
100
AcDbEntity
  8
0
  6
CONTINUOUS
 62
     0
100
AcDbLine
 10
0.0
 20
-0.09
 30
0.0
 11
0.0
 21
0.09
 31
0.0
  0
POINT
  5
25C
330
146
100
AcDbEntity
  8
DEFPOINTS
  6
CONTINUOUS
 62
     0
100
AcDbPoint
 10
-8.056956231684495
 20
5.033437620625123
 30
0.0
  0
POINT
  5
25D
330
146
100
AcDbEntity
  8
DEFPOINTS
  6
CONTINUOUS
 62
     0
100
AcDbPoint
 10
0.0
 20
0.0
 30
0.0
  0
ENDBLK
  5
14F
330
146
100
AcDbEntity
  8
0
100
AcDbBlockEnd
  0
BLOCK
  5
15F
330
151
100
AcDbEntity
  8
0
100
AcDbBlockBegin
  2
*D7
 70
     1
 10
0.0
 20
0.0
 30
0.0
  3
*D7
  1

  0
LINE
  5
25E
330
151
100
AcDbEntity
  8
0
  6
CONTINUOUS
 62
     0
100
AcDbLine
 10
0.0
 20
16.0625
 30
0.0
 11
0.0000000000000027
 21
32.41060226551762
 31
0.0
  0
LINE
  5
25F
330
151
100
AcDbEntity
  8
0
  6
CONTINUOUS
 62
     0
100
AcDbLine
 10
-4.619616742331793
 20
11.15273045926309
 30
0.0
 11
-12.4030133110329
 21
29.94348642033971
 31
0.0
  0
ARC
  5
260
330
151
100
AcDbEntity
  8
0
  6
CONTINUOUS
 62
     0
100
AcDbCircle
 10
0.0000000000000004
 20
0.000004258991009
 30
0.0
 40
32.23059800652662
100
AcDbArc
 50
93.5559362570537
 51
108.9440913367997
  0
SOLID
  5
261
330
151
100
AcDbEntity
  8
0
  6
CONTINUOUS
 62
     0
100
AcDbTrace
 10
-2.009379268887892
 20
32.501722284835
 30
0.0
 11
-1.988694990348236
 21
31.83537657496231
 31
0.0
 12
0.0000000000000036
 22
32.23060226551762
 32
0.0
 13
0.0000000000000036
 23
32.23060226551762
 33
0.0
  0
SOLID
  5
262
330
151
100
AcDbEntity
  8
0
  6
CONTINUOUS
 62
     0
100
AcDbTrace
 10
-10.34556948197323
 20
30.17308879396709
 30
0.0
 11
-10.58145946407996
 21
30.79662737399733
 31
0.0
 12
-12.33413021311732
 22
29.777188137662
 32
0.0
 13
-12.33413021311732
 23
29.777188137662
 33
0.0
  0
POINT
  5
263
330
151
100
AcDbEntity
  8
DEFPOINTS
  6
CONTINUOUS
 62
     0
100
AcDbPoint
 10
-8.341902594771957
 20
31.13236859191077
 30
0.0
  0
POINT
  5
264
330
151
100
AcDbEntity
  8
DEFPOINTS
  6
CONTINUOUS
 62
     0
100
AcDbPoint
 10
0.0
 20
16.0
 30
0.0
  0
POINT
  5
265
330
151
100
AcDbEntity
  8
DEFPOINTS
  6
CONTINUOUS
 62
     0
100
AcDbPoint
 10
-0.423253
 20
1.021825999999999
 30
0.0
  0
POINT
  5
266
330
151
100
AcDbEntity
  8
DEFPOINTS
  6
CONTINUOUS
 62
     0
100
AcDbPoint
 10
-4.595698999999996
 20
11.094988
 30
0.0
  0
POINT
  5
267
330
151
100
AcDbEntity
  8
DEFPOINTS
  6
CONTINUOUS
 62
     0
100
AcDbPoint
 10
0.0000000000000004
 20
-18.29999899999998
 30
0.0
  0
ENDBLK
  5
160
330
151
100
AcDbEntity
  8
0
100
AcDbBlockEnd
  0
ENDSEC
  0
SECTION
  2
ENTITIES
  0
TEXT
  5
4B
330
1E
100
AcDbEntity
  8
OVERLAY_MAP
  6
C_SOLID_L
100
AcDbText
 10
0.0
 20
6.349999999999997
 30
0.0
 40
4.1672
  1
Model Overlay Name
100
AcDbText
  0
TEXT
  5
4C
330
1E
100
AcDbEntity
  8
OVERLAY_MAP
  6
C_SOLID_L
100
AcDbText
 10
126.999998
 20
0.0
 30
0.0
 40
4.1672
  1
Number
100
AcDbText
  0
TEXT
  5
4D
330
1E
100
AcDbEntity
  8
OVERLAY_MAP
  6
C_SOLID_L
100
AcDbText
 10
177.7999969999999
 20
0.0
 30
0.0
 40
4.1672
  1
File Text
100
AcDbText
  0
TEXT
  5
4E
330
1E
100
AcDbEntity
  8
OVERLAY_MAP
  6
C_SOLID_L
100
AcDbText
 10
0.0
 20
-6.349999999999997
 30
0.0
 40
4.1672
  1
rs 2e6 
100
AcDbText
  0
TEXT
  5
4F
330
1E
100
AcDbEntity
  8
OVERLAY_MAP
  6
C_SOLID_L
100
AcDbText
 10
126.999998
 20
-6.349999999999997
 30
0.0
 40
4.1672
  1
001
100
AcDbText
  0
TEXT
  5
50
330
1E
100
AcDbEntity
  8
OVERLAY_MAP
  6
C_SOLID_L
100
AcDbText
 10
177.7999969999999
 20
-6.349999999999997
 30
0.0
 40
4.1672
  1
                                                                   00139
100
AcDbText
  0
LINE
  5
51
330
1E
100
AcDbEntity
  8
MO_001_VIEW_PV
  6
C_CENTER_L
100
AcDbLine
 10
-18.300003
 20
0.0
 30
0.0
 11
18.300003
 21
0.0
 31
0.0
  0
LINE
  5
52
330
1E
100
AcDbEntity
  8
MO_001_VIEW_PV
  6
C_CENTER_L
100
AcDbLine
 10
0.0
 20
16.0
 30
0.0
 11
0.0
 21
-18.29999899999998
 31
0.0
  0
ARC
  5
53
330
1E
100
AcDbEntity
  8
MO_001_VIEW_PV
  6
C_SOLID_M
100
AcDbCircle
 10
0.0
 20
0.0
 30
0.0
 40
14.3
100
AcDbArc
 50
292.745101
 51
247.254924
  0
LINE
  5
54
330
1E
100
AcDbEntity
  8
MO_001_VIEW_PV
  6
C_SOLID_M
100
AcDbLine
 10
3.928833
 20
-12.406274
 30
0.0
 11
3.928833
 21
-25.300003
 31
0.0
  0
LINE
  5
55
330
1E
100
AcDbEntity
  8
MO_001_VIEW_PV
  6
C_SOLID_M
100
AcDbLine
 10
5.528838999999997
 20
-12.375125
 30
0.0
 11
5.528838999999997
 21
-25.300003
 31
0.0
  0
ARC
  5
56
330
1E
100
AcDbEntity
  8
MO_001_VIEW_PV
  6
C_SOLID_M
100
AcDbCircle
 10
4.328841999999998
 20
-25.600002
 30
0.0
 40
0.5
100
AcDbArc
 50
36.869788
 51
143.130207
  0
ARC
  5
57
330
1E
100
AcDbEntity
  8
MO_001_VIEW_PV
  6
C_SOLID_M
100
AcDbCircle
 10
4.328841999999998
 20
-25.000004
 30
0.0
 40
0.5
100
AcDbArc
 50
216.8697929999999
 51
323.130212
  0
ARC
  5
58
330
1E
100
AcDbEntity
  8
MO_001_VIEW_PV
  6
C_SOLID_M
100
AcDbCircle
 10
5.128845
 20
-25.000004
 30
0.0
 40
0.5
100
AcDbArc
 50
216.8697929999999
 51
323.130212
  0
LINE
  5
59
330
1E
100
AcDbEntity
  8
MO_001_VIEW_PV
  6
C_SOLID_M
100
AcDbLine
 10
-5.528838999999997
 20
-12.375119
 30
0.0
 11
-5.528838999999997
 21
-25.300003
 31
0.0
  0
ARC
  5
5A
330
1E
100
AcDbEntity
  8
MO_001_VIEW_PV
  6
C_SOLID_M
100
AcDbCircle
 10
-5.12883
 20
-25.600002
 30
0.0
 40
0.5
100
AcDbArc
 50
36.869788
 51
143.130207
  0
ARC
  5
5B
330
1E
100
AcDbEntity
  8
MO_001_VIEW_PV
  6
C_SOLID_M
100
AcDbCircle
 10
-5.12883
 20
-25.000004
 30
0.0
 40
0.5
100
AcDbArc
 50
216.8697929999999
 51
323.130212
  0
ARC
  5
5C
330
1E
100
AcDbEntity
  8
MO_001_VIEW_PV
  6
C_SOLID_M
100
AcDbCircle
 10
-4.328826999999998
 20
-25.000004
 30
0.0
 40
0.5
100
AcDbArc
 50
216.8697929999999
 51
323.130212
  0
LINE
  5
5D
330
1E
100
AcDbEntity
  8
MO_001_VIEW_PV
  6
C_SOLID_M
100
AcDbLine
 10
-3.928833
 20
-12.406274
 30
0.0
 11
-3.928833
 21
-25.300003
 31
0.0
  0
LINE
  5
5E
330
1E
100
AcDbEntity
  8
MO_001_VIEW_PV
  6
C_SOLID_M
100
AcDbLine
 10
3.928833
 20
-32.30001
 30
0.0
 11
3.928833
 21
-26.30002199999999
 31
0.0
  0
LINE
  5
5F
330
1E
100
AcDbEntity
  8
MO_001_VIEW_PV
  6
C_SOLID_M
100
AcDbLine
 10
5.528838999999997
 20
-32.30001
 30
0.0
 11
5.528837999999997
 21
-26.300021
 31
0.0
  0
LINE
  5
60
330
1E
100
AcDbEntity
  8
MO_001_VIEW_PV
  6
C_SOLID_M
100
AcDbLine
 10
-5.528837999999997
 20
-32.30001099999999
 30
0.0
 11
-5.528838999999997
 21
-26.300023
 31
0.0
  0
LINE
  5
61
330
1E
100
AcDbEntity
  8
MO_001_VIEW_PV
  6
C_SOLID_M
100
AcDbLine
 10
-3.928833
 20
-32.30001099999999
 30
0.0
 11
-3.928833
 21
-26.300023
 31
0.0
  0
LINE
  5
62
330
1E
100
AcDbEntity
  8
MO_001_VIEW_PV
  6
C_SOLID_M
100
AcDbLine
 10
3.928833
 20
-32.30001099999999
 30
0.0
 11
5.528838999999997
 21
-32.30001099999999
 31
0.0
  0
LINE
  5
63
330
1E
100
AcDbEntity
  8
MO_001_VIEW_PV
  6
C_SOLID_M
100
AcDbLine
 10
-5.528838999999997
 20
-32.30001099999999
 30
0.0
 11
-3.928833
 21
-32.30001099999999
 31
0.0
  0
ARC
  5
64
330
1E
100
AcDbEntity
  8
MO_001_VIEW_PV
  6
C_SOLID_M
100
AcDbCircle
 10
5.12883
 20
-26.600002
 30
0.0
 40
0.5
100
AcDbArc
 50
36.869795
 51
143.130207
  0
ARC
  5
65
330
1E
100
AcDbEntity
  8
MO_001_VIEW_PV
  6
C_SOLID_M
100
AcDbCircle
 10
5.12883
 20
-26.000004
 30
0.0
 40
0.5
100
AcDbArc
 50
216.8697929999999
 51
323.130205
  0
ARC
  5
66
330
1E
100
AcDbEntity
  8
MO_001_VIEW_PV
  6
C_SOLID_M
100
AcDbCircle
 10
4.328826999999998
 20
-26.600021
 30
0.0
 40
0.5
100
AcDbArc
 50
36.869795
 51
143.130207
  0
ARC
  5
67
330
1E
100
AcDbEntity
  8
MO_001_VIEW_PV
  6
C_SOLID_M
100
AcDbCircle
 10
-5.128845
 20
-26.600031
 30
0.0
 40
0.5
100
AcDbArc
 50
36.869795
 51
143.130207
  0
ARC
  5
68
330
1E
100
AcDbEntity
  8
MO_001_VIEW_PV
  6
C_SOLID_M
100
AcDbCircle
 10
-4.328841999999998
 20
-26.60001199999999
 30
0.0
 40
0.5
100
AcDbArc
 50
36.869795
 51
143.130207
  0
ARC
  5
69
330
1E
100
AcDbEntity
  8
MO_001_VIEW_PV
  6
C_SOLID_M
100
AcDbCircle
 10
-4.328841999999998
 20
-26.000013
 30
0.0
 40
0.5
100
AcDbArc
 50
216.8697929999999
 51
323.130205
  0
LINE
  5
6A
330
1E
100
AcDbEntity
  8
MO_001_VIEW_PV
  6
C_SOLID_M
100
AcDbLine
 10
5.128845
 20
-32.30001
 30
0.0
 11
5.128846
 21
-37.30001
 31
0.0
  0
LINE
  5
6B
330
1E
100
AcDbEntity
  8
MO_001_VIEW_PV
  6
C_SOLID_M
100
AcDbLine
 10
4.328826999999998
 20
-32.30001099999999
 30
0.0
 11
4.328826
 21
-37.300008
 31
0.0
  0
LINE
  5
6C
330
1E
100
AcDbEntity
  8
MO_001_VIEW_PV
  6
C_SOLID_M
100
AcDbLine
 10
4.328826999999998
 20
-37.30001099999999
 30
0.0
 11
5.128845
 21
-37.30001099999999
 31
0.0
  0
LINE
  5
6D
330
1E
100
AcDbEntity
  8
MO_001_VIEW_PV
  6
C_SOLID_M
100
AcDbLine
 10
-4.328827999999997
 20
-32.30001099999999
 30
0.0
 11
-4.328827999999997
 21
-37.30001099999999
 31
0.0
  0
LINE
  5
6E
330
1E
100
AcDbEntity
  8
MO_001_VIEW_PV
  6
C_SOLID_M
100
AcDbLine
 10
-5.128846
 20
-32.30001099999999
 30
0.0
 11
-5.128846
 21
-37.30001099999999
 31
0.0
  0
LINE
  5
6F
330
1E
100
AcDbEntity
  8
MO_001_VIEW_PV
  6
C_SOLID_M
100
AcDbLine
 10
-5.128845
 20
-37.30001099999999
 30
0.0
 11
-4.328826999999998
 21
-37.30001099999999
 31
0.0
  0
ARC
  5
70
330
1E
100
AcDbEntity
  8
MO_001_VIEW_PV
  6
C_SOLID_M
100
AcDbCircle
 10
4.75
 20
-13.477808
 30
0.0
 40
1.35
100
AcDbArc
 50
21.71086999999999
 51
197.1172239999999
  0
ARC
  5
71
330
1E
100
AcDbEntity
  8
MO_001_VIEW_PV
  6
C_SOLID_M
100
AcDbCircle
 10
-4.75
 20
-13.477808
 30
0.0
 40
1.35
100
AcDbArc
 50
342.8827759999998
 51
158.289129
  0
ARC
  5
72
330
1E
100
AcDbEntity
  8
MO_001_VIEW_PV
  6
C_SOLID_M
100
AcDbCircle
 10
0.0
 20
0.0
 30
0.0
 40
14.3
100
AcDbArc
 50
254.053268
 51
285.946741
  0
CIRCLE
  5
73
330
1E
100
AcDbEntity
  8
MO_001_VIEW_PV
  6
C_SOLID_M
100
AcDbCircle
 10
0.0
 20
0.0
 30
0.0
 40
12.699997
  0
ARC
  5
74
330
1E
100
AcDbEntity
  8
MO_001_VIEW_PV
  6
C_SOLID_M
100
AcDbCircle
 10
0.0
 20
0.0
 30
0.0
 40
5.2
100
AcDbArc
 50
32.697478
 51
72.302511
  0
ARC
  5
75
330
1E
100
AcDbEntity
  8
MO_001_VIEW_PV
  6
C_SOLID_M
100
AcDbCircle
 10
3.332091999999998
 20
-2.556799
 30
0.0
 40
1.3
100
AcDbArc
 50
277.4139629999999
 51
7.586005
  0
CIRCLE
  5
76
330
1E
100
AcDbEntity
  8
MO_001_VIEW_PV
  6
C_SOLID_M
100
AcDbCircle
 10
-3.635498
 20
8.776854999999999
 30
0.0
 40
2.1
  0
ARC
  5
77
330
1E
100
AcDbEntity
  8
MO_001_VIEW_PV
  6
C_SOLID_M
100
AcDbCircle
 10
3.880294999999998
 20
1.607269
 30
0.0
 40
1.3
100
AcDbArc
 50
337.4139319999998
 51
67.586067
  0
ARC
  5
78
330
1E
100
AcDbEntity
  8
MO_001_VIEW_PV
  6
C_SOLID_M
100
AcDbCircle
 10
0.548218
 20
4.164068
 30
0.0
 40
1.3
100
AcDbArc
 50
37.413932
 51
127.586062
  0
ARC
  5
79
330
1E
100
AcDbEntity
  8
MO_001_VIEW_PV
  6
C_SOLID_M
100
AcDbCircle
 10
-3.332091999999998
 20
2.556799
 30
0.0
 40
1.3
100
AcDbArc
 50
97.41396100000001
 51
187.58605
  0
ARC
  5
7A
330
1E
100
AcDbEntity
  8
MO_001_VIEW_PV
  6
C_SOLID_M
100
AcDbCircle
 10
-3.880294999999998
 20
-1.607269
 30
0.0
 40
1.3
100
AcDbArc
 50
157.413935
 51
247.5860519999999
  0
ARC
  5
7B
330
1E
100
AcDbEntity
  8
MO_001_VIEW_PV
  6
C_SOLID_M
100
AcDbCircle
 10
-0.548218
 20
-4.164068
 30
0.0
 40
1.3
100
AcDbArc
 50
217.413941
 51
307.586047
  0
ARC
  5
7C
330
1E
100
AcDbEntity
  8
MO_001_VIEW_PV
  6
C_SOLID_M
100
AcDbCircle
 10
0.0
 20
0.0
 30
0.0
 40
8.309502
100
AcDbArc
 50
159.9836299999996
 51
185.016383
  0
ARC
  5
7D
330
1E
100
AcDbEntity
  8
MO_001_VIEW_PV
  6
C_SOLID_M
100
AcDbCircle
 10
0.0
 20
0.0
 30
0.0
 40
10.69049799999999
100
AcDbArc
 50
159.9965799999999
 51
185.0034329999999
  0
ARC
  5
7E
330
1E
100
AcDbEntity
  8
MO_001_VIEW_PV
  6
C_SOLID_M
100
AcDbCircle
 10
-9.463851999999999
 20
-0.8279799999999999
 30
0.0
 40
1.190499999999999
100
AcDbArc
 50
184.969285
 51
4.885616999999998
  0
ARC
  5
7F
330
1E
100
AcDbEntity
  8
MO_001_VIEW_PV
  6
C_SOLID_M
100
AcDbCircle
 10
-8.927077999999998
 20
3.24919
 30
0.0
 40
1.190499999999999
100
AcDbArc
 50
340.114329
 51
160.030786
  0
ARC
  5
80
330
1E
100
AcDbEntity
  8
MO_001_VIEW_PV
  6
C_SOLID_M
100
AcDbCircle
 10
0.0
 20
0.0
 30
0.0
 40
8.309502
100
AcDbArc
 50
279.9836169999999
 51
305.0163659999999
  0
ARC
  5
81
330
1E
100
AcDbEntity
  8
MO_001_VIEW_PV
  6
C_SOLID_M
100
AcDbCircle
 10
0.0
 20
0.0
 30
0.0
 40
10.69049799999999
100
AcDbArc
 50
279.9965669999999
 51
305.003416
  0
ARC
  5
82
330
1E
100
AcDbEntity
  8
MO_001_VIEW_PV
  6
C_SOLID_M
100
AcDbCircle
 10
5.448974999999999
 20
-7.781942999999999
 30
0.0
 40
1.190499999999999
100
AcDbArc
 50
304.969265
 51
124.885679
  0
ARC
  5
83
330
1E
100
AcDbEntity
  8
MO_001_VIEW_PV
  6
C_SOLID_M
100
AcDbCircle
 10
1.649658
 20
-9.355672
 30
0.0
 40
1.190499999999999
100
AcDbArc
 50
100.114338
 51
280.0307339999999
  0
ARC
  5
84
330
1E
100
AcDbEntity
  8
MO_001_VIEW_PV
  6
C_SOLID_M
100
AcDbCircle
 10
0.0
 20
0.0
 30
0.0
 40
8.309502
100
AcDbArc
 50
39.983613
 51
65.01636600000001
  0
ARC
  5
85
330
1E
100
AcDbEntity
  8
MO_001_VIEW_PV
  6
C_SOLID_M
100
AcDbCircle
 10
0.0
 20
0.0
 30
0.0
 40
10.69049799999999
100
AcDbArc
 50
39.996563
 51
65.003416
  0
ARC
  5
86
330
1E
100
AcDbEntity
  8
MO_001_VIEW_PV
  6
C_SOLID_M
100
AcDbCircle
 10
4.014876999999998
 20
8.609924000000001
 30
0.0
 40
1.190499999999999
100
AcDbArc
 50
64.969265
 51
244.885668
  0
ARC
  5
87
330
1E
100
AcDbEntity
  8
MO_001_VIEW_PV
  6
C_SOLID_M
100
AcDbCircle
 10
7.277419999999997
 20
6.106481999999997
 30
0.0
 40
1.190499999999999
100
AcDbArc
 50
220.1143379999999
 51
40.030738
  0
ARC
  5
88
330
1E
100
AcDbEntity
  8
MO_001_VIEW_PV
  6
C_SOLID_M
100
AcDbCircle
 10
5.543273999999997
 20
2.296100999999999
 30
0.0
 40
1.6
100
AcDbArc
 50
149.369899
 51
255.6301019999998
  0
ARC
  5
89
330
1E
100
AcDbEntity
  8
MO_001_VIEW_PV
  6
C_SOLID_M
100
AcDbCircle
 10
0.7831570000000001
 20
5.948669
 30
0.0
 40
1.6
100
AcDbArc
 50
209.369904
 51
315.630077
  0
ARC
  5
8A
330
1E
100
AcDbEntity
  8
MO_001_VIEW_PV
  6
C_SOLID_M
100
AcDbCircle
 10
-4.760117
 20
3.652569
 30
0.0
 40
1.6
100
AcDbArc
 50
269.369913
 51
15.630079
  0
ARC
  5
8B
330
1E
100
AcDbEntity
  8
MO_001_VIEW_PV
  6
C_SOLID_M
100
AcDbCircle
 10
-5.543273999999997
 20
-2.296100999999999
 30
0.0
 40
1.6
100
AcDbArc
 50
329.3699109999999
 51
75.63007699999999
  0
ARC
  5
8C
330
1E
100
AcDbEntity
  8
MO_001_VIEW_PV
  6
C_SOLID_M
100
AcDbCircle
 10
-0.7831570000000001
 20
-5.948669
 30
0.0
 40
1.6
100
AcDbArc
 50
29.36991199999999
 51
135.6300719999999
  0
ARC
  5
8D
330
1E
100
AcDbEntity
  8
MO_001_VIEW_PV
  6
C_SOLID_M
100
AcDbCircle
 10
4.760117
 20
-3.652569
 30
0.0
 40
1.6
100
AcDbArc
 50
89.36991799999999
 51
195.630073
  0
ARC
  5
8E
330
1E
100
AcDbEntity
  8
MO_001_VIEW_PV
  6
C_SOLID_M
100
AcDbCircle
 10
0.0
 20
0.0
 30
0.0
 40
5.2
100
AcDbArc
 50
332.697492
 51
12.302522
  0
ARC
  5
8F
330
1E
100
AcDbEntity
  8
MO_001_VIEW_PV
  6
C_SOLID_M
100
AcDbCircle
 10
0.0
 20
0.0
 30
0.0
 40
5.2
100
AcDbArc
 50
272.6975259999999
 51
312.30247
  0
ARC
  5
90
330
1E
100
AcDbEntity
  8
MO_001_VIEW_PV
  6
C_SOLID_M
100
AcDbCircle
 10
0.0
 20
0.0
 30
0.0
 40
5.2
100
AcDbArc
 50
212.6974769999999
 51
252.3025129999999
  0
ARC
  5
91
330
1E
100
AcDbEntity
  8
MO_001_VIEW_PV
  6
C_SOLID_M
100
AcDbCircle
 10
0.0
 20
0.0
 30
0.0
 40
5.2
100
AcDbArc
 50
152.697485
 51
192.302514
  0
ARC
  5
92
330
1E
100
AcDbEntity
  8
MO_001_VIEW_PV
  6
C_SOLID_M
100
AcDbCircle
 10
0.0
 20
0.0
 30
0.0
 40
5.2
100
AcDbArc
 50
92.697531
 51
132.302472
  0
CIRCLE
  5
93
330
1E
100
AcDbEntity
  8
MO_001_VIEW_PV
  6
C_SOLID_M
100
AcDbCircle
 10
0.0
 20
0.0
 30
0.0
 40
1.985
  0
CIRCLE
  5
94
330
1E
100
AcDbEntity
  8
MO_001_VIEW_PV
  6
C_SOLID_M
100
AcDbCircle
 10
0.0
 20
0.0
 30
0.0
 40
1.877818999999996
  0
CIRCLE
  5
95
330
1E
100
AcDbEntity
  8
MO_001_VIEW_PV
  6
C_SOLID_L
100
AcDbCircle
 10
-3.635498
 20
8.776854999999999
 30
0.0
 40
1.3
  0
CIRCLE
  5
96
330
1E
100
AcDbEntity
  8
MO_001_VIEW_PV
  6
C_SOLID_L
100
AcDbCircle
 10
-5.783233999999997
 20
-7.536857
 30
0.0
 40
1.3
  0
CIRCLE
  5
97
330
1E
100
AcDbEntity
  8
MO_001_VIEW_PV
  6
C_SOLID_M
100
AcDbCircle
 10
-5.783233999999997
 20
-7.536857
 30
0.0
 40
2.1
  0
CIRCLE
  5
98
330
1E
100
AcDbEntity
  8
MO_001_VIEW_PV
  6
C_SOLID_L
100
AcDbCircle
 10
9.418732
 20
-1.239999
 30
0.0
 40
1.3
  0
CIRCLE
  5
99
330
1E
100
AcDbEntity
  8
MO_001_VIEW_PV
  6
C_SOLID_M
100
AcDbCircle
 10
9.418732
 20
-1.239999
 30
0.0
 40
2.1
  0
LINE
  5
9A
330
1E
100
AcDbEntity
  8
MO_001_VIEW_PV
  6
C_CENTER_L
100
AcDbLine
 10
-0.423253
 20
1.021826
 30
0.0
 11
-4.595698999999997
 21
11.094988
 31
0.0
  0
ARC
  5
9B
330
1E
100
AcDbEntity
  8
MO_001_VIEW_PV
  6
C_CENTER_L
100
AcDbCircle
 10
0.0
 20
0.0
 30
0.0
 40
9.500002
100
AcDbArc
 50
96.408667
 51
148.0056639999999
  0
LINE
  5
9C
330
1E
100
AcDbEntity
  8
MO_001_VIEW_PV
  6
C_CENTER_L
100
AcDbLine
 10
-4.199024999999998
 20
-5.472355999999997
 30
0.0
 11
-7.310647999999997
 21
-9.527506999999999
 31
0.0
  0
ARC
  5
9D
330
1E
100
AcDbEntity
  8
MO_001_VIEW_PV
  6
C_CENTER_L
100
AcDbCircle
 10
0.0
 20
0.0
 30
0.0
 40
9.500002
100
AcDbArc
 50
216.408674
 51
250.402218
  0
LINE
  5
9E
330
1E
100
AcDbEntity
  8
MO_001_VIEW_PV
  6
C_CENTER_L
100
AcDbLine
 10
6.838749
 20
-0.9003289999999999
 30
0.0
 11
11.90641
 21
-1.567496
 31
0.0
  0
ARC
  5
9F
330
1E
100
AcDbEntity
  8
MO_001_VIEW_PV
  6
C_CENTER_L
100
AcDbCircle
 10
0.0
 20
0.0
 30
0.0
 40
9.500002
100
AcDbArc
 50
336.408673
 51
10.402218
  0
LINE
  5
A0
330
1E
100
AcDbEntity
  8
MO_001_VIEW_PV
  6
C_SOLID_M
100
AcDbLine
 10
-33.109116
 20
-19.789175
 30
0.0
 11
-33.109116
 21
-27.05154999999999
 31
0.0
  0
LINE
  5
A1
330
1E
100
AcDbEntity
  8
MO_001_VIEW_PV
  6
C_SOLID_M
100
AcDbLine
 10
-34.309113
 20
-25.951553
 30
0.0
 11
-34.309113
 21
-27.05154999999999
 31
0.0
  0
LINE
  5
A2
330
1E
100
AcDbEntity
  8
MO_001_VIEW_PV
  6
C_SOLID_M
100
AcDbLine
 10
-34.309113
 20
-27.05154999999999
 30
0.0
 11
-33.109116
 21
-27.05154999999999
 31
0.0
  0
LINE
  5
A3
330
1E
100
AcDbEntity
  8
MO_001_VIEW_PV
  6
C_CENTER_L
100
AcDbLine
 10
-36.450195
 20
-23.851553
 30
0.0
 11
-31.104446
 21
-23.851553
 31
0.0
  0
LINE
  5
A4
330
1E
100
AcDbEntity
  8
MO_001_VIEW_PV
  6
C_SOLID_M
100
AcDbLine
 10
-33.709122
 20
-21.751553
 30
0.0
 11
-33.109116
 21
-21.751553
 31
0.0
  0
LINE
  5
A5
330
1E
100
AcDbEntity
  8
MO_001_VIEW_PV
  6
C_SOLID_M
100
AcDbLine
 10
-33.709122
 20
-25.951553
 30
0.0
 11
-33.109116
 21
-25.951553
 31
0.0
  0
LINE
  5
A6
330
1E
100
AcDbEntity
  8
MO_001_VIEW_PV
  6
C_SOLID_M
100
AcDbLine
 10
-34.90911899999999
 20
-21.751553
 30
0.0
 11
-34.90911899999999
 21
-25.951553
 31
0.0
  0
LINE
  5
A7
330
1E
100
AcDbEntity
  8
MO_001_VIEW_PV
  6
C_SOLID_M
100
AcDbLine
 10
-33.709122
 20
-21.751553
 30
0.0
 11
-33.709122
 21
-25.951553
 31
0.0
  0
LINE
  5
A8
330
1E
100
AcDbEntity
  8
MO_001_VIEW_PV
  6
C_SOLID_M
100
AcDbLine
 10
-34.90911899999999
 20
-25.951553
 30
0.0
 11
-34.309113
 21
-25.951553
 31
0.0
  0
LINE
  5
A9
330
1E
100
AcDbEntity
  8
MO_001_VIEW_PV
  6
C_SOLID_M
100
AcDbLine
 10
-34.90911899999999
 20
-21.751553
 30
0.0
 11
-34.309113
 21
-21.751553
 31
0.0
  0
LINE
  5
AA
330
1E
100
AcDbEntity
  8
MO_001_VIEW_PV
  6
C_SOLID_M
100
AcDbLine
 10
-34.309113
 20
-19.450901
 30
0.0
 11
-34.309113
 21
-21.751553
 31
0.0
  0
LINE
  5
AB
330
1E
100
AcDbEntity
  8
MO_001_VIEW_PV
  6
C_SOLID_L
100
AcDbLine
 10
-34.90911899999999
 20
-22.55155199999999
 30
0.0
 11
-33.709122
 21
-22.55155199999999
 31
0.0
  0
LINE
  5
AC
330
1E
100
AcDbEntity
  8
MO_001_VIEW_PV
  6
C_SOLID_L
100
AcDbLine
 10
-34.90911899999999
 20
-25.151552
 30
0.0
 11
-33.709122
 21
-25.151552
 31
0.0
  0
LINE
  5
AD
330
1E
100
AcDbEntity
  8
MO_001_VIEW_PV
  6
C_SOLID_M
100
AcDbLine
 10
-34.90911899999999
 20
-22.751553
 30
0.0
 11
-33.709122
 21
-22.751553
 31
0.0
  0
LINE
  5
AE
330
1E
100
AcDbEntity
  8
MO_001_VIEW_PV
  6
C_SOLID_M
100
AcDbLine
 10
-34.90911899999999
 20
-24.951553
 30
0.0
 11
-33.709122
 21
-24.951553
 31
0.0
  0
CIRCLE
  5
AF
330
1E
100
AcDbEntity
  8
MO_001_VIEW_PV
  6
C_SOLID_M
100
AcDbCircle
 10
-5.783233999999997
 20
-7.536857
 30
0.0
 40
1.1
  0
CIRCLE
  5
B0
330
1E
100
AcDbEntity
  8
MO_001_VIEW_PV
  6
C_SOLID_M
100
AcDbCircle
 10
-3.635498
 20
8.776854999999999
 30
0.0
 40
1.1
  0
CIRCLE
  5
B1
330
1E
100
AcDbEntity
  8
MO_001_VIEW_PV
  6
C_SOLID_M
100
AcDbCircle
 10
9.418732
 20
-1.239999
 30
0.0
 40
1.1
  0
LWPOLYLINE
  5
B2
330
1E
100
AcDbEntity
  8
MO_001_VIEW_PV
  6
C_SOLID_M
100
AcDbPolyline
 90
       16
 70
     0
 43
0.0
 10
-34.720215
 20
-19.616049
 10
-34.559722
 20
-19.53260099999998
 10
-34.386063
 20
-19.46892
 10
-34.297469
 20
-19.44879599999998
 10
-34.16594099999999
 20
-19.438102
 10
-34.039856
 20
-19.455963
 10
-33.96649199999998
 20
-19.482932
 10
-33.86136099999998
 20
-19.541025
 10
-33.759394
 20
-19.610994
 10
-33.623042
 20
-19.704689
 10
-33.479553
 20
-19.77613299999998
 10
-33.389657
 20
-19.798869
 10
-33.248403
 20
-19.806589
 10
-33.103423
 20
-19.788028
 10
-32.912025
 20
-19.732859
 10
-32.732498
 20
-19.656071
  0
CIRCLE
  5
C4
330
1E
100
AcDbEntity
  8
MO_001_VIEW_PV
  6
C_SOLID_M
100
AcDbCircle
 10
-34.366623
 20
-31.056446
 30
0.0
 40
23.20903799999999
  0
LINE
  5
C5
330
1E
100
AcDbEntity
  8
MO_001_VIEW_PV
  6
C_SOLID_L
100
AcDbLine
 10
17.94043
 20
-16.0
 30
0.0
 11
54.64613299999999
 21
-16.0
 31
0.0
  0
TEXT
  5
CA
330
1E
100
AcDbEntity
  8
MO_001_VIEW_PV
  6
C_SOLID_L
100
AcDbText
 10
-8.114319
 20
-53.152731
 30
0.0
 40
4.167187
  1
2E X6付
100
AcDbText
  0
TEXT
  5
CB
330
1E
100
AcDbEntity
  8
MO_001_VIEW_PV
  6
C_SOLID_L
100
AcDbText
 10
-40.48741399999999
 20
33.329552
 30
0.0
 40
3.0
  1
※1/2回転角度(%%P3%%D)
100
AcDbText
  0
TEXT
  5
CC
330
1E
100
AcDbEntity
  8
MO_001_VIEW_PV
  6
C_SOLID_L
100
AcDbText
 10
17.411054
 20
33.661346
 30
0.0
 40
3.0
  1
※図は右回転を示し，
100
AcDbText
  0
TEXT
  5
CD
330
1E
100
AcDbEntity
  8
MO_001_VIEW_PV
  6
C_SOLID_L
100
AcDbText
 10
17.411054
 20
29.161346
 30
0.0
 40
3.0
  1
　左回転の場合は反対
100
AcDbText
  0
TEXT
  5
CE
330
1E
100
AcDbEntity
  8
MO_001_VIEW_PV
  6
C_SOLID_L
100
AcDbText
 10
17.411054
 20
24.661346
 30
0.0
 40
3.0
  1
　になります。
100
AcDbText
  0
TEXT
  5
CF
330
1E
100
AcDbEntity
  8
MO_001_VIEW_PV
  6
C_SOLID_L
100
AcDbText
 10
18.339201
 20
-15.38338999999998
 30
0.0
 40
3.0
  1
3-M2.6 P0.45
100
AcDbText
  0
TEXT
  5
D2
330
1E
100
AcDbEntity
  8
MO_001_VIEW_PV
  6
C_SOLID_L
100
AcDbText
 10
27.88568099999999
 20
-59.152731
 30
0.0
 40
4.167187
  1
単位：mm
100
AcDbText
  0
TEXT
  5
D3
330
1E
100
AcDbEntity
  8
MO_001_VIEW_PV
  6
C_SOLID_L
100
AcDbText
 10
27.88568099999999
 20
-65.403512
 30
0.0
 40
4.167187
  1
図は右回転、無励磁時を示す
100
AcDbText
  0
POLYLINE
  5
D4
330
1E
100
AcDbEntity
  8
MO_001_NOSHOW
  6
C_SOLID_M
100
AcDb2dPolyline
 66
     1
 10
0.0
 20
0.0
 30
0.0
 70
     4
 75
     6
  0
VERTEX
  5
D5
330
D4
100
AcDbEntity
  8
MO_001_NOSHOW
  6
C_SOLID_M
100
AcDbVertex
100
AcDb2dVertex
 10
-34.720215
 20
-19.616049
 30
0.0
 50
30.52022199999999
  0
VERTEX
  5
D6
330
D4
100
AcDbEntity
  8
MO_001_NOSHOW
  6
C_SOLID_M
100
AcDbVertex
100
AcDb2dVertex
 10
-34.039856
 20
-19.455963
 30
0.0
 50
344.2038919999998
  0
VERTEX
  5
D7
330
D4
100
AcDbEntity
  8
MO_001_NOSHOW
  6
C_SOLID_M
100
AcDbVertex
100
AcDb2dVertex
 10
-33.479553
 20
-19.77613299999998
 30
0.0
 50
340.617166
  0
VERTEX
  5
D8
330
D4
100
AcDbEntity
  8
MO_001_NOSHOW
  6
C_SOLID_M
100
AcDbVertex
100
AcDb2dVertex
 10
-32.732498
 20
-19.656071
 30
0.0
 50
25.963983
  0
SEQEND
  5
D9
330
D4
100
AcDbEntity
  8
0
  0
DIMENSION
  5
DB
330
1E
100
AcDbEntity
  8
MO_001_VIEW_PV
  6
C_SOLID_M
100
AcDbDimension
  2
*D3
 10
-42.30130120118796
 20
-25.95149145845295
 30
0.0
 11
-42.30141111518952
 21
-39.15402479132875
 31
0.0
 70
   160
  1
(%%C4.2)
  3
STANDARD
100
AcDbAlignedDimension
 13
-34.90911899999999
 23
-21.751553
 33
0.0
 14
-34.90911899999999
 24
-25.951553
 34
0.0
 50
89.999523
100
AcDbRotatedDimension
  0
LINE
  5
DC
330
1E
100
AcDbEntity
  8
MO_001_VIEW_PV
  6
C_SOLID_L
100
AcDbLine
 10
-7.40483
 20
-8.871171
 30
0.0
 11
-16.444805
 21
-16.30963599999999
 31
0.0
  0
LWPOLYLINE
  5
DD
330
1E
100
AcDbEntity
  8
MO_001_VIEW_PV
  6
C_SOLID_L
100
AcDbPolyline
 90
        3
 70
     1
 43
0.0
 10
-9.596401999999999
 20
-11.430145
 10
-7.797102999999999
 20
-9.193949999999999
 10
-10.337918
 20
-10.52898
  0
LINE
  5
E4
330
1E
100
AcDbEntity
  8
MO_001_VIEW_PV
  6
C_SOLID_L
100
AcDbLine
 10
10.068745
 20
-2.365829999999998
 30
0.0
 11
17.940436
 21
-16.000004
 31
0.0
  0
LWPOLYLINE
  5
E5
330
1E
100
AcDbEntity
  8
MO_001_VIEW_PV
  6
C_SOLID_L
100
AcDbPolyline
 90
        3
 70
     1
 43
0.0
 10
12.233211
 20
-4.947772
 10
10.32274499999999
 20
-2.805771
 10
11.222539
 20
-5.531283999999997
  0
DIMENSION
  5
EB
330
1E
100
AcDbEntity
  8
MO_001_VIEW_PV
  6
C_SOLID_M
100
AcDbDimension
  2
*D5
 10
-34.90911899999999
 20
-33.67249913310041
 30
0.0
 11
-21.19017966666667
 21
-33.67249913310041
 31
0.0
 70
   160
  1
(0.6)
  3
STANDARD
100
AcDbAlignedDimension
 13
-34.309113
 23
-27.05154999999999
 33
0.0
 14
-34.90911899999999
 24
-25.951553
 34
0.0
100
AcDbRotatedDimension
  0
DIMENSION
  5
145
330
1E
100
AcDbEntity
  8
0
  6
CONTINUOUS
100
AcDbDimension
  2
*D6
 10
0.0
 20
0.0
 30
0.0
 11
-28.10826172924111
 21
17.56012791554655
 31
0.0
 70
   164
  3
STANDARD
100
AcDbRadialDimension
 15
-8.056956231684495
 25
5.033437620625123
 35
0.0
 40
0.0
1001
ACAD
1000
DSTYLE
1002
{
1070
   287
1070
     4
1070
   147
1040
1.0
1070
   287
1070
     4
1070
   287
1070
     4
1070
   287
1070
     4
1070
   279
1070
     1
1070
   288
1070
     1
1002
}
  0
DIMENSION
  5
150
330
1E
100
AcDbEntity
  8
0
  6
CONTINUOUS
100
AcDbDimension
  2
*D7
 10
0.0
 20
-18.29999899999998
 30
0.0
 11
-2.107983717219624
 21
32.16159383008236
 31
0.0
 70
    34
  1
 
  3
STANDARD
100
AcDb2LineAngularDimension
 13
-0.423253
 23
1.021826
 33
0.0
 14
-4.595698999999997
 24
11.094988
 34
0.0
 15
0.0
 25
16.0
 35
0.0
 16
-8.341902594771957
 26
31.13236859191077
 36
0.0
1001
ACAD
1000
DSTYLE
1002
{
1070
   271
1070
     0
1070
   271
1070
     0
1070
   271
1070
     0
1070
   271
1070
     0
1002
}
  0
ENDSEC
  0
SECTION
  2
OBJECTS
  0
DICTIONARY
  5
1A
330
0
100
AcDbDictionary
  3
ACAD_GROUP
350
1B
  3
ACAD_MLINESTYLE
350
1C
  3
ACAD_LAYOUT
350
11B
  3
ACAD_PLOTSETTINGS
350
11C
  3
ACAD_PLOTSTYLENAME
350
228
  3
ACDBHEADERROUNDTRIPXREC
350
235
1001
ACAD
1000
TREAT_AS_HARD
1070
     0
1000
TREAT_AS_HARD
1070
     0
1000
TREAT_AS_HARD
1070
     0
  0
DICTIONARY
  5
18A
330
1E
100
AcDbDictionary
  3
ACAD_LAYOUTSELFREF
350
255
1001
ACAD
1000
TREAT_AS_HARD
1070
     0
1000
TREAT_AS_HARD
1070
     0
  0
DICTIONARY
  5
18C
330
1F
100
AcDbDictionary
  3
ACAD_LAYOUTSELFREF
350
256
1001
ACAD
1000
TREAT_AS_HARD
1070
     0
1000
TREAT_AS_HARD
1070
     0
  0
DICTIONARY
  5
1B
102
{ACAD_REACTORS
330
1A
102
}
330
1A
100
AcDbDictionary
1001
ACAD
1000
TREAT_AS_HARD
1070
     0
1000
TREAT_AS_HARD
1070
     0
1000
TREAT_AS_HARD
1070
     0
  0
DICTIONARY
  5
1C
102
{ACAD_REACTORS
330
1A
102
}
330
1A
100
AcDbDictionary
  3
STANDARD
350
1D
1001
ACAD
1000
TREAT_AS_HARD
1070
     0
1000
TREAT_AS_HARD
1070
     0
1000
TREAT_AS_HARD
1070
     0
  0
DICTIONARY
  5
11B
102
{ACAD_REACTORS
330
1A
102
}
330
1A
100
AcDbDictionary
1001
ACAD
1000
TREAT_AS_HARD
1070
     0
1000
TREAT_AS_HARD
1070
     0
1000
TREAT_AS_HARD
1070
     0
  0
DICTIONARY
  5
11C
102
{ACAD_REACTORS
330
1A
102
}
330
1A
100
AcDbDictionary
1001
ACAD
1000
TREAT_AS_HARD
1070
     0
1000
TREAT_AS_HARD
1070
     0
1000
TREAT_AS_HARD
1070
     0
  0
ACDBDICTIONARYWDFLT
  5
228
102
{ACAD_REACTORS
330
1A
102
}
330
1A
100
AcDbDictionary
281
     1
  3
Normal
350
229
100
AcDbDictionaryWithDefault
340
229
  0
DICTIONARY
  5
235
102
{ACAD_REACTORS
330
1A
102
}
330
1A
100
AcDbDictionary
  3
TSTACKALIGN
350
236
  3
TSTACKSIZE
350
237
  3
HYPERLINKBASE
350
238
  3
STYLESHEET
350
239
  3
LAYOUTDICT
350
23A
  3
PLOTSETDICT
350
23B
  3
PLOTSTYLNAMDICT
350
23C
  3
LWETCUNION
350
23D
  3
INSUNITS
350
23E
  3
CEPSNTYPE
350
23F
  3
FINGERPRINTGUID
350
240
  3
VERSIONGUID
350
241
  3
PSVPSCALE
350
242
  3
PUCSORTHOREF
350
243
  3
PUCSORTHOVIEW
350
244
  3
PUCSBASE
350
245
  3
PUCSORGTOP
350
246
  3
PUCSORGBOTTOM
350
247
  3
PUCSORGLEFT
350
248
  3
PUCSORGRIGHT
350
249
  3
PUCSORGFRONT
350
24A
  3
PUCSORGBACK
350
24B
  3
UCSORTHOREF
350
24C
  3
UCSORTHOVIEW
350
24D
  3
UCSBASE
350
24E
  3
UCSORGTOP
350
24F
  3
UCSORGBOTTOM
350
250
  3
UCSORGLEFT
350
251
  3
UCSORGRIGHT
350
252
  3
UCSORGFRONT
350
253
  3
UCSORGBACK
350
254
  0
XRECORD
  5
255
102
{ACAD_REACTORS
330
18A
102
}
330
18A
100
AcDbXrecord
340
1E
  0
XRECORD
  5
256
102
{ACAD_REACTORS
330
18C
102
}
330
18C
100
AcDbXrecord
340
1F
  0
MLINESTYLE
  5
1D
102
{ACAD_REACTORS
330
1C
102
}
330
1C
100
AcDbMlineStyle
  2
STANDARD
 70
     0
  3

 62
     0
 51
90.0
 52
90.0
 71
     2
 49
0.5
 62
   256
  6
BYLAYER
 49
-0.5
 62
   256
  6
BYLAYER
  0
ACDBPLACEHOLDER
  5
229
102
{ACAD_REACTORS
330
228
102
}
330
228
100
AcDbPlaceHolder
280
     0
  0
XRECORD
  5
236
102
{ACAD_REACTORS
330
235
102
}
330
235
100
AcDbXrecord
 90
        1
  0
XRECORD
  5
237
102
{ACAD_REACTORS
330
235
102
}
330
235
100
AcDbXrecord
 90
       70
  0
XRECORD
  5
238
102
{ACAD_REACTORS
330
235
102
}
330
235
100
AcDbXrecord
  1

  0
XRECORD
  5
239
102
{ACAD_REACTORS
330
235
102
}
330
235
100
AcDbXrecord
  1

  0
XRECORD
  5
23A
102
{ACAD_REACTORS
330
235
102
}
330
235
100
AcDbXrecord
340
11B
  0
XRECORD
  5
23B
102
{ACAD_REACTORS
330
235
102
}
330
235
100
AcDbXrecord
340
11C
  0
XRECORD
  5
23C
102
{ACAD_REACTORS
330
235
102
}
330
235
100
AcDbXrecord
340
228
  0
XRECORD
  5
23D
102
{ACAD_REACTORS
330
235
102
}
330
235
100
AcDbXrecord
 90
    10781
  0
XRECORD
  5
23E
102
{ACAD_REACTORS
330
235
102
}
330
235
100
AcDbXrecord
 90
        0
  0
XRECORD
  5
23F
102
{ACAD_REACTORS
330
235
102
}
330
235
100
AcDbXrecord
 90
        0
  0
XRECORD
  5
240
102
{ACAD_REACTORS
330
235
102
}
330
235
100
AcDbXrecord
  1
{D2225A67-3602-4A60-ACFA-9D4A7538BF77}
  0
XRECORD
  5
241
102
{ACAD_REACTORS
330
235
102
}
330
235
100
AcDbXrecord
  1
{9E434379-A093-4360-A78C-BDC90548CB37}
  0
XRECORD
  5
242
102
{ACAD_REACTORS
330
235
102
}
330
235
100
AcDbXrecord
 40
0.0
  0
XRECORD
  5
243
102
{ACAD_REACTORS
330
235
102
}
330
235
100
AcDbXrecord
340
0
  0
XRECORD
  5
244
102
{ACAD_REACTORS
330
235
102
}
330
235
100
AcDbXrecord
 70
     0
  0
XRECORD
  5
245
102
{ACAD_REACTORS
330
235
102
}
330
235
100
AcDbXrecord
340
0
  0
XRECORD
  5
246
102
{ACAD_REACTORS
330
235
102
}
330
235
100
AcDbXrecord
 10
0.0
 20
0.0
 30
0.0
  0
XRECORD
  5
247
102
{ACAD_REACTORS
330
235
102
}
330
235
100
AcDbXrecord
 10
0.0
 20
0.0
 30
0.0
  0
XRECORD
  5
248
102
{ACAD_REACTORS
330
235
102
}
330
235
100
AcDbXrecord
 10
0.0
 20
0.0
 30
0.0
  0
XRECORD
  5
249
102
{ACAD_REACTORS
330
235
102
}
330
235
100
AcDbXrecord
 10
0.0
 20
0.0
 30
0.0
  0
XRECORD
  5
24A
102
{ACAD_REACTORS
330
235
102
}
330
235
100
AcDbXrecord
 10
0.0
 20
0.0
 30
0.0
  0
XRECORD
  5
24B
102
{ACAD_REACTORS
330
235
102
}
330
235
100
AcDbXrecord
 10
0.0
 20
0.0
 30
0.0
  0
XRECORD
  5
24C
102
{ACAD_REACTORS
330
235
102
}
330
235
100
AcDbXrecord
340
0
  0
XRECORD
  5
24D
102
{ACAD_REACTORS
330
235
102
}
330
235
100
AcDbXrecord
 70
     0
  0
XRECORD
  5
24E
102
{ACAD_REACTORS
330
235
102
}
330
235
100
AcDbXrecord
340
0
  0
XRECORD
  5
24F
102
{ACAD_REACTORS
330
235
102
}
330
235
100
AcDbXrecord
 10
0.0
 20
0.0
 30
0.0
  0
XRECORD
  5
250
102
{ACAD_REACTORS
330
235
102
}
330
235
100
AcDbXrecord
 10
0.0
 20
0.0
 30
0.0
  0
XRECORD
  5
251
102
{ACAD_REACTORS
330
235
102
}
330
235
100
AcDbXrecord
 10
0.0
 20
0.0
 30
0.0
  0
XRECORD
  5
252
102
{ACAD_REACTORS
330
235
102
}
330
235
100
AcDbXrecord
 10
0.0
 20
0.0
 30
0.0
  0
XRECORD
  5
253
102
{ACAD_REACTORS
330
235
102
}
330
235
100
AcDbXrecord
 10
0.0
 20
0.0
 30
0.0
  0
XRECORD
  5
254
102
{ACAD_REACTORS
330
235
102
}
330
235
100
AcDbXrecord
 10
0.0
 20
0.0
 30
0.0
  0
ENDSEC
  0
EOF
