  0
SECTION
  2
HEADER
  9
$ACADVER
  1
AC1012
  9
$DWGCODEPAGE
  3
dos932
  9
$INSBASE
 10
0.0
 20
0.0
 30
0.0
  9
$EXTMIN
 10
-79.12791320120845
 20
-56.0878803812659
 30
-0.0015258207003583
  9
$EXTMAX
 10
100.1322060462974
 20
34.13051281702837
 30
0.0000000349246037
  9
$LIMMIN
 10
-123.676361
 20
-121.479095
  9
$LIMMAX
 10
169.950012
 20
36.0
  9
$ORTHOMODE
 70
     0
  9
$REGENMODE
 70
     1
  9
$FILLMODE
 70
     1
  9
$QTEXTMODE
 70
     0
  9
$MIRRTEXT
 70
     1
  9
$DRAGMODE
 70
     2
  9
$LTSCALE
 40
1.0
  9
$OSMODE
 70
    37
  9
$ATTMODE
 70
     1
  9
$TEXTSIZE
 40
4.1672
  9
$TRACEWID
 40
0.05
  9
$TEXTSTYLE
  7
STANDARD
  9
$CLAYER
  8
0
  9
$CELTYPE
  6
CONTINUOUS
  9
$CECOLOR
 62
   256
  9
$CELTSCALE
 40
1.0
  9
$DELOBJ
 70
     1
  9
$DISPSILH
 70
     0
  9
$DIMSCALE
 40
1.0
  9
$DIMASZ
 40
0.18
  9
$DIMEXO
 40
0.0625
  9
$DIMDLI
 40
0.38
  9
$DIMRND
 40
0.0
  9
$DIMDLE
 40
0.0
  9
$DIMEXE
 40
0.18
  9
$DIMTP
 40
0.0
  9
$DIMTM
 40
0.0
  9
$DIMTXT
 40
0.18
  9
$DIMCEN
 40
0.09
  9
$DIMTSZ
 40
0.0
  9
$DIMTOL
 70
     0
  9
$DIMLIM
 70
     0
  9
$DIMTIH
 70
     1
  9
$DIMTOH
 70
     1
  9
$DIMSE1
 70
     0
  9
$DIMSE2
 70
     0
  9
$DIMTAD
 70
     0
  9
$DIMZIN
 70
     0
  9
$DIMBLK
  1

  9
$DIMASO
 70
     1
  9
$DIMSHO
 70
     1
  9
$DIMPOST
  1

  9
$DIMAPOST
  1

  9
$DIMALT
 70
     0
  9
$DIMALTD
 70
     2
  9
$DIMALTF
 40
25.4
  9
$DIMLFAC
 40
1.0
  9
$DIMTOFL
 70
     0
  9
$DIMTVP
 40
0.0
  9
$DIMTIX
 70
     0
  9
$DIMSOXD
 70
     0
  9
$DIMSAH
 70
     0
  9
$DIMBLK1
  1

  9
$DIMBLK2
  1

  9
$DIMSTYLE
  2
STANDARD
  9
$DIMCLRD
 70
     0
  9
$DIMCLRE
 70
     0
  9
$DIMCLRT
 70
     0
  9
$DIMTFAC
 40
1.0
  9
$DIMGAP
 40
0.09
  9
$DIMJUST
 70
     0
  9
$DIMSD1
 70
     0
  9
$DIMSD2
 70
     0
  9
$DIMTOLJ
 70
     1
  9
$DIMTZIN
 70
     0
  9
$DIMALTZ
 70
     0
  9
$DIMALTTZ
 70
     0
  9
$DIMFIT
 70
     3
  9
$DIMUPT
 70
     0
  9
$DIMUNIT
 70
     2
  9
$DIMDEC
 70
     4
  9
$DIMTDEC
 70
     4
  9
$DIMALTU
 70
     2
  9
$DIMALTTD
 70
     2
  9
$DIMTXSTY
  7
STANDARD
  9
$DIMAUNIT
 70
     0
  9
$LUNITS
 70
     2
  9
$LUPREC
 70
     6
  9
$SKETCHINC
 40
0.1
  9
$FILLETRAD
 40
0.0
  9
$AUNITS
 70
     0
  9
$AUPREC
 70
     4
  9
$MENU
  1
acad
  9
$ELEVATION
 40
0.0
  9
$PELEVATION
 40
0.0
  9
$THICKNESS
 40
0.0
  9
$LIMCHECK
 70
     0
  9
$BLIPMODE
 70
     0
  9
$CHAMFERA
 40
0.0
  9
$CHAMFERB
 40
0.0
  9
$CHAMFERC
 40
0.0
  9
$CHAMFERD
 40
0.0
  9
$SKPOLY
 70
     0
  9
$TDCREATE
 40
2376123.569117917
  9
$TDUPDATE
 40
2451663.694537847
  9
$TDINDWG
 40
0.0008640046
  9
$TDUSRTIMER
 40
0.0008640046
  9
$USRTIMER
 70
     1
  9
$ANGBASE
 50
0.0
  9
$ANGDIR
 70
     0
  9
$PDMODE
 70
     0
  9
$PDSIZE
 40
0.0
  9
$PLINEWID
 40
0.0
  9
$COORDS
 70
     1
  9
$SPLFRAME
 70
     0
  9
$SPLINETYPE
 70
     6
  9
$SPLINESEGS
 70
     8
  9
$ATTDIA
 70
     0
  9
$ATTREQ
 70
     1
  9
$HANDLING
 70
 10241
  9
$HANDSEED
  5
1A1
  9
$SURFTAB1
 70
     6
  9
$SURFTAB2
 70
     6
  9
$SURFTYPE
 70
     6
  9
$SURFU
 70
     6
  9
$SURFV
 70
     6
  9
$UCSNAME
  2
MO_001_VIEW_PV_P
  9
$UCSORG
 10
0.0
 20
0.0
 30
0.0
  9
$UCSXDIR
 10
1.0
 20
0.0
 30
0.0
  9
$UCSYDIR
 10
-0.0000000002051034
 20
1.0
 30
0.0
  9
$PUCSNAME
  2

  9
$PUCSORG
 10
0.0
 20
0.0
 30
0.0
  9
$PUCSXDIR
 10
1.0
 20
0.0
 30
0.0
  9
$PUCSYDIR
 10
0.0
 20
1.0
 30
0.0
  9
$USERI1
 70
     0
  9
$USERI2
 70
     0
  9
$USERI3
 70
     0
  9
$USERI4
 70
     0
  9
$USERI5
 70
     0
  9
$USERR1
 40
0.0
  9
$USERR2
 40
0.0
  9
$USERR3
 40
0.0
  9
$USERR4
 40
0.0
  9
$USERR5
 40
0.0
  9
$WORLDVIEW
 70
     1
  9
$SHADEDGE
 70
     3
  9
$SHADEDIF
 70
    70
  9
$TILEMODE
 70
     1
  9
$MAXACTVP
 70
    16
  9
$PINSBASE
 10
0.0
 20
0.0
 30
0.0
  9
$PLIMCHECK
 70
     0
  9
$PEXTMIN
 10
-123.676361
 20
-121.479095
 30
1.000000000000000E+20
  9
$PEXTMAX
 10
169.950012
 20
36.0
 30
-1.000000000000000E+20
  9
$PLIMMIN
 10
0.0
 20
0.0
  9
$PLIMMAX
 10
12.0
 20
9.0
  9
$UNITMODE
 70
     0
  9
$VISRETAIN
 70
     0
  9
$PLINEGEN
 70
     0
  9
$PSLTSCALE
 70
     1
  9
$TREEDEPTH
 70
  3020
  9
$PICKSTYLE
 70
     1
  9
$CMLSTYLE
  2
STANDARD
  9
$CMLJUST
 70
     0
  9
$CMLSCALE
 40
1.0
  9
$SAVEIMAGES
 70
     1
  0
ENDSEC
  0
SECTION
  2
CLASSES
  0
CLASS
  1
ACDBDICTIONARYWDFLT
  2
AcDbDictionaryWithDefault
  3
AutoCAD 2000
 90
    32768
280
     0
281
     0
  0
CLASS
  1
ACDBPLACEHOLDER
  2
AcDbPlaceHolder
  3
AutoCAD 2000
 90
    32768
280
     0
281
     0
  0
CLASS
  1
LAYOUT
  2
AcDbLayout
  3
AutoCAD 2000
 90
    32768
280
     0
281
     0
  0
CLASS
  1
LONG_TRANSACTION
  2
AcDbLongTransaction
  3
AutoCAD 2000
 90
    32768
280
     0
281
     0
  0
CLASS
  1
LWPOLYLINE
  2
AcDbPolyline
  3
AutoCAD 2000
 90
    32768
280
     0
281
     1
  0
CLASS
  1
HATCH
  2
AcDbHatch
  3
AutoCAD 2000
 90
    32768
280
     0
281
     1
  0
CLASS
  1
XRECORD
  2
AcDbXrecord
  3
AutoCAD 2000
 90
    32768
280
     0
281
     0
  0
ENDSEC
  0
SECTION
  2
TABLES
  0
TABLE
  2
VPORT
  5
7
330
0
100
AcDbSymbolTable
 70
     2
  0
VPORT
  5
198
330
7
100
AcDbSymbolTableRecord
100
AcDbViewportTableRecord
  2
*ACTIVE
 70
     0
 10
0.0
 20
0.0
 11
1.0
 21
1.0
 12
12.07940301686946
 22
-5.138487357356012
 13
0.0
 23
0.0
 14
6.349999999999999
 24
6.349999999999999
 15
6.349999999999999
 25
6.349999999999999
 16
0.0
 26
0.0
 36
1.0
 17
0.0
 27
0.0
 37
0.0
 40
171.2828917233409
 41
1.651785714285714
 42
50.0
 43
0.0
 44
0.0
 50
0.0
 51
0.0
 71
     0
 72
   100
 73
     1
 74
     1
 75
     0
 76
     0
 77
     0
 78
     0
  0
ENDTAB
  0
TABLE
  2
LTYPE
  5
4
330
0
100
AcDbSymbolTable
 70
    37
  0
LTYPE
  5
12
330
4
100
AcDbSymbolTableRecord
100
AcDbLinetypeTableRecord
  2
BYBLOCK
 70
     0
  3

 72
    65
 73
     0
 40
0.0
  0
LTYPE
  5
13
330
4
100
AcDbSymbolTableRecord
100
AcDbLinetypeTableRecord
  2
BYLAYER
 70
     0
  3

 72
    65
 73
     0
 40
0.0
  0
LTYPE
  5
14
330
4
100
AcDbSymbolTableRecord
100
AcDbLinetypeTableRecord
  2
CONTINUOUS
 70
     0
  3
DXF Default line type
 72
    65
 73
     0
 40
0.0
  0
LTYPE
  5
20
330
4
100
AcDbSymbolTableRecord
100
AcDbLinetypeTableRecord
  2
DASHED
 70
     0
  3
DXF Dashed
 72
    65
 73
     2
 40
0.75
 49
0.5
 74
     0
 49
-0.25
 74
     0
  0
LTYPE
  5
21
330
4
100
AcDbSymbolTableRecord
100
AcDbLinetypeTableRecord
  2
HIDDEN
 70
     0
  3
DXF Hidden
 72
    65
 73
     2
 40
0.375
 49
0.25
 74
     0
 49
-0.125
 74
     0
  0
LTYPE
  5
22
330
4
100
AcDbSymbolTableRecord
100
AcDbLinetypeTableRecord
  2
CENTER
 70
     0
  3
DXF Center
 72
    65
 73
     4
 40
2.0
 49
1.25
 74
     0
 49
-0.25
 74
     0
 49
0.25
 74
     0
 49
-0.25
 74
     0
  0
LTYPE
  5
23
330
4
100
AcDbSymbolTableRecord
100
AcDbLinetypeTableRecord
  2
PHANTOM
 70
     0
  3
DXF Phantom
 72
    65
 73
     6
 40
2.5
 49
1.25
 74
     0
 49
-0.25
 74
     0
 49
0.25
 74
     0
 49
-0.25
 74
     0
 49
0.25
 74
     0
 49
-0.25
 74
     0
  0
LTYPE
  5
24
330
4
100
AcDbSymbolTableRecord
100
AcDbLinetypeTableRecord
  2
DOT
 70
     0
  3
DXF DOT
 72
    65
 73
     2
 40
0.25
 49
0.0
 74
     0
 49
-0.25
 74
     0
  0
LTYPE
  5
25
330
4
100
AcDbSymbolTableRecord
100
AcDbLinetypeTableRecord
  2
DASHDOT
 70
     0
  3
DXF Dash Dot
 72
    65
 73
     4
 40
1.0
 49
0.5
 74
     0
 49
-0.25
 74
     0
 49
0.0
 74
     0
 49
-0.25
 74
     0
  0
LTYPE
  5
26
330
4
100
AcDbSymbolTableRecord
100
AcDbLinetypeTableRecord
  2
BORDER
 70
     0
  3
DXF Border
 72
    65
 73
     6
 40
1.75
 49
0.5
 74
     0
 49
-0.25
 74
     0
 49
0.5
 74
     0
 49
-0.25
 74
     0
 49
0.0
 74
     0
 49
-0.25
 74
     0
  0
LTYPE
  5
27
330
4
100
AcDbSymbolTableRecord
100
AcDbLinetypeTableRecord
  2
DIVIDE
 70
     0
  3
DXF Divide
 72
    65
 73
     6
 40
1.25
 49
0.5
 74
     0
 49
-0.25
 74
     0
 49
0.0
 74
     0
 49
-0.25
 74
     0
 49
0.0
 74
     0
 49
-0.25
 74
     0
  0
LTYPE
  5
28
330
4
100
AcDbSymbolTableRecord
100
AcDbLinetypeTableRecord
  2
C_SOLID_L
 70
     0
  3
CADAM Solid Light
 72
    65
 73
     0
 40
0.0
  0
LTYPE
  5
29
330
4
100
AcDbSymbolTableRecord
100
AcDbLinetypeTableRecord
  2
C_SOLID_M
 70
     0
  3
CADAM Solid Medium
 72
    65
 73
     0
 40
0.0
  0
LTYPE
  5
2A
330
4
100
AcDbSymbolTableRecord
100
AcDbLinetypeTableRecord
  2
C_SOLID_H
 70
     0
  3
CADAM Solid Heavy
 72
    65
 73
     0
 40
0.0
  0
LTYPE
  5
2B
330
4
100
AcDbSymbolTableRecord
100
AcDbLinetypeTableRecord
  2
C_DASHED_L
 70
     0
  3
CADAM Dashed Light
 72
    65
 73
     2
 40
0.375
 49
0.25
 74
     0
 49
-0.125
 74
     0
  0
LTYPE
  5
2C
330
4
100
AcDbSymbolTableRecord
100
AcDbLinetypeTableRecord
  2
C_DASHED_M
 70
     0
  3
CADAM Dashed Medium
 72
    65
 73
     2
 40
0.5
 49
0.375
 74
     0
 49
-0.125
 74
     0
  0
LTYPE
  5
2D
330
4
100
AcDbSymbolTableRecord
100
AcDbLinetypeTableRecord
  2
C_CENTER_L
 70
     0
  3
CADAM Center Light
 72
    65
 73
     4
 40
2.0
 49
1.25
 74
     0
 49
-0.25
 74
     0
 49
0.25
 74
     0
 49
-0.25
 74
     0
  0
LTYPE
  5
2E
330
4
100
AcDbSymbolTableRecord
100
AcDbLinetypeTableRecord
  2
C_PHANTOM_L
 70
     0
  3
CADAM Phantom Light
 72
    65
 73
     6
 40
2.5
 49
1.25
 74
     0
 49
-0.25
 74
     0
 49
0.25
 74
     0
 49
-0.25
 74
     0
 49
0.25
 74
     0
 49
-0.25
 74
     0
  0
LTYPE
  5
2F
330
4
100
AcDbSymbolTableRecord
100
AcDbLinetypeTableRecord
  2
C_BREAK_M
 70
     0
  3
CADAM Break Medium
 72
    65
 73
     4
 40
1.0
 49
0.5
 74
     0
 49
-0.25
 74
     0
 49
0.0
 74
     0
 49
-0.25
 74
     0
  0
LTYPE
  5
30
330
4
100
AcDbSymbolTableRecord
100
AcDbLinetypeTableRecord
  2
C_NC
 70
     0
  3
CADAM NC
 72
    65
 73
     0
 40
0.0
  0
LTYPE
  5
31
330
4
100
AcDbSymbolTableRecord
100
AcDbLinetypeTableRecord
  2
DSH1
 70
     0
  3
CADAM Style2 Type 1 Dashed Line
 72
    65
 73
     2
 40
0.075
 49
0.04
 74
     0
 49
-0.035
 74
     0
  0
LTYPE
  5
32
330
4
100
AcDbSymbolTableRecord
100
AcDbLinetypeTableRecord
  2
DSH2
 70
     0
  3
CADAM Style2 Type 2 Dashed Line
 72
    65
 73
     2
 40
0.15
 49
0.11
 74
     0
 49
-0.04
 74
     0
  0
LTYPE
  5
33
330
4
100
AcDbSymbolTableRecord
100
AcDbLinetypeTableRecord
  2
DSH3
 70
     0
  3
CADAM Style2 Type 3 Dashed Line
 72
    65
 73
     2
 40
0.2
 49
0.15
 74
     0
 49
-0.05
 74
     0
  0
LTYPE
  5
34
330
4
100
AcDbSymbolTableRecord
100
AcDbLinetypeTableRecord
  2
DSH4
 70
     0
  3
CADAM Style2 Type 4 Dashed Line
 72
    65
 73
     2
 40
0.36
 49
0.28
 74
     0
 49
-0.08
 74
     0
  0
LTYPE
  5
35
330
4
100
AcDbSymbolTableRecord
100
AcDbLinetypeTableRecord
  2
DSH5
 70
     0
  3
CADAM Style2 Type 5 Dashed Line
 72
    65
 73
     2
 40
0.47
 49
0.39
 74
     0
 49
-0.08
 74
     0
  0
LTYPE
  5
36
330
4
100
AcDbSymbolTableRecord
100
AcDbLinetypeTableRecord
  2
DSH6
 70
     0
  3
CADAM Style2 Type 6 Dashed Line
 72
    65
 73
     2
 40
0.9
 49
0.8100000000000001
 74
     0
 49
-0.09
 74
     0
  0
LTYPE
  5
37
330
4
100
AcDbSymbolTableRecord
100
AcDbLinetypeTableRecord
  2
PL1
 70
     0
  3
Style 2 Type 1 Phantom Line
 72
    65
 73
     6
 40
1.0
 49
0.6
 74
     0
 49
-0.08
 74
     0
 49
0.08
 74
     0
 49
-0.08
 74
     0
 49
0.08
 74
     0
 49
-0.08
 74
     0
  0
LTYPE
  5
38
330
4
100
AcDbSymbolTableRecord
100
AcDbLinetypeTableRecord
  2
PL2
 70
     0
  3
Style 2 Type 2 Phantom Line
 72
    65
 73
     6
 40
1.08
 49
0.6
 74
     0
 49
-0.08
 74
     0
 49
0.12
 74
     0
 49
-0.08
 74
     0
 49
0.12
 74
     0
 49
-0.08
 74
     0
  0
LTYPE
  5
39
330
4
100
AcDbSymbolTableRecord
100
AcDbLinetypeTableRecord
  2
PL3
 70
     0
  3
Style 2 Type 3 Phantom Line
 72
    65
 73
     6
 40
2.0
 49
1.439999999999999
 74
     0
 49
-0.08
 74
     0
 49
0.16
 74
     0
 49
-0.08
 74
     0
 49
0.16
 74
     0
 49
-0.08
 74
     0
  0
LTYPE
  5
3A
330
4
100
AcDbSymbolTableRecord
100
AcDbLinetypeTableRecord
  2
CL1
 70
     0
  3
CADAM Style 2 Type 1 Center Line
 72
    65
 73
     4
 40
0.7
 49
0.45
 74
     0
 49
-0.06
 74
     0
 49
0.13
 74
     0
 49
-0.06
 74
     0
  0
LTYPE
  5
3B
330
4
100
AcDbSymbolTableRecord
100
AcDbLinetypeTableRecord
  2
CL2
 70
     0
  3
CADAM Style 2 Type 2 Center Line
 72
    65
 73
     4
 40
1.199999999999999
 49
1.01
 74
     0
 49
-0.06
 74
     0
 49
0.11
 74
     0
 49
-0.06
 74
     0
  0
LTYPE
  5
3C
330
4
100
AcDbSymbolTableRecord
100
AcDbLinetypeTableRecord
  2
CL3
 70
     0
  3
CADAM Style 2 Type 3 Center Line
 72
    65
 73
     4
 40
1.199999999999999
 49
0.98
 74
     0
 49
-0.06
 74
     0
 49
0.1
 74
     0
 49
-0.06
 74
     0
  0
LTYPE
  5
3D
330
4
100
AcDbSymbolTableRecord
100
AcDbLinetypeTableRecord
  2
CL4
 70
     0
  3
CADAM Style 2 Type 4 Center Line
 72
    65
 73
     4
 40
2.2
 49
1.929999999999999
 74
     0
 49
-0.07
 74
     0
 49
0.13
 74
     0
 49
-0.07
 74
     0
  0
LTYPE
  5
3E
330
4
100
AcDbSymbolTableRecord
100
AcDbLinetypeTableRecord
  2
CL5
 70
     0
  3
CADAM Style 2 Type 5 Center Line
 72
    65
 73
     4
 40
2.2
 49
1.879999999999999
 74
     0
 49
-0.07
 74
     0
 49
0.18
 74
     0
 49
-0.07
 74
     0
  0
LTYPE
  5
3F
330
4
100
AcDbSymbolTableRecord
100
AcDbLinetypeTableRecord
  2
SBK1
 70
     0
  3
CADAM Style 2 Type 1 SetBack Line
 72
    65
 73
     8
 40
2.7
 49
0.1
 74
     0
 49
-0.08
 74
     0
 49
0.1
 74
     0
 49
-0.8
 74
     0
 49
0.0
 74
     0
 49
0.0
 74
     0
 49
0.0
 74
     0
 49
0.0
 74
     0
  0
LTYPE
  5
40
330
4
100
AcDbSymbolTableRecord
100
AcDbLinetypeTableRecord
  2
SBK2
 70
     0
  3
CADAM Style 2 Type 2 SetBack Line
 72
    65
 73
     8
 40
3.709999999999999
 49
0.13
 74
     0
 49
-0.08
 74
     0
 49
0.13
 74
     0
 49
-0.8
 74
     0
 49
0.0
 74
     0
 49
0.0
 74
     0
 49
0.0
 74
     0
 49
0.0
 74
     0
  0
LTYPE
  5
41
330
4
100
AcDbSymbolTableRecord
100
AcDbLinetypeTableRecord
  2
STCH
 70
     0
  3
CADAM Style2 Stitch Line
 72
    65
 73
     2
 40
0.25
 49
0.0
 74
     0
 49
-0.25
 74
     0
  0
LTYPE
  5
42
330
4
100
AcDbSymbolTableRecord
100
AcDbLinetypeTableRecord
  2
MTCH
 70
     0
  3
CADAM Style2 Match Line
 72
    65
 73
     6
 40
2.0
 49
1.439999999999999
 74
     0
 49
-0.8
 74
     0
 49
0.16
 74
     0
 49
-0.08
 74
     0
 49
0.16
 74
     0
 49
-0.08
 74
     0
  0
LTYPE
  5
43
330
4
100
AcDbSymbolTableRecord
100
AcDbLinetypeTableRecord
  2
SLD
 70
     0
  3
CADAM Solid_EXT2
 72
    65
 73
     0
 40
0.0
  0
ENDTAB
  0
TABLE
  2
LAYER
  5
2
330
0
100
AcDbSymbolTable
 70
     7
  0
LAYER
  5
15
330
2
100
AcDbSymbolTableRecord
100
AcDbLayerTableRecord
  2
0
 70
     0
 62
     7
  6
CONTINUOUS
  0
LAYER
  5
44
330
2
100
AcDbSymbolTableRecord
100
AcDbLayerTableRecord
  2
MO_001_NOSHOW
 70
     1
 62
     7
  6
CONTINUOUS
  0
LAYER
  5
45
330
2
100
AcDbSymbolTableRecord
100
AcDbLayerTableRecord
  2
MO_001_VIEW_PV
 70
     0
 62
     7
  6
CONTINUOUS
  0
LAYER
  5
46
330
2
100
AcDbSymbolTableRecord
100
AcDbLayerTableRecord
  2
OVERLAY_MAP
 70
     1
 62
     7
  6
CONTINUOUS
  0
LAYER
  5
47
330
2
100
AcDbSymbolTableRecord
100
AcDbLayerTableRecord
  2
DITTOS
 70
     0
 62
     7
  6
CONTINUOUS
  0
LAYER
  5
48
330
2
100
AcDbSymbolTableRecord
100
AcDbLayerTableRecord
  2
SYMBOLS
 70
     0
 62
     7
  6
CONTINUOUS
  0
LAYER
  5
49
330
2
100
AcDbSymbolTableRecord
100
AcDbLayerTableRecord
  2
SETS
 70
     0
 62
     7
  6
CONTINUOUS
  0
ENDTAB
  0
TABLE
  2
STYLE
  5
3
330
0
100
AcDbSymbolTable
 70
     1
  0
STYLE
  5
18
330
3
100
AcDbSymbolTableRecord
100
AcDbTextStyleTableRecord
  2
STANDARD
 70
     0
 40
4.1672
 41
1.0
 50
0.0
 71
     0
 42
4.1672
  3
monotxt
  4
BIGFONT
  0
ENDTAB
  0
TABLE
  2
VIEW
  5
5
330
0
100
AcDbSymbolTable
 70
     0
  0
ENDTAB
  0
TABLE
  2
UCS
  5
6
330
0
100
AcDbSymbolTable
 70
     4
  0
UCS
  5
4A
330
6
100
AcDbSymbolTableRecord
100
AcDbUCSTableRecord
  2
MO_001_VIEW_PV_P
 70
     0
 10
0.0
 20
0.0
 30
0.0
 11
1.0
 21
0.0
 31
0.0
 12
-0.0000000002051034
 22
1.0
 32
0.0
  0
UCS
  5
4B
330
6
100
AcDbSymbolTableRecord
100
AcDbUCSTableRecord
  2
MO_001_VIEW_PV_NP_000199
 70
     0
 10
-44.25102233886719
 20
-99.18939208984376
 30
0.0
 11
1.0
 21
0.0
 31
0.0
 12
-0.0000000002051034
 22
1.0
 32
0.0
  0
UCS
  5
4C
330
6
100
AcDbSymbolTableRecord
100
AcDbUCSTableRecord
  2
MO_001_VIEW_PV_NP_000166
 70
     0
 10
-123.6763610839843
 20
-121.4790954589843
 30
0.0
 11
1.0
 21
0.0
 31
0.0
 12
-0.0000000002051034
 22
1.0
 32
0.0
  0
UCS
  5
4D
330
6
100
AcDbSymbolTableRecord
100
AcDbUCSTableRecord
  2
MO_001_VIEW_PV_NP_000155
 70
     0
 10
0.0
 20
0.0
 30
0.0
 11
1.0
 21
0.0
 31
0.0
 12
-0.0000000002051034
 22
1.0
 32
0.0
  0
ENDTAB
  0
TABLE
  2
APPID
  5
8
330
0
100
AcDbSymbolTable
 70
     1
  0
APPID
  5
17
330
8
100
AcDbSymbolTableRecord
100
AcDbRegAppTableRecord
  2
ACAD
 70
     0
  0
ENDTAB
  0
TABLE
  2
DIMSTYLE
  5
9
330
0
100
AcDbSymbolTable
 70
     1
  0
DIMSTYLE
105
19
102
{ACAD_REACTORS
330
11F
330
121
330
123
330
125
330
127
330
129
330
12B
330
12D
330
12F
102
}
330
9
100
AcDbSymbolTableRecord
100
AcDbDimStyleTableRecord
  2
STANDARD
 70
     0
  3

  4

  5

  6

  7

 40
1.0
 41
0.18
 42
0.0625
 43
0.38
 44
0.18
 45
0.0
 46
0.0
 47
0.0
 48
0.0
140
0.18
141
0.09
142
0.0
143
25.4
144
1.0
145
0.0
146
1.0
147
0.09
 71
     0
 72
     0
 73
     1
 74
     1
 75
     0
 76
     0
 77
     0
 78
     0
170
     0
171
     2
172
     0
173
     0
174
     0
175
     0
176
     0
177
     0
178
     0
270
     2
271
     4
272
     4
273
     2
274
     2
340
18
275
     0
280
     0
281
     0
282
     0
283
     1
284
     0
285
     0
286
     0
287
     3
288
     0
  0
ENDTAB
  0
TABLE
  2
BLOCK_RECORD
  5
C
330
0
100
AcDbSymbolTable
 70
     9
  0
BLOCK_RECORD
  5
1E
102
{ACAD_XDICTIONARY
360
199
102
}
330
C
100
AcDbSymbolTableRecord
100
AcDbBlockTableRecord
  2
*MODEL_SPACE
  0
BLOCK_RECORD
  5
1F
102
{ACAD_XDICTIONARY
360
19B
102
}
330
C
100
AcDbSymbolTableRecord
100
AcDbBlockTableRecord
  2
*PAPER_SPACE
  0
BLOCK_RECORD
  5
11E
330
C
100
AcDbSymbolTableRecord
100
AcDbBlockTableRecord
  2
*D0
  0
BLOCK_RECORD
  5
120
330
C
100
AcDbSymbolTableRecord
100
AcDbBlockTableRecord
  2
*D1
  0
BLOCK_RECORD
  5
122
330
C
100
AcDbSymbolTableRecord
100
AcDbBlockTableRecord
  2
*D2
  0
BLOCK_RECORD
  5
124
330
C
100
AcDbSymbolTableRecord
100
AcDbBlockTableRecord
  2
*D3
  0
BLOCK_RECORD
  5
126
330
C
100
AcDbSymbolTableRecord
100
AcDbBlockTableRecord
  2
*D4
  0
BLOCK_RECORD
  5
128
330
C
100
AcDbSymbolTableRecord
100
AcDbBlockTableRecord
  2
*D5
  0
BLOCK_RECORD
  5
12A
330
C
100
AcDbSymbolTableRecord
100
AcDbBlockTableRecord
  2
*D6
  0
BLOCK_RECORD
  5
12C
330
C
100
AcDbSymbolTableRecord
100
AcDbBlockTableRecord
  2
*D7
  0
BLOCK_RECORD
  5
12E
330
C
100
AcDbSymbolTableRecord
100
AcDbBlockTableRecord
  2
*D8
  0
ENDTAB
  0
ENDSEC
  0
SECTION
  2
BLOCKS
  0
BLOCK
  5
E
330
1E
100
AcDbEntity
  8
0
100
AcDbBlockBegin
  2
*MODEL_SPACE
 70
     0
 10
0.0
 20
0.0
 30
0.0
  3
*MODEL_SPACE
  1

  0
ENDBLK
  5
F
330
1E
100
AcDbEntity
  8
0
100
AcDbBlockEnd
  0
BLOCK
  5
10
330
1F
100
AcDbEntity
 67
     1
  8
0
100
AcDbBlockBegin
  2
*PAPER_SPACE
 70
     0
 10
0.0
 20
0.0
 30
0.0
  3
*PAPER_SPACE
  1

  0
ENDBLK
  5
11
330
1F
100
AcDbEntity
 67
     1
  8
0
100
AcDbBlockEnd
  0
BLOCK
  5
136
330
11E
100
AcDbEntity
  8
0
100
AcDbBlockBegin
  2
*D0
 70
     1
 10
0.0
 20
0.0
 30
0.0
  3
*D0
  1

  0
TEXT
  5
137
330
11E
100
AcDbEntity
  8
MO_001_VIEW_PV
  6
BYBLOCK
100
AcDbText
 10
-11.735707
 20
32.625
 30
0.0
 40
1.5
  1
%%P1.0
100
AcDbText
  0
TEXT
  5
138
330
11E
100
AcDbEntity
  8
MO_001_VIEW_PV
  6
BYBLOCK
100
AcDbText
 10
-23.521422
 20
30.75
 30
0.0
 40
3.0
  1
29.8
100
AcDbText
  0
LINE
  5
139
330
11E
100
AcDbEntity
  8
MO_001_VIEW_PV
  6
BYBLOCK
100
AcDbLine
 10
-29.89998599999999
 20
30.0
 30
0.0
 11
0.0
 21
30.0
 31
0.0
  0
SOLID
  5
13A
330
11E
100
AcDbEntity
  8
MO_001_VIEW_PV
  6
BYBLOCK
100
AcDbTrace
 10
-26.581726
 20
30.583512
 30
0.0
 11
-29.391986
 21
30.0
 31
0.0
 12
-26.581726
 22
29.416488
 32
0.0
 13
-26.581726
 23
29.416488
 33
0.0
  0
SOLID
  5
13B
330
11E
100
AcDbEntity
  8
MO_001_VIEW_PV
  6
BYBLOCK
100
AcDbTrace
 10
-3.318259999999999
 20
29.416488
 30
0.0
 11
-0.508
 21
30.0
 31
0.0
 12
-3.318259999999999
 22
30.583512
 32
0.0
 13
-3.318259999999999
 23
30.583512
 33
0.0
  0
LINE
  5
13C
330
11E
100
AcDbEntity
  8
MO_001_VIEW_PV
  6
BYBLOCK
100
AcDbLine
 10
-29.89998599999999
 20
2.234411999999999
 30
0.0
 11
-29.89998599999999
 21
32.28599899999999
 31
0.0
  0
LINE
  5
13D
330
11E
100
AcDbEntity
  8
MO_001_VIEW_PV
  6
BYBLOCK
100
AcDbLine
 10
0.0
 20
14.69999999999999
 30
0.0
 11
0.0
 21
32.28599899999999
 31
0.0
  0
ENDBLK
  5
13E
330
11E
100
AcDbEntity
  8
0
100
AcDbBlockEnd
  0
BLOCK
  5
13F
330
120
100
AcDbEntity
  8
0
100
AcDbBlockBegin
  2
*D1
 70
     1
 10
0.0
 20
0.0
 30
0.0
  3
*D1
  1

  0
TEXT
  5
140
330
120
100
AcDbEntity
  8
MO_001_VIEW_PV
  6
BYBLOCK
100
AcDbText
 10
28.342376
 20
32.625
 30
0.0
 40
1.5
  1
%%P0.5
100
AcDbText
  0
TEXT
  5
141
330
120
100
AcDbEntity
  8
MO_001_VIEW_PV
  6
BYBLOCK
100
AcDbText
 10
16.55666099999999
 20
30.75
 30
0.0
 40
3.0
  1
15.9
100
AcDbText
  0
LINE
  5
142
330
120
100
AcDbEntity
  8
MO_001_VIEW_PV
  6
BYBLOCK
100
AcDbLine
 10
0.0
 20
30.0
 30
0.0
 11
15.900013
 21
30.0
 31
0.0
  0
SOLID
  5
143
330
120
100
AcDbEntity
  8
MO_001_VIEW_PV
  6
BYBLOCK
100
AcDbTrace
 10
3.318259999999999
 20
30.583512
 30
0.0
 11
0.508
 21
30.0
 31
0.0
 12
3.318259999999999
 22
29.416488
 32
0.0
 13
3.318259999999999
 23
29.416488
 33
0.0
  0
SOLID
  5
144
330
120
100
AcDbEntity
  8
MO_001_VIEW_PV
  6
BYBLOCK
100
AcDbTrace
 10
12.58175299999999
 20
29.416488
 30
0.0
 11
15.392013
 21
30.0
 31
0.0
 12
12.58175299999999
 22
30.583512
 32
0.0
 13
12.58175299999999
 23
30.583512
 33
0.0
  0
LINE
  5
145
330
120
100
AcDbEntity
  8
MO_001_VIEW_PV
  6
BYBLOCK
100
AcDbLine
 10
0.0
 20
14.69999999999999
 30
0.0
 11
0.0
 21
32.28599899999999
 31
0.0
  0
LINE
  5
146
330
120
100
AcDbEntity
  8
MO_001_VIEW_PV
  6
BYBLOCK
100
AcDbLine
 10
15.900013
 20
2.18
 30
0.0
 11
15.900013
 21
32.28599899999999
 31
0.0
  0
LINE
  5
147
330
120
100
AcDbEntity
  8
MO_001_VIEW_PV
  6
BYBLOCK
100
AcDbLine
 10
15.900013
 20
30.0
 30
0.0
 11
34.663803
 21
30.0
 31
0.0
  0
ENDBLK
  5
148
330
120
100
AcDbEntity
  8
0
100
AcDbBlockEnd
  0
BLOCK
  5
149
330
122
100
AcDbEntity
  8
0
100
AcDbBlockBegin
  2
*D2
 70
     1
 10
0.0
 20
0.0
 30
0.0
  3
*D2
  1

  0
TEXT
  5
14A
330
122
100
AcDbEntity
  8
MO_001_VIEW_PV
  6
BYBLOCK
100
AcDbText
 10
29.178077
 20
26.625
 30
0.0
 40
1.5
  1
%%P0.5
100
AcDbText
  0
TEXT
  5
14B
330
122
100
AcDbEntity
  8
MO_001_VIEW_PV
  6
BYBLOCK
100
AcDbText
 10
17.39236199999999
 20
24.75
 30
0.0
 40
3.0
  1
16.7
100
AcDbText
  0
LINE
  5
14C
330
122
100
AcDbEntity
  8
MO_001_VIEW_PV
  6
BYBLOCK
100
AcDbLine
 10
0.0
 20
24.0
 30
0.0
 11
16.700012
 21
24.0
 31
0.0
  0
SOLID
  5
14D
330
122
100
AcDbEntity
  8
MO_001_VIEW_PV
  6
BYBLOCK
100
AcDbTrace
 10
3.318259999999999
 20
24.583512
 30
0.0
 11
0.508
 21
24.0
 31
0.0
 12
3.318259999999999
 22
23.416488
 32
0.0
 13
3.318259999999999
 23
23.416488
 33
0.0
  0
SOLID
  5
14E
330
122
100
AcDbEntity
  8
MO_001_VIEW_PV
  6
BYBLOCK
100
AcDbTrace
 10
13.381752
 20
23.416488
 30
0.0
 11
16.192012
 21
24.0
 31
0.0
 12
13.381752
 22
24.583512
 32
0.0
 13
13.381752
 23
24.583512
 33
0.0
  0
LINE
  5
14F
330
122
100
AcDbEntity
  8
MO_001_VIEW_PV
  6
BYBLOCK
100
AcDbLine
 10
0.0
 20
14.69999999999999
 30
0.0
 11
0.0
 21
26.285999
 31
0.0
  0
LINE
  5
150
330
122
100
AcDbEntity
  8
MO_001_VIEW_PV
  6
BYBLOCK
100
AcDbLine
 10
16.700012
 20
12.100005
 30
0.0
 11
16.700012
 21
26.285999
 31
0.0
  0
LINE
  5
151
330
122
100
AcDbEntity
  8
MO_001_VIEW_PV
  6
BYBLOCK
100
AcDbLine
 10
16.700012
 20
24.0
 30
0.0
 11
35.49950399999999
 21
24.0
 31
0.0
  0
ENDBLK
  5
152
330
122
100
AcDbEntity
  8
0
100
AcDbBlockEnd
  0
BLOCK
  5
153
330
124
100
AcDbEntity
  8
0
100
AcDbBlockBegin
  2
*D3
 70
     1
 10
0.0
 20
0.0
 30
0.0
  3
*D3
  1

  0
TEXT
  5
154
330
124
100
AcDbEntity
  8
MO_001_VIEW_PV
  6
BYBLOCK
100
AcDbText
 10
-14.421422
 20
24.75
 30
0.0
 40
3.0
  1
18以下
100
AcDbText
  0
LINE
  5
155
330
124
100
AcDbEntity
  8
MO_001_VIEW_PV
  6
BYBLOCK
100
AcDbLine
 10
-17.699987
 20
24.0
 30
0.0
 11
0.0
 21
24.0
 31
0.0
  0
SOLID
  5
156
330
124
100
AcDbEntity
  8
MO_001_VIEW_PV
  6
BYBLOCK
100
AcDbTrace
 10
-14.38172699999999
 20
24.583512
 30
0.0
 11
-17.191987
 21
24.0
 31
0.0
 12
-14.38172699999999
 22
23.416488
 32
0.0
 13
-14.38172699999999
 23
23.416488
 33
0.0
  0
SOLID
  5
157
330
124
100
AcDbEntity
  8
MO_001_VIEW_PV
  6
BYBLOCK
100
AcDbTrace
 10
-3.318259999999999
 20
23.416488
 30
0.0
 11
-0.508
 21
24.0
 31
0.0
 12
-3.318259999999999
 22
24.583512
 32
0.0
 13
-3.318259999999999
 23
24.583512
 33
0.0
  0
LINE
  5
158
330
124
100
AcDbEntity
  8
MO_001_VIEW_PV
  6
BYBLOCK
100
AcDbLine
 10
-17.699987
 20
15.0
 30
0.0
 11
-17.699987
 21
26.285999
 31
0.0
  0
LINE
  5
159
330
124
100
AcDbEntity
  8
MO_001_VIEW_PV
  6
BYBLOCK
100
AcDbLine
 10
0.0
 20
14.69999999999999
 30
0.0
 11
0.0
 21
26.285999
 31
0.0
  0
ENDBLK
  5
15A
330
124
100
AcDbEntity
  8
0
100
AcDbBlockEnd
  0
BLOCK
  5
15B
330
126
100
AcDbEntity
  8
0
100
AcDbBlockBegin
  2
*D4
 70
     1
 10
0.0
 20
0.0
 30
0.0
  3
*D4
  1

  0
LINE
  5
15C
330
126
100
AcDbEntity
  8
MO_001_VIEW_PV
  6
BYBLOCK
100
AcDbLine
 10
39.0
 20
-11.1
 30
0.0
 11
39.0
 21
11.1
 31
0.0
  0
SOLID
  5
15D
330
126
100
AcDbEntity
  8
MO_001_VIEW_PV
  6
BYBLOCK
100
AcDbTrace
 10
38.416488
 20
-7.781739999999999
 30
0.0
 11
39.0
 21
-10.592
 31
0.0
 12
39.583512
 22
-7.781739999999999
 32
0.0
 13
39.583512
 23
-7.781739999999999
 33
0.0
  0
SOLID
  5
15E
330
126
100
AcDbEntity
  8
MO_001_VIEW_PV
  6
BYBLOCK
100
AcDbTrace
 10
39.583512
 20
7.781739999999999
 30
0.0
 11
39.0
 21
10.592
 31
0.0
 12
38.416488
 22
7.781739999999999
 32
0.0
 13
38.416488
 23
7.781739999999999
 33
0.0
  0
LINE
  5
15F
330
126
100
AcDbEntity
  8
MO_001_VIEW_PV
  6
BYBLOCK
100
AcDbLine
 10
60.0
 20
-11.1
 30
0.0
 11
36.713997
 21
-11.1
 31
0.0
  0
LINE
  5
160
330
126
100
AcDbEntity
  8
MO_001_VIEW_PV
  6
BYBLOCK
100
AcDbLine
 10
60.0
 20
11.1
 30
0.0
 11
36.713997
 21
11.1
 31
0.0
  0
TEXT
  5
161
330
126
100
AcDbEntity
  8
MO_001_VIEW_PV
  6
BYBLOCK
100
AcDbText
 10
36.375
 20
3.214285999999999
 30
0.0
 40
1.5
  1
%%P0.3
 50
90.0
100
AcDbText
  0
TEXT
  5
162
330
126
100
AcDbEntity
  8
MO_001_VIEW_PV
  6
BYBLOCK
100
AcDbText
 10
38.25
 20
-8.571429
 30
0.0
 40
3.0
  1
22.2
 50
90.0
100
AcDbText
  0
ENDBLK
  5
163
330
126
100
AcDbEntity
  8
0
100
AcDbBlockEnd
  0
BLOCK
  5
164
330
128
100
AcDbEntity
  8
0
100
AcDbBlockBegin
  2
*D5
 70
     1
 10
0.0
 20
0.0
 30
0.0
  3
*D5
  1

  0
TEXT
  5
165
330
128
100
AcDbEntity
  8
MO_001_VIEW_PV
  6
BYBLOCK
100
AcDbText
 10
55.92857099999999
 20
30.75
 30
0.0
 40
3.0
  1
%%C34以下
100
AcDbText
  0
LINE
  5
166
330
128
100
AcDbEntity
  8
MO_001_VIEW_PV
  6
BYBLOCK
100
AcDbLine
 10
46.349998
 20
30.0
 30
0.0
 11
79.650002
 21
30.0
 31
0.0
  0
SOLID
  5
167
330
128
100
AcDbEntity
  8
MO_001_VIEW_PV
  6
BYBLOCK
100
AcDbTrace
 10
49.66825899999999
 20
30.583512
 30
0.0
 11
46.85799799999999
 21
30.0
 31
0.0
 12
49.66825899999999
 22
29.416488
 32
0.0
 13
49.66825899999999
 23
29.416488
 33
0.0
  0
SOLID
  5
168
330
128
100
AcDbEntity
  8
MO_001_VIEW_PV
  6
BYBLOCK
100
AcDbTrace
 10
76.33174100000001
 20
29.416488
 30
0.0
 11
79.142002
 21
30.0
 31
0.0
 12
76.33174100000001
 22
30.583512
 32
0.0
 13
76.33174100000001
 23
30.583512
 33
0.0
  0
LINE
  5
169
330
128
100
AcDbEntity
  8
MO_001_VIEW_PV
  6
BYBLOCK
100
AcDbLine
 10
46.349998
 20
0.0
 30
0.0
 11
46.349998
 21
32.28599899999999
 31
0.0
  0
LINE
  5
16A
330
128
100
AcDbEntity
  8
MO_001_VIEW_PV
  6
BYBLOCK
100
AcDbLine
 10
79.650002
 20
0.0
 30
0.0
 11
79.650002
 21
32.28599899999999
 31
0.0
  0
ENDBLK
  5
16B
330
128
100
AcDbEntity
  8
0
100
AcDbBlockEnd
  0
BLOCK
  5
16C
330
12A
100
AcDbEntity
  8
0
100
AcDbBlockBegin
  2
*D6
 70
     1
 10
0.0
 20
0.0
 30
0.0
  3
*D6
  1

  0
TEXT
  5
16D
330
12A
100
AcDbEntity
  8
MO_001_VIEW_PV
  6
BYBLOCK
100
AcDbText
 10
-31.07142899999999
 20
-32.25
 30
0.0
 40
3.0
  1
0.7
100
AcDbText
  0
LINE
  5
16E
330
12A
100
AcDbEntity
  8
MO_001_VIEW_PV
  6
BYBLOCK
100
AcDbLine
 10
-18.399988
 20
-33.0
 30
0.0
 11
-17.699987
 21
-33.0
 31
0.0
  0
LINE
  5
16F
330
12A
100
AcDbEntity
  8
MO_001_VIEW_PV
  6
BYBLOCK
100
AcDbLine
 10
-18.399988
 20
-33.0
 30
0.0
 11
-24.749988
 21
-33.0
 31
0.0
  0
LINE
  5
170
330
12A
100
AcDbEntity
  8
MO_001_VIEW_PV
  6
BYBLOCK
100
AcDbLine
 10
-17.699987
 20
-33.0
 30
0.0
 11
-11.34998799999999
 21
-33.0
 31
0.0
  0
SOLID
  5
171
330
12A
100
AcDbEntity
  8
MO_001_VIEW_PV
  6
BYBLOCK
100
AcDbTrace
 10
-21.718248
 20
-33.58351199999999
 30
0.0
 11
-18.90798799999999
 21
-33.0
 31
0.0
 12
-21.718248
 22
-32.416488
 32
0.0
 13
-21.718248
 23
-32.416488
 33
0.0
  0
SOLID
  5
172
330
12A
100
AcDbEntity
  8
MO_001_VIEW_PV
  6
BYBLOCK
100
AcDbTrace
 10
-14.38172699999999
 20
-32.416488
 30
0.0
 11
-17.191987
 21
-33.0
 31
0.0
 12
-14.38172699999999
 22
-33.58351199999999
 32
0.0
 13
-14.38172699999999
 23
-33.58351199999999
 33
0.0
  0
LINE
  5
173
330
12A
100
AcDbEntity
  8
MO_001_VIEW_PV
  6
BYBLOCK
100
AcDbLine
 10
-18.399988
 20
-5.509999999999999
 30
0.0
 11
-18.399988
 21
-35.28599899999999
 31
0.0
  0
LINE
  5
174
330
12A
100
AcDbEntity
  8
MO_001_VIEW_PV
  6
BYBLOCK
100
AcDbLine
 10
-17.699987
 20
-15.0
 30
0.0
 11
-17.699987
 21
-35.28599899999999
 31
0.0
  0
LINE
  5
175
330
12A
100
AcDbEntity
  8
MO_001_VIEW_PV
  6
BYBLOCK
100
AcDbLine
 10
-32.035713
 20
-33.0
 30
0.0
 11
-18.399988
 21
-33.0
 31
0.0
  0
ENDBLK
  5
176
330
12A
100
AcDbEntity
  8
0
100
AcDbBlockEnd
  0
BLOCK
  5
177
330
12C
100
AcDbEntity
  8
0
100
AcDbBlockBegin
  2
*D7
 70
     1
 10
0.0
 20
0.0
 30
0.0
  3
*D7
  1

  0
TEXT
  5
178
330
12C
100
AcDbEntity
  8
MO_001_VIEW_PV
  6
BYBLOCK
100
AcDbText
 10
24.375
 20
-12.385781
 30
0.0
 40
1.5
  1
%%P0.03
 50
90.0
100
AcDbText
  0
TEXT
  5
179
330
12C
100
AcDbEntity
  8
MO_001_VIEW_PV
  6
BYBLOCK
100
AcDbText
 10
26.25
 20
-27.171496
 30
0.0
 40
3.0
  1
%%C4.76
 50
90.0
100
AcDbText
  0
LINE
  5
17A
330
12C
100
AcDbEntity
  8
MO_001_VIEW_PV
  6
BYBLOCK
100
AcDbLine
 10
27.0
 20
2.379999999999999
 30
0.0
 11
27.0
 21
-2.379999999999999
 31
0.0
  0
LINE
  5
17B
330
12C
100
AcDbEntity
  8
MO_001_VIEW_PV
  6
BYBLOCK
100
AcDbLine
 10
27.0
 20
2.379999999999999
 30
0.0
 11
27.0
 21
8.73
 31
0.0
  0
LINE
  5
17C
330
12C
100
AcDbEntity
  8
MO_001_VIEW_PV
  6
BYBLOCK
100
AcDbLine
 10
27.0
 20
-2.379999999999999
 30
0.0
 11
27.0
 21
-8.73
 31
0.0
  0
SOLID
  5
17D
330
12C
100
AcDbEntity
  8
MO_001_VIEW_PV
  6
BYBLOCK
100
AcDbTrace
 10
26.416488
 20
5.698259999999999
 30
0.0
 11
27.0
 21
2.887999999999999
 31
0.0
 12
27.58351199999999
 22
5.698259999999999
 32
0.0
 13
27.58351199999999
 23
5.698259999999999
 33
0.0
  0
SOLID
  5
17E
330
12C
100
AcDbEntity
  8
MO_001_VIEW_PV
  6
BYBLOCK
100
AcDbTrace
 10
27.58351199999999
 20
-5.698259999999999
 30
0.0
 11
27.0
 21
-2.887999999999999
 31
0.0
 12
26.416488
 22
-5.698259999999999
 32
0.0
 13
26.416488
 23
-5.698259999999999
 33
0.0
  0
LINE
  5
17F
330
12C
100
AcDbEntity
  8
MO_001_VIEW_PV
  6
BYBLOCK
100
AcDbLine
 10
15.700012
 20
2.379999999999999
 30
0.0
 11
29.285999
 21
2.379999999999999
 31
0.0
  0
LINE
  5
180
330
12C
100
AcDbEntity
  8
MO_001_VIEW_PV
  6
BYBLOCK
100
AcDbLine
 10
15.700012
 20
-2.379999999999999
 30
0.0
 11
29.285999
 21
-2.379999999999999
 31
0.0
  0
LINE
  5
181
330
12C
100
AcDbEntity
  8
MO_001_VIEW_PV
  6
BYBLOCK
100
AcDbLine
 10
27.0
 20
-2.379999999999999
 30
0.0
 11
27.0
 21
-28.13578
 31
0.0
  0
ENDBLK
  5
182
330
12C
100
AcDbEntity
  8
0
100
AcDbBlockEnd
  0
BLOCK
  5
183
330
12E
100
AcDbEntity
  8
0
100
AcDbBlockBegin
  2
*D8
 70
     1
 10
0.0
 20
0.0
 30
0.0
  3
*D8
  1

  0
LINE
  5
184
330
12E
100
AcDbEntity
  8
MO_001_VIEW_PV
  6
BYBLOCK
100
AcDbLine
 10
69.550003
 20
-15.30751
 30
0.0
 11
92.28600300000001
 21
-15.30751
 31
0.0
  0
TEXT
  5
185
330
12E
100
AcDbEntity
  8
MO_001_VIEW_PV
  6
BYBLOCK
100
AcDbText
 10
89.25
 20
1.928570999999999
 30
0.0
 40
3.0
  1
長さ250以上
 50
90.0
100
AcDbText
  0
LINE
  5
186
330
12E
100
AcDbEntity
  8
MO_001_VIEW_PV
  6
BYBLOCK
100
AcDbLine
 10
90.0
 20
-40.35633899999999
 30
0.0
 11
90.0
 21
-15.30751
 31
0.0
  0
SOLID
  5
187
330
12E
100
AcDbEntity
  8
MO_001_VIEW_PV
  6
BYBLOCK
100
AcDbTrace
 10
89.41648800000001
 20
-37.038078
 30
0.0
 11
90.0
 21
-39.848339
 31
0.0
 12
90.583512
 22
-37.038078
 32
0.0
 13
90.583512
 23
-37.038078
 33
0.0
  0
SOLID
  5
188
330
12E
100
AcDbEntity
  8
MO_001_VIEW_PV
  6
BYBLOCK
100
AcDbTrace
 10
90.583512
 20
-18.62577
 30
0.0
 11
90.0
 21
-15.81551
 31
0.0
 12
89.41648800000001
 22
-18.62577
 32
0.0
 13
89.41648800000001
 23
-18.62577
 33
0.0
  0
LINE
  5
189
330
12E
100
AcDbEntity
  8
MO_001_VIEW_PV
  6
BYBLOCK
100
AcDbLine
 10
68.800003
 20
-40.35633899999999
 30
0.0
 11
92.28600300000001
 21
-40.35633899999999
 31
0.0
  0
LINE
  5
18A
330
12E
100
AcDbEntity
  8
MO_001_VIEW_PV
  6
BYBLOCK
100
AcDbLine
 10
90.0
 20
-15.30751
 30
0.0
 11
90.0
 21
23.03572099999999
 31
0.0
  0
ENDBLK
  5
18B
330
12E
100
AcDbEntity
  8
0
100
AcDbBlockEnd
  0
ENDSEC
  0
SECTION
  2
ENTITIES
  0
TEXT
  5
4E
330
1E
100
AcDbEntity
  8
OVERLAY_MAP
  6
C_SOLID_L
100
AcDbText
 10
0.0
 20
6.349999999999999
 30
0.0
 40
4.1672
  1
Model Overlay Name
100
AcDbText
  0
TEXT
  5
4F
330
1E
100
AcDbEntity
  8
OVERLAY_MAP
  6
C_SOLID_L
100
AcDbText
 10
126.999998
 20
0.0
 30
0.0
 40
4.1672
  1
Number
100
AcDbText
  0
TEXT
  5
50
330
1E
100
AcDbEntity
  8
OVERLAY_MAP
  6
C_SOLID_L
100
AcDbText
 10
177.7999969999999
 20
0.0
 30
0.0
 40
4.1672
  1
File Text
100
AcDbText
  0
TEXT
  5
51
330
1E
100
AcDbEntity
  8
OVERLAY_MAP
  6
C_SOLID_L
100
AcDbText
 10
0.0
 20
-6.349999999999999
 30
0.0
 40
4.1672
  1
pp 3ef 
100
AcDbText
  0
TEXT
  5
52
330
1E
100
AcDbEntity
  8
OVERLAY_MAP
  6
C_SOLID_L
100
AcDbText
 10
126.999998
 20
-6.349999999999999
 30
0.0
 40
4.1672
  1
001
100
AcDbText
  0
TEXT
  5
53
330
1E
100
AcDbEntity
  8
OVERLAY_MAP
  6
C_SOLID_L
100
AcDbText
 10
177.7999969999999
 20
-6.349999999999999
 30
0.0
 40
4.1672
  1
6S CASE                                              /         140100116
100
AcDbText
  0
POINT
  5
54
330
1E
100
AcDbEntity
  8
MO_001_NOSHOW
  6
C_SOLID_M
100
AcDbPoint
 10
169.950012
 20
-11.1
 30
0.0
  0
POINT
  5
55
330
1E
100
AcDbEntity
  8
MO_001_NOSHOW
  6
C_SOLID_M
100
AcDbPoint
 10
169.950012
 20
-11.1
 30
0.0
  0
ARC
  5
56
330
1E
100
AcDbEntity
  8
MO_001_VIEW_PV
  6
C_SOLID_M
100
AcDbCircle
 10
-57.0
 20
0.0
 30
0.0
 40
16.65
100
AcDbArc
 50
293.16582
 51
246.8341849999999
  0
LINE
  5
57
330
1E
100
AcDbEntity
  8
MO_001_VIEW_PV
  6
C_CENTER_L
100
AcDbLine
 10
-79.11805699999999
 20
0.0
 30
0.0
 11
-34.88194299999999
 21
0.0
 31
0.0
  0
LINE
  5
58
330
1E
100
AcDbEntity
  8
MO_001_VIEW_PV
  6
C_CENTER_L
100
AcDbLine
 10
-57.0
 20
22.118055
 30
0.0
 11
-57.0
 21
-22.118055
 31
0.0
  0
ARC
  5
59
330
1E
100
AcDbEntity
  8
MO_001_VIEW_PV
  6
C_SOLID_M
100
AcDbCircle
 10
-62.550003
 20
-15.69777
 30
0.0
 40
1.7
100
AcDbArc
 50
343.4550619999999
 51
157.6024899999999
  0
ARC
  5
5A
330
1E
100
AcDbEntity
  8
MO_001_VIEW_PV
  6
C_SOLID_M
100
AcDbCircle
 10
-51.44999699999999
 20
-15.69777
 30
0.0
 40
1.7
100
AcDbArc
 50
22.39750499999999
 51
196.544936
  0
LINE
  5
5B
330
1E
100
AcDbEntity
  8
MO_001_VIEW_PV
  6
C_SOLID_M
100
AcDbLine
 10
-0.349991
 20
-16.650002
 30
0.0
 11
-0.349991
 21
16.650002
 31
0.0
  0
LINE
  5
5C
330
1E
100
AcDbEntity
  8
MO_001_VIEW_PV
  6
C_CENTER_L
100
AcDbLine
 10
-32.664951
 20
0.0
 30
0.0
 11
20.648373
 21
0.0
 31
0.0
  0
LINE
  5
5D
330
1E
100
AcDbEntity
  8
MO_001_VIEW_PV
  6
C_SOLID_M
100
AcDbLine
 10
-0.349991
 20
16.650002
 30
0.0
 11
-13.349991
 21
16.650002
 31
0.0
  0
LINE
  5
5E
330
1E
100
AcDbEntity
  8
MO_001_VIEW_PV
  6
C_SOLID_M
100
AcDbLine
 10
-0.349991
 20
-16.650002
 30
0.0
 11
-13.349991
 21
-16.650002
 31
0.0
  0
LINE
  5
5F
330
1E
100
AcDbEntity
  8
MO_001_VIEW_PV
  6
C_SOLID_M
100
AcDbLine
 10
-16.04998799999999
 20
-13.950001
 30
0.0
 11
-16.04998799999999
 21
13.950001
 31
0.0
  0
ARC
  5
60
330
1E
100
AcDbEntity
  8
MO_001_VIEW_PV
  6
C_SOLID_M
100
AcDbCircle
 10
-13.349991
 20
13.950001
 30
0.0
 40
2.7
100
AcDbArc
 50
90.00000899999999
 51
179.9999909999999
  0
ARC
  5
61
330
1E
100
AcDbEntity
  8
MO_001_VIEW_PV
  6
C_SOLID_M
100
AcDbCircle
 10
-13.349991
 20
-13.950001
 30
0.0
 40
2.7
100
AcDbArc
 50
180.000009
 51
218.77237
  0
LINE
  5
62
330
1E
100
AcDbEntity
  8
MO_001_VIEW_PV
  6
C_SOLID_M
100
AcDbLine
 10
-0.299988
 20
-15.0
 30
0.0
 11
-0.349991
 21
-15.0
 31
0.0
  0
LINE
  5
63
330
1E
100
AcDbEntity
  8
MO_001_VIEW_PV
  6
C_SOLID_M
100
AcDbLine
 10
-0.299988
 20
15.0
 30
0.0
 11
-0.349991
 21
15.0
 31
0.0
  0
LINE
  5
64
330
1E
100
AcDbEntity
  8
MO_001_VIEW_PV
  6
C_SOLID_M
100
AcDbLine
 10
-0.299976
 20
-15.000008
 30
0.0
 11
0.000024
 21
-14.700009
 31
0.0
  0
LINE
  5
65
330
1E
100
AcDbEntity
  8
MO_001_VIEW_PV
  6
C_SOLID_M
100
AcDbLine
 10
-0.299976
 20
15.000008
 30
0.0
 11
0.000024
 21
14.700009
 31
0.0
  0
LINE
  5
66
330
1E
100
AcDbEntity
  8
MO_001_VIEW_PV
  6
C_SOLID_M
100
AcDbLine
 10
-0.299988
 20
15.0
 30
0.0
 11
-0.299988
 21
-15.0
 31
0.0
  0
LINE
  5
67
330
1E
100
AcDbEntity
  8
MO_001_VIEW_PV
  6
C_CENTER_L
100
AcDbLine
 10
-3.567322
 20
11.1
 30
0.0
 11
18.092438
 21
11.1
 31
0.0
  0
LINE
  5
68
330
1E
100
AcDbEntity
  8
MO_001_VIEW_PV
  6
C_SOLID_M
100
AcDbLine
 10
0.0
 20
12.6
 30
0.0
 11
16.200012
 21
12.6
 31
0.0
  0
LINE
  5
69
330
1E
100
AcDbEntity
  8
MO_001_VIEW_PV
  6
C_SOLID_M
100
AcDbLine
 10
0.0
 20
9.599999999999999
 30
0.0
 11
16.200012
 21
9.599999999999999
 31
0.0
  0
LINE
  5
6A
330
1E
100
AcDbEntity
  8
MO_001_VIEW_PV
  6
C_SOLID_M
100
AcDbLine
 10
16.700012
 20
12.100005
 30
0.0
 11
16.700012
 21
10.099994
 31
0.0
  0
LINE
  5
6B
330
1E
100
AcDbEntity
  8
MO_001_VIEW_PV
  6
C_SOLID_M
100
AcDbLine
 10
16.19998999999999
 20
12.600004
 30
0.0
 11
16.699992
 21
12.100006
 31
0.0
  0
LINE
  5
6C
330
1E
100
AcDbEntity
  8
MO_001_VIEW_PV
  6
C_SOLID_M
100
AcDbLine
 10
16.200013
 20
9.600001999999999
 30
0.0
 11
16.700017
 21
10.099999
 31
0.0
  0
LINE
  5
6D
330
1E
100
AcDbEntity
  8
MO_001_VIEW_PV
  6
C_SOLID_L
100
AcDbLine
 10
0.0
 20
10.1
 30
0.0
 11
16.700012
 21
10.1
 31
0.0
  0
LINE
  5
6E
330
1E
100
AcDbEntity
  8
MO_001_VIEW_PV
  6
C_SOLID_L
100
AcDbLine
 10
0.0
 20
12.09999999999999
 30
0.0
 11
16.700012
 21
12.09999999999999
 31
0.0
  0
LINE
  5
6F
330
1E
100
AcDbEntity
  8
MO_001_VIEW_PV
  6
C_SOLID_M
100
AcDbLine
 10
16.200012
 20
12.6
 30
0.0
 11
16.200012
 21
9.599999999999999
 31
0.0
  0
LINE
  5
70
330
1E
100
AcDbEntity
  8
MO_001_VIEW_PV
  6
C_CENTER_L
100
AcDbLine
 10
-3.567322
 20
-11.1
 30
0.0
 11
18.092438
 21
-11.1
 31
0.0
  0
LINE
  5
71
330
1E
100
AcDbEntity
  8
MO_001_VIEW_PV
  6
C_SOLID_M
100
AcDbLine
 10
0.0
 20
14.69999999999999
 30
0.0
 11
0.0
 21
-14.700017
 31
0.0
  0
LINE
  5
72
330
1E
100
AcDbEntity
  8
MO_001_NOSHOW
  6
C_SOLID_M
 62
     2
100
AcDbLine
 10
152.150009
 20
-9.599999999999999
 30
0.0
 11
169.350006
 21
-9.599999999999999
 31
0.0
  0
LINE
  5
73
330
1E
100
AcDbEntity
  8
MO_001_NOSHOW
  6
C_SOLID_L
 62
     2
100
AcDbLine
 10
169.950012
 20
-10.200006
 30
0.0
 11
152.150009
 21
-10.200006
 31
0.0
  0
LINE
  5
74
330
1E
100
AcDbEntity
  8
MO_001_VIEW_PV
  6
C_SOLID_M
100
AcDbLine
 10
0.0
 20
-9.599999999999999
 30
0.0
 11
16.100006
 21
-9.599999999999999
 31
0.0
  0
LINE
  5
75
330
1E
100
AcDbEntity
  8
MO_001_VIEW_PV
  6
C_SOLID_M
100
AcDbLine
 10
16.10000799999999
 20
-9.600011999999999
 30
0.0
 11
16.700013
 21
-10.20002599999999
 31
0.0
  0
LINE
  5
76
330
1E
100
AcDbEntity
  8
MO_001_VIEW_PV
  6
C_SOLID_L
100
AcDbLine
 10
16.700012
 20
-10.200006
 30
0.0
 11
0.0
 21
-10.200006
 31
0.0
  0
LINE
  5
77
330
1E
100
AcDbEntity
  8
MO_001_VIEW_PV
  6
C_SOLID_M
100
AcDbLine
 10
16.700012
 20
-11.999994
 30
0.0
 11
16.700012
 21
-10.200006
 31
0.0
  0
LINE
  5
78
330
1E
100
AcDbEntity
  8
MO_001_VIEW_PV
  6
C_SOLID_M
100
AcDbLine
 10
16.100006
 20
-9.599999999999999
 30
0.0
 11
16.100006
 21
-12.6
 31
0.0
  0
LINE
  5
79
330
1E
100
AcDbEntity
  8
MO_001_VIEW_PV
  6
C_SOLID_L
100
AcDbLine
 10
0.0
 20
-11.999994
 30
0.0
 11
16.700012
 21
-11.999994
 31
0.0
  0
LINE
  5
7A
330
1E
100
AcDbEntity
  8
MO_001_VIEW_PV
  6
C_SOLID_M
100
AcDbLine
 10
16.70002699999999
 20
-12.000005
 30
0.0
 11
16.100012
 21
-12.60003
 31
0.0
  0
LINE
  5
7B
330
1E
100
AcDbEntity
  8
MO_001_VIEW_PV
  6
C_SOLID_M
100
AcDbLine
 10
16.100006
 20
-12.6
 30
0.0
 11
0.0
 21
-12.6
 31
0.0
  0
LINE
  5
7C
330
1E
100
AcDbEntity
  8
MO_001_VIEW_PV
  6
C_SOLID_M
100
AcDbLine
 10
-17.699987
 20
-15.0
 30
0.0
 11
-17.699987
 21
15.0
 31
0.0
  0
LINE
  5
7D
330
1E
100
AcDbEntity
  8
MO_001_VIEW_PV
  6
C_SOLID_M
100
AcDbLine
 10
-16.099987
 20
-15.0
 30
0.0
 11
-16.099987
 21
15.0
 31
0.0
  0
LINE
  5
7E
330
1E
100
AcDbEntity
  8
MO_001_VIEW_PV
  6
C_SOLID_M
100
AcDbLine
 10
-17.699987
 20
15.0
 30
0.0
 11
-16.099987
 21
15.0
 31
0.0
  0
LINE
  5
7F
330
1E
100
AcDbEntity
  8
MO_001_VIEW_PV
  6
C_SOLID_M
100
AcDbLine
 10
-17.699987
 20
-15.0
 30
0.0
 11
-16.099987
 21
-15.0
 31
0.0
  0
LINE
  5
80
330
1E
100
AcDbEntity
  8
MO_001_VIEW_PV
  6
C_SOLID_M
100
AcDbLine
 10
15.900013
 20
-2.18
 30
0.0
 11
15.900013
 21
2.18
 31
0.0
  0
LINE
  5
81
330
1E
100
AcDbEntity
  8
MO_001_VIEW_PV
  6
C_SOLID_M
100
AcDbLine
 10
-29.89998599999999
 20
-2.234411999999999
 30
0.0
 11
-29.89998599999999
 21
2.234411999999999
 31
0.0
  0
LINE
  5
82
330
1E
100
AcDbEntity
  8
MO_001_VIEW_PV
  6
C_SOLID_M
100
AcDbLine
 10
-29.499987
 20
2.379999999999999
 30
0.0
 11
-18.399988
 21
2.379999999999999
 31
0.0
  0
LINE
  5
83
330
1E
100
AcDbEntity
  8
MO_001_VIEW_PV
  6
C_SOLID_M
100
AcDbLine
 10
-29.499987
 20
-2.379999999999999
 30
0.0
 11
-18.399988
 21
-2.379999999999999
 31
0.0
  0
LINE
  5
84
330
1E
100
AcDbEntity
  8
MO_001_VIEW_PV
  6
C_SOLID_M
100
AcDbLine
 10
15.70000799999999
 20
2.380001
 30
0.0
 11
15.90000899999999
 21
2.179999
 31
0.0
  0
LINE
  5
85
330
1E
100
AcDbEntity
  8
MO_001_VIEW_PV
  6
C_SOLID_M
100
AcDbLine
 10
15.90000899999999
 20
-2.180001999999999
 30
0.0
 11
15.70001099999999
 21
-2.379999999999999
 31
0.0
  0
LINE
  5
86
330
1E
100
AcDbEntity
  8
MO_001_VIEW_PV
  6
C_SOLID_M
100
AcDbLine
 10
-29.49998499999999
 20
2.379999
 30
0.0
 11
-29.899985
 21
2.234411999999999
 31
0.0
  0
LINE
  5
87
330
1E
100
AcDbEntity
  8
MO_001_VIEW_PV
  6
C_SOLID_M
100
AcDbLine
 10
-29.49998499999999
 20
-2.379999
 30
0.0
 11
-29.899985
 21
-2.234411999999999
 31
0.0
  0
LINE
  5
88
330
1E
100
AcDbEntity
  8
MO_001_VIEW_PV
  6
C_SOLID_M
100
AcDbLine
 10
-29.499987
 20
-2.379999999999999
 30
0.0
 11
-29.499987
 21
2.379999999999999
 31
0.0
  0
LINE
  5
89
330
1E
100
AcDbEntity
  8
MO_001_VIEW_PV
  6
C_SOLID_M
100
AcDbLine
 10
15.700012
 20
-2.379999999999999
 30
0.0
 11
15.700012
 21
2.379999999999999
 31
0.0
  0
LINE
  5
8A
330
1E
100
AcDbEntity
  8
MO_001_VIEW_PV
  6
C_SOLID_M
100
AcDbLine
 10
0.0
 20
2.379999999999999
 30
0.0
 11
15.700012
 21
2.379999999999999
 31
0.0
  0
LINE
  5
8B
330
1E
100
AcDbEntity
  8
MO_001_VIEW_PV
  6
C_SOLID_M
100
AcDbLine
 10
0.0
 20
-2.379999999999999
 30
0.0
 11
15.700012
 21
-2.379999999999999
 31
0.0
  0
LINE
  5
8C
330
1E
100
AcDbEntity
  8
MO_001_VIEW_PV
  6
C_SOLID_M
100
AcDbLine
 10
-24.934744
 20
-25.502379
 30
0.0
 11
-21.39920899999999
 21
-21.966844
 31
0.0
  0
LINE
  5
8D
330
1E
100
AcDbEntity
  8
MO_001_VIEW_PV
  6
C_SOLID_M
100
AcDbLine
 10
-23.902369
 20
-26.534754
 30
0.0
 11
-20.366834
 21
-22.999219
 31
0.0
  0
ARC
  5
8E
330
1E
100
AcDbEntity
  8
MO_001_VIEW_PV
  6
C_SOLID_M
100
AcDbCircle
 10
-15.218889
 20
-17.599159
 30
0.0
 40
2.7
100
AcDbArc
 50
35.761969
 51
103.4837519999999
  0
LINE
  5
8F
330
1E
100
AcDbEntity
  8
MO_001_VIEW_PV
  6
C_SOLID_M
100
AcDbLine
 10
-12.575117
 20
-16.650002
 30
0.0
 11
-13.027969
 21
-16.021228
 31
0.0
  0
ARC
  5
90
330
1E
100
AcDbEntity
  8
MO_001_VIEW_PV
  6
C_SOLID_M
100
AcDbCircle
 10
-13.349991
 20
-13.950001
 30
0.0
 40
2.7
100
AcDbArc
 50
264.217211
 51
269.999998
  0
LINE
  5
91
330
1E
100
AcDbEntity
  8
MO_001_VIEW_PV
  6
C_SOLID_M
100
AcDbLine
 10
-21.590128
 20
-21.775925
 30
0.0
 11
-14.753733
 21
-14.939529
 31
0.0
  0
LINE
  5
92
330
1E
100
AcDbEntity
  8
MO_001_VIEW_PV
  6
C_SOLID_M
100
AcDbLine
 10
-20.17591499999999
 20
-23.190138
 30
0.0
 11
-13.019191
 21
-16.03341499999999
 31
0.0
  0
LINE
  5
93
330
1E
100
AcDbEntity
  8
MO_001_VIEW_PV
  6
C_SOLID_M
100
AcDbLine
 10
-20.17591499999999
 20
-23.190138
 30
0.0
 11
-21.590128
 21
-21.775925
 31
0.0
  0
ARC
  5
94
330
1E
100
AcDbEntity
  8
MO_001_VIEW_PV
  6
C_SOLID_M
100
AcDbCircle
 10
-24.87468699999999
 20
-25.958509
 30
0.0
 40
0.4600680000000001
100
AcDbArc
 50
352.49937
 51
97.50056800000001
  0
ARC
  5
95
330
1E
100
AcDbEntity
  8
MO_001_VIEW_PV
  6
C_SOLID_M
100
AcDbCircle
 10
-24.478613
 20
-25.562435
 30
0.0
 40
0.4600680000000001
100
AcDbArc
 50
172.499433
 51
277.500614
  0
ARC
  5
96
330
1E
100
AcDbEntity
  8
MO_001_VIEW_PV
  6
C_SOLID_M
100
AcDbCircle
 10
-23.962425
 20
-26.078621
 30
0.0
 40
0.4600680000000001
100
AcDbArc
 50
172.499569
 51
277.50116
  0
CIRCLE
  5
97
330
1E
100
AcDbEntity
  8
MO_001_VIEW_PV
  6
C_SOLID_M
100
AcDbCircle
 10
63.0
 20
0.0
 30
0.0
 40
16.65
  0
LINE
  5
98
330
1E
100
AcDbEntity
  8
MO_001_VIEW_PV
  6
C_CENTER_L
100
AcDbLine
 10
81.65000199999999
 20
0.0
 30
0.0
 11
44.34999799999999
 21
0.0
 31
0.0
  0
LINE
  5
99
330
1E
100
AcDbEntity
  8
MO_001_VIEW_PV
  6
C_CENTER_L
100
AcDbLine
 10
63.0
 20
-18.65
 30
0.0
 11
63.0
 21
18.65
 31
0.0
  0
CIRCLE
  5
9A
330
1E
100
AcDbEntity
  8
MO_001_VIEW_PV
  6
C_SOLID_M
100
AcDbCircle
 10
63.0
 20
0.0
 30
0.0
 40
15.0
  0
LINE
  5
9B
330
1E
100
AcDbEntity
  8
MO_001_VIEW_PV
  6
C_CENTER_L
100
AcDbLine
 10
66.0
 20
-11.1
 30
0.0
 11
60.0
 21
-11.1
 31
0.0
  0
CIRCLE
  5
9C
330
1E
100
AcDbEntity
  8
MO_001_VIEW_PV
  6
C_SOLID_M
100
AcDbCircle
 10
63.0
 20
0.0
 30
0.0
 40
3.2
  0
LINE
  5
9D
330
1E
100
AcDbEntity
  8
MO_001_VIEW_PV
  6
C_CENTER_L
100
AcDbLine
 10
66.0
 20
11.1
 30
0.0
 11
60.0
 21
11.1
 31
0.0
  0
CIRCLE
  5
9E
330
1E
100
AcDbEntity
  8
MO_001_VIEW_PV
  6
C_SOLID_M
100
AcDbCircle
 10
63.0
 20
11.1
 30
0.0
 40
1.5
  0
CIRCLE
  5
9F
330
1E
100
AcDbEntity
  8
MO_001_VIEW_PV
  6
C_SOLID_M
100
AcDbCircle
 10
63.0
 20
11.1
 30
0.0
 40
1.0
  0
CIRCLE
  5
A0
330
1E
100
AcDbEntity
  8
MO_001_VIEW_PV
  6
C_SOLID_M
100
AcDbCircle
 10
63.0
 20
11.1
 30
0.0
 40
2.35
  0
CIRCLE
  5
A1
330
1E
100
AcDbEntity
  8
MO_001_VIEW_PV
  6
C_SOLID_M
100
AcDbCircle
 10
63.0
 20
-11.1
 30
0.0
 40
1.5
  0
CIRCLE
  5
A2
330
1E
100
AcDbEntity
  8
MO_001_VIEW_PV
  6
C_SOLID_M
100
AcDbCircle
 10
63.0
 20
-11.1
 30
0.0
 40
1.0
  0
CIRCLE
  5
A3
330
1E
100
AcDbEntity
  8
MO_001_VIEW_PV
  6
C_SOLID_M
100
AcDbCircle
 10
63.0
 20
-11.1
 30
0.0
 40
2.35
  0
CIRCLE
  5
A4
330
1E
100
AcDbEntity
  8
MO_001_VIEW_PV
  6
C_SOLID_M
100
AcDbCircle
 10
63.0
 20
0.0
 30
0.0
 40
14.69999999999999
  0
CIRCLE
  5
A5
330
1E
100
AcDbEntity
  8
MO_001_VIEW_PV
  6
C_SOLID_M
100
AcDbCircle
 10
63.0
 20
0.0
 30
0.0
 40
3.333973999999999
  0
CIRCLE
  5
A6
330
1E
100
AcDbEntity
  8
MO_001_VIEW_PV
  6
C_SOLID_M
100
AcDbCircle
 10
63.0
 20
0.0
 30
0.0
 40
2.379999999999999
  0
LINE
  5
A7
330
1E
100
AcDbEntity
  8
MO_001_VIEW_PV
  6
C_SOLID_M
100
AcDbLine
 10
-52.17999299999999
 20
-30.856337
 30
0.0
 11
-52.17999299999999
 21
-25.856337
 31
0.0
  0
LINE
  5
A8
330
1E
100
AcDbEntity
  8
MO_001_VIEW_PV
  6
C_SOLID_M
100
AcDbLine
 10
-50.720001
 20
-30.856337
 30
0.0
 11
-50.720001
 21
-25.856337
 31
0.0
  0
LINE
  5
A9
330
1E
100
AcDbEntity
  8
MO_001_VIEW_PV
  6
C_SOLID_M
100
AcDbLine
 10
-52.449997
 20
-25.856337
 30
0.0
 11
-52.449997
 21
-14.322997
 31
0.0
  0
LINE
  5
AA
330
1E
100
AcDbEntity
  8
MO_001_VIEW_PV
  6
C_SOLID_M
100
AcDbLine
 10
-50.44999699999999
 20
-25.856337
 30
0.0
 11
-50.44999699999999
 21
-14.322997
 31
0.0
  0
LINE
  5
AB
330
1E
100
AcDbEntity
  8
MO_001_VIEW_PV
  6
C_SOLID_M
100
AcDbLine
 10
-50.44999699999999
 20
-25.856337
 30
0.0
 11
-52.449997
 21
-25.856337
 31
0.0
  0
ARC
  5
AC
330
1E
100
AcDbEntity
  8
MO_001_VIEW_PV
  6
C_SOLID_M
100
AcDbCircle
 10
-51.815002
 20
-31.13640399999999
 30
0.0
 40
0.4600680000000001
100
AcDbArc
 50
37.499371
 51
142.500573
  0
ARC
  5
AD
330
1E
100
AcDbEntity
  8
MO_001_VIEW_PV
  6
C_SOLID_M
100
AcDbCircle
 10
-51.815002
 20
-30.576269
 30
0.0
 40
0.4600680000000001
100
AcDbArc
 50
217.499441
 51
322.500605
  0
ARC
  5
AE
330
1E
100
AcDbEntity
  8
MO_001_VIEW_PV
  6
C_SOLID_M
100
AcDbCircle
 10
-51.08499899999999
 20
-30.576269
 30
0.0
 40
0.4600680000000001
100
AcDbArc
 50
217.4995779999999
 51
322.5011519999999
  0
ARC
  5
AF
330
1E
100
AcDbEntity
  8
MO_001_VIEW_PV
  6
C_SOLID_M
100
AcDbCircle
 10
-57.0
 20
0.0
 30
0.0
 40
16.65
100
AcDbArc
 50
254.1408519999999
 51
285.85915
  0
LINE
  5
B0
330
1E
100
AcDbEntity
  8
MO_001_VIEW_PV
  6
C_SOLID_M
100
AcDbLine
 10
-63.279999
 20
-30.856337
 30
0.0
 11
-63.279999
 21
-25.856337
 31
0.0
  0
LINE
  5
B1
330
1E
100
AcDbEntity
  8
MO_001_VIEW_PV
  6
C_SOLID_M
100
AcDbLine
 10
-61.82000699999999
 20
-30.856337
 30
0.0
 11
-61.82000699999999
 21
-25.856337
 31
0.0
  0
LINE
  5
B2
330
1E
100
AcDbEntity
  8
MO_001_VIEW_PV
  6
C_SOLID_M
100
AcDbLine
 10
-61.55000300000001
 20
-25.856337
 30
0.0
 11
-61.55000300000001
 21
-14.322997
 31
0.0
  0
LINE
  5
B3
330
1E
100
AcDbEntity
  8
MO_001_VIEW_PV
  6
C_SOLID_M
100
AcDbLine
 10
-63.550003
 20
-25.856337
 30
0.0
 11
-63.550003
 21
-14.322997
 31
0.0
  0
LINE
  5
B4
330
1E
100
AcDbEntity
  8
MO_001_VIEW_PV
  6
C_SOLID_M
100
AcDbLine
 10
-63.550003
 20
-25.856337
 30
0.0
 11
-61.55000300000001
 21
-25.856337
 31
0.0
  0
ARC
  5
B5
330
1E
100
AcDbEntity
  8
MO_001_VIEW_PV
  6
C_SOLID_M
100
AcDbCircle
 10
-62.91500899999999
 20
-31.13640399999999
 30
0.0
 40
0.4600680000000001
100
AcDbArc
 50
37.49937399999999
 51
142.500573
  0
ARC
  5
B6
330
1E
100
AcDbEntity
  8
MO_001_VIEW_PV
  6
C_SOLID_M
100
AcDbCircle
 10
-62.91500899999999
 20
-30.576269
 30
0.0
 40
0.4600680000000001
100
AcDbArc
 50
217.499441
 51
322.500598
  0
ARC
  5
B7
330
1E
100
AcDbEntity
  8
MO_001_VIEW_PV
  6
C_SOLID_M
100
AcDbCircle
 10
-62.18500500000001
 20
-30.576269
 30
0.0
 40
0.4600680000000001
100
AcDbArc
 50
217.4995779999999
 51
322.501145
  0
LINE
  5
B8
330
1E
100
AcDbEntity
  8
MO_001_VIEW_PV
  6
C_SOLID_M
100
AcDbLine
 10
-50.720001
 20
-35.356339
 30
0.0
 11
-50.720001
 21
-31.856339
 31
0.0
  0
LINE
  5
B9
330
1E
100
AcDbEntity
  8
MO_001_VIEW_PV
  6
C_SOLID_M
100
AcDbLine
 10
-52.17999299999999
 20
-35.356339
 30
0.0
 11
-52.17999299999999
 21
-31.856339
 31
0.0
  0
ARC
  5
BA
330
1E
100
AcDbEntity
  8
MO_001_VIEW_PV
  6
C_SOLID_M
100
AcDbCircle
 10
-51.08499099999999
 20
-32.136406
 30
0.0
 40
0.4600680000000001
100
AcDbArc
 50
37.499429
 51
142.500627
  0
ARC
  5
BB
330
1E
100
AcDbEntity
  8
MO_001_VIEW_PV
  6
C_SOLID_M
100
AcDbCircle
 10
-51.08499099999999
 20
-31.576271
 30
0.0
 40
0.4600680000000001
100
AcDbArc
 50
217.4994
 51
322.5005569999999
  0
ARC
  5
BC
330
1E
100
AcDbEntity
  8
MO_001_VIEW_PV
  6
C_SOLID_M
100
AcDbCircle
 10
-51.81499500000001
 20
-32.136406
 30
0.0
 40
0.4600680000000001
100
AcDbArc
 50
37.499579
 51
142.501146
  0
LINE
  5
BD
330
1E
100
AcDbEntity
  8
MO_001_VIEW_PV
  6
C_SOLID_M
100
AcDbLine
 10
-61.82000699999999
 20
-35.356339
 30
0.0
 11
-61.82000699999999
 21
-31.85633499999999
 31
0.0
  0
LINE
  5
BE
330
1E
100
AcDbEntity
  8
MO_001_VIEW_PV
  6
C_SOLID_M
100
AcDbLine
 10
-63.279999
 20
-35.356339
 30
0.0
 11
-63.279999
 21
-31.85633499999999
 31
0.0
  0
ARC
  5
BF
330
1E
100
AcDbEntity
  8
MO_001_VIEW_PV
  6
C_SOLID_M
100
AcDbCircle
 10
-62.184998
 20
-32.136406
 30
0.0
 40
0.4600680000000001
100
AcDbArc
 50
37.499429
 51
142.500627
  0
ARC
  5
C0
330
1E
100
AcDbEntity
  8
MO_001_VIEW_PV
  6
C_SOLID_M
100
AcDbCircle
 10
-62.184998
 20
-31.576271
 30
0.0
 40
0.4600680000000001
100
AcDbArc
 50
217.4994
 51
322.5005569999999
  0
ARC
  5
C1
330
1E
100
AcDbEntity
  8
MO_001_VIEW_PV
  6
C_SOLID_M
100
AcDbCircle
 10
-62.915001
 20
-32.136406
 30
0.0
 40
0.4600680000000001
100
AcDbArc
 50
37.499579
 51
142.501146
  0
LINE
  5
C2
330
1E
100
AcDbEntity
  8
MO_001_VIEW_PV
  6
C_SOLID_M
100
AcDbLine
 10
-50.720001
 20
-35.356339
 30
0.0
 11
-52.17999299999999
 21
-35.356339
 31
0.0
  0
LINE
  5
C3
330
1E
100
AcDbEntity
  8
MO_001_VIEW_PV
  6
C_SOLID_M
100
AcDbLine
 10
-63.279999
 20
-35.356339
 30
0.0
 11
-61.82000699999999
 21
-35.356339
 31
0.0
  0
LINE
  5
C4
330
1E
100
AcDbEntity
  8
MO_001_VIEW_PV
  6
C_SOLID_M
100
AcDbLine
 10
-62.300003
 20
-35.356339
 30
0.0
 11
-62.300003
 21
-40.35633899999999
 31
0.0
  0
LINE
  5
C5
330
1E
100
AcDbEntity
  8
MO_001_VIEW_PV
  6
C_SOLID_M
100
AcDbLine
 10
-62.80000300000001
 20
-35.356339
 30
0.0
 11
-62.80000300000001
 21
-40.35633899999999
 31
0.0
  0
LINE
  5
C6
330
1E
100
AcDbEntity
  8
MO_001_VIEW_PV
  6
C_SOLID_M
100
AcDbLine
 10
-62.80000300000001
 20
-40.35633899999999
 30
0.0
 11
-62.300003
 21
-40.35633899999999
 31
0.0
  0
LINE
  5
C7
330
1E
100
AcDbEntity
  8
MO_001_VIEW_PV
  6
C_SOLID_M
100
AcDbLine
 10
-51.69999699999999
 20
-35.356339
 30
0.0
 11
-51.69999699999999
 21
-40.35633899999999
 31
0.0
  0
LINE
  5
C8
330
1E
100
AcDbEntity
  8
MO_001_VIEW_PV
  6
C_SOLID_M
100
AcDbLine
 10
-51.199997
 20
-35.356339
 30
0.0
 11
-51.199997
 21
-40.35633899999999
 31
0.0
  0
LINE
  5
C9
330
1E
100
AcDbEntity
  8
MO_001_VIEW_PV
  6
C_SOLID_M
100
AcDbLine
 10
-51.199997
 20
-40.35633899999999
 30
0.0
 11
-51.69999699999999
 21
-40.35633899999999
 31
0.0
  0
LINE
  5
CA
330
1E
100
AcDbEntity
  8
MO_001_VIEW_PV
  6
C_SOLID_M
100
AcDbLine
 10
67.82000699999999
 20
-30.856337
 30
0.0
 11
67.82000699999999
 21
-25.856337
 31
0.0
  0
LINE
  5
CB
330
1E
100
AcDbEntity
  8
MO_001_VIEW_PV
  6
C_SOLID_M
100
AcDbLine
 10
69.279999
 20
-30.856337
 30
0.0
 11
69.279999
 21
-25.856337
 31
0.0
  0
LINE
  5
CC
330
1E
100
AcDbEntity
  8
MO_001_VIEW_PV
  6
C_SOLID_M
100
AcDbLine
 10
67.550003
 20
-25.856337
 30
0.0
 11
67.550003
 21
-16.016241
 31
0.0
  0
LINE
  5
CD
330
1E
100
AcDbEntity
  8
MO_001_VIEW_PV
  6
C_SOLID_M
100
AcDbLine
 10
69.550003
 20
-25.856337
 30
0.0
 11
69.550003
 21
-15.307513
 31
0.0
  0
LINE
  5
CE
330
1E
100
AcDbEntity
  8
MO_001_VIEW_PV
  6
C_SOLID_M
100
AcDbLine
 10
69.550003
 20
-25.856337
 30
0.0
 11
67.550003
 21
-25.856337
 31
0.0
  0
ARC
  5
CF
330
1E
100
AcDbEntity
  8
MO_001_VIEW_PV
  6
C_SOLID_M
100
AcDbCircle
 10
68.18499799999999
 20
-31.13640399999999
 30
0.0
 40
0.4600680000000001
100
AcDbArc
 50
37.49937399999999
 51
142.500573
  0
ARC
  5
D0
330
1E
100
AcDbEntity
  8
MO_001_VIEW_PV
  6
C_SOLID_M
100
AcDbCircle
 10
68.18499799999999
 20
-30.576269
 30
0.0
 40
0.4600680000000001
100
AcDbArc
 50
217.499441
 51
322.500598
  0
ARC
  5
D1
330
1E
100
AcDbEntity
  8
MO_001_VIEW_PV
  6
C_SOLID_M
100
AcDbCircle
 10
68.915001
 20
-30.576269
 30
0.0
 40
0.4600680000000001
100
AcDbArc
 50
217.4995779999999
 51
322.501145
  0
LINE
  5
D2
330
1E
100
AcDbEntity
  8
MO_001_VIEW_PV
  6
C_SOLID_M
100
AcDbLine
 10
56.720001
 20
-30.856337
 30
0.0
 11
56.720001
 21
-25.856337
 31
0.0
  0
LINE
  5
D3
330
1E
100
AcDbEntity
  8
MO_001_VIEW_PV
  6
C_SOLID_M
100
AcDbLine
 10
58.179993
 20
-30.856337
 30
0.0
 11
58.179993
 21
-25.856337
 31
0.0
  0
LINE
  5
D4
330
1E
100
AcDbEntity
  8
MO_001_VIEW_PV
  6
C_SOLID_M
100
AcDbLine
 10
58.44999699999999
 20
-25.856337
 30
0.0
 11
58.44999699999999
 21
-16.016241
 31
0.0
  0
LINE
  5
D5
330
1E
100
AcDbEntity
  8
MO_001_VIEW_PV
  6
C_SOLID_M
100
AcDbLine
 10
56.44999699999999
 20
-25.856337
 30
0.0
 11
56.44999699999999
 21
-15.307513
 31
0.0
  0
LINE
  5
D6
330
1E
100
AcDbEntity
  8
MO_001_VIEW_PV
  6
C_SOLID_M
100
AcDbLine
 10
56.44999699999999
 20
-25.856337
 30
0.0
 11
58.44999699999999
 21
-25.856337
 31
0.0
  0
ARC
  5
D7
330
1E
100
AcDbEntity
  8
MO_001_VIEW_PV
  6
C_SOLID_M
100
AcDbCircle
 10
57.084991
 20
-31.13640399999999
 30
0.0
 40
0.4600680000000001
100
AcDbArc
 50
37.49937399999999
 51
142.500573
  0
ARC
  5
D8
330
1E
100
AcDbEntity
  8
MO_001_VIEW_PV
  6
C_SOLID_M
100
AcDbCircle
 10
57.084991
 20
-30.576269
 30
0.0
 40
0.4600680000000001
100
AcDbArc
 50
217.499441
 51
322.500598
  0
ARC
  5
D9
330
1E
100
AcDbEntity
  8
MO_001_VIEW_PV
  6
C_SOLID_M
100
AcDbCircle
 10
57.81499499999999
 20
-30.576269
 30
0.0
 40
0.4600680000000001
100
AcDbArc
 50
217.4995779999999
 51
322.501145
  0
LINE
  5
DA
330
1E
100
AcDbEntity
  8
MO_001_VIEW_PV
  6
C_SOLID_M
100
AcDbLine
 10
69.279999
 20
-35.356339
 30
0.0
 11
69.279999
 21
-31.856339
 31
0.0
  0
LINE
  5
DB
330
1E
100
AcDbEntity
  8
MO_001_VIEW_PV
  6
C_SOLID_M
100
AcDbLine
 10
67.82000699999999
 20
-35.356339
 30
0.0
 11
67.82000699999999
 21
-31.856339
 31
0.0
  0
ARC
  5
DC
330
1E
100
AcDbEntity
  8
MO_001_VIEW_PV
  6
C_SOLID_M
100
AcDbCircle
 10
68.915009
 20
-32.136406
 30
0.0
 40
0.4600680000000001
100
AcDbArc
 50
37.499429
 51
142.500627
  0
ARC
  5
DD
330
1E
100
AcDbEntity
  8
MO_001_VIEW_PV
  6
C_SOLID_M
100
AcDbCircle
 10
68.915009
 20
-31.576271
 30
0.0
 40
0.4600680000000001
100
AcDbArc
 50
217.4994
 51
322.5005569999999
  0
ARC
  5
DE
330
1E
100
AcDbEntity
  8
MO_001_VIEW_PV
  6
C_SOLID_M
100
AcDbCircle
 10
68.185005
 20
-32.136406
 30
0.0
 40
0.4600680000000001
100
AcDbArc
 50
37.499579
 51
142.501146
  0
LINE
  5
DF
330
1E
100
AcDbEntity
  8
MO_001_VIEW_PV
  6
C_SOLID_M
100
AcDbLine
 10
58.179993
 20
-35.356339
 30
0.0
 11
58.179993
 21
-31.85633499999999
 31
0.0
  0
LINE
  5
E0
330
1E
100
AcDbEntity
  8
MO_001_VIEW_PV
  6
C_SOLID_M
100
AcDbLine
 10
56.720001
 20
-35.356339
 30
0.0
 11
56.720001
 21
-31.85633499999999
 31
0.0
  0
ARC
  5
E1
330
1E
100
AcDbEntity
  8
MO_001_VIEW_PV
  6
C_SOLID_M
100
AcDbCircle
 10
57.81500199999999
 20
-32.136406
 30
0.0
 40
0.4600680000000001
100
AcDbArc
 50
37.499429
 51
142.500627
  0
ARC
  5
E2
330
1E
100
AcDbEntity
  8
MO_001_VIEW_PV
  6
C_SOLID_M
100
AcDbCircle
 10
57.81500199999999
 20
-31.576271
 30
0.0
 40
0.4600680000000001
100
AcDbArc
 50
217.4994
 51
322.5005569999999
  0
ARC
  5
E3
330
1E
100
AcDbEntity
  8
MO_001_VIEW_PV
  6
C_SOLID_M
100
AcDbCircle
 10
57.08499899999999
 20
-32.136406
 30
0.0
 40
0.4600680000000001
100
AcDbArc
 50
37.499579
 51
142.501146
  0
LINE
  5
E4
330
1E
100
AcDbEntity
  8
MO_001_VIEW_PV
  6
C_SOLID_M
100
AcDbLine
 10
69.279999
 20
-35.356339
 30
0.0
 11
67.82000699999999
 21
-35.356339
 31
0.0
  0
LINE
  5
E5
330
1E
100
AcDbEntity
  8
MO_001_VIEW_PV
  6
C_SOLID_M
100
AcDbLine
 10
56.720001
 20
-35.356339
 30
0.0
 11
58.179993
 21
-35.356339
 31
0.0
  0
LINE
  5
E6
330
1E
100
AcDbEntity
  8
MO_001_VIEW_PV
  6
C_SOLID_M
100
AcDbLine
 10
57.69999699999999
 20
-35.356339
 30
0.0
 11
57.69999699999999
 21
-40.35633899999999
 31
0.0
  0
LINE
  5
E7
330
1E
100
AcDbEntity
  8
MO_001_VIEW_PV
  6
C_SOLID_M
100
AcDbLine
 10
57.19999699999999
 20
-35.356339
 30
0.0
 11
57.19999699999999
 21
-40.35633899999999
 31
0.0
  0
LINE
  5
E8
330
1E
100
AcDbEntity
  8
MO_001_VIEW_PV
  6
C_SOLID_M
100
AcDbLine
 10
57.19999699999999
 20
-40.35633899999999
 30
0.0
 11
57.69999699999999
 21
-40.35633899999999
 31
0.0
  0
LINE
  5
E9
330
1E
100
AcDbEntity
  8
MO_001_VIEW_PV
  6
C_SOLID_M
100
AcDbLine
 10
68.300003
 20
-35.356339
 30
0.0
 11
68.300003
 21
-40.35633899999999
 31
0.0
  0
LINE
  5
EA
330
1E
100
AcDbEntity
  8
MO_001_VIEW_PV
  6
C_SOLID_M
100
AcDbLine
 10
68.800003
 20
-35.356339
 30
0.0
 11
68.800003
 21
-40.35633899999999
 31
0.0
  0
LINE
  5
EB
330
1E
100
AcDbEntity
  8
MO_001_VIEW_PV
  6
C_SOLID_M
100
AcDbLine
 10
68.800003
 20
-40.35633899999999
 30
0.0
 11
68.300003
 21
-40.35633899999999
 31
0.0
  0
CIRCLE
  5
EC
330
1E
100
AcDbEntity
  8
MO_001_VIEW_PV
  6
C_SOLID_M
100
AcDbCircle
 10
-57.0
 20
0.0
 30
0.0
 40
15.0
  0
CIRCLE
  5
ED
330
1E
100
AcDbEntity
  8
MO_001_VIEW_PV
  6
C_SOLID_M
100
AcDbCircle
 10
-57.0
 20
0.0
 30
0.0
 40
2.379999999999999
  0
CIRCLE
  5
EE
330
1E
100
AcDbEntity
  8
MO_001_VIEW_PV
  6
C_SOLID_M
100
AcDbCircle
 10
-57.0
 20
0.0
 30
0.0
 40
2.234411999999999
  0
LINE
  5
EF
330
1E
100
AcDbEntity
  8
MO_001_VIEW_PV
  6
C_SOLID_M
100
AcDbLine
 10
-18.399988
 20
-5.509999999999999
 30
0.0
 11
-18.399988
 21
5.509999999999999
 31
0.0
  0
LINE
  5
F0
330
1E
100
AcDbEntity
  8
MO_001_VIEW_PV
  6
C_SOLID_M
100
AcDbLine
 10
-18.399988
 20
5.509999999999999
 30
0.0
 11
-17.699987
 21
5.509999999999999
 31
0.0
  0
LINE
  5
F1
330
1E
100
AcDbEntity
  8
MO_001_VIEW_PV
  6
C_SOLID_M
100
AcDbLine
 10
-18.399988
 20
-5.509999999999999
 30
0.0
 11
-17.699987
 21
-5.509999999999999
 31
0.0
  0
LINE
  5
F2
330
1E
100
AcDbEntity
  8
MO_001_VIEW_PV
  6
C_SOLID_M
100
AcDbLine
 10
-16.099987
 20
7.5
 30
0.0
 11
-16.04998799999999
 21
7.5
 31
0.0
  0
LINE
  5
F3
330
1E
100
AcDbEntity
  8
MO_001_VIEW_PV
  6
C_SOLID_M
100
AcDbLine
 10
-16.099987
 20
-7.5
 30
0.0
 11
-16.04998799999999
 21
-7.5
 31
0.0
  0
ARC
  5
F4
330
1E
100
AcDbEntity
  8
MO_001_VIEW_PV
  6
C_SOLID_M
100
AcDbCircle
 10
-57.0
 20
0.0
 30
0.0
 40
5.509999999999999
100
AcDbArc
 50
11.467332
 51
48.532695
  0
ARC
  5
F5
330
1E
100
AcDbEntity
  8
MO_001_VIEW_PV
  6
C_SOLID_M
100
AcDbCircle
 10
-52.300003
 20
0.0
 30
0.0
 40
1.3
100
AcDbArc
 50
302.579481
 51
57.420506
  0
ARC
  5
F6
330
1E
100
AcDbEntity
  8
MO_001_VIEW_PV
  6
C_SOLID_M
100
AcDbCircle
 10
-50.59999799999999
 20
0.0
 30
0.0
 40
1.8
100
AcDbArc
 50
126.919381
 51
233.080615
  0
ARC
  5
F7
330
1E
100
AcDbEntity
  8
MO_001_VIEW_PV
  6
C_SOLID_M
100
AcDbCircle
 10
-54.650002
 20
4.070319999999999
 30
0.0
 40
1.3
100
AcDbArc
 50
2.579480999999999
 51
117.4205
  0
ARC
  5
F8
330
1E
100
AcDbEntity
  8
MO_001_VIEW_PV
  6
C_SOLID_M
100
AcDbCircle
 10
-53.800003
 20
5.542563999999999
 30
0.0
 40
1.8
100
AcDbArc
 50
186.919386
 51
293.0806
  0
ARC
  5
F9
330
1E
100
AcDbEntity
  8
MO_001_VIEW_PV
  6
C_SOLID_M
100
AcDbCircle
 10
-59.35000600000001
 20
4.070318
 30
0.0
 40
1.3
100
AcDbArc
 50
62.579484
 51
177.420502
  0
ARC
  5
FA
330
1E
100
AcDbEntity
  8
MO_001_VIEW_PV
  6
C_SOLID_M
100
AcDbCircle
 10
-60.19999699999999
 20
5.542563999999999
 30
0.0
 40
1.8
100
AcDbArc
 50
246.9193879999999
 51
353.0806
  0
ARC
  5
FB
330
1E
100
AcDbEntity
  8
MO_001_VIEW_PV
  6
C_SOLID_M
100
AcDbCircle
 10
-61.69999699999999
 20
-0.000003
 30
0.0
 40
1.3
100
AcDbArc
 50
122.579479
 51
237.42049
  0
ARC
  5
FC
330
1E
100
AcDbEntity
  8
MO_001_VIEW_PV
  6
C_SOLID_M
100
AcDbCircle
 10
-63.400002
 20
0.0
 30
0.0
 40
1.8
100
AcDbArc
 50
306.9193899999999
 51
53.0806
  0
ARC
  5
FD
330
1E
100
AcDbEntity
  8
MO_001_VIEW_PV
  6
C_SOLID_M
100
AcDbCircle
 10
-59.34999799999999
 20
-4.070321999999999
 30
0.0
 40
1.3
100
AcDbArc
 50
182.579484
 51
297.420475
  0
ARC
  5
FE
330
1E
100
AcDbEntity
  8
MO_001_VIEW_PV
  6
C_SOLID_M
100
AcDbCircle
 10
-60.19999699999999
 20
-5.542563999999999
 30
0.0
 40
1.8
100
AcDbArc
 50
6.919389999999999
 51
113.0805979999999
  0
ARC
  5
FF
330
1E
100
AcDbEntity
  8
MO_001_VIEW_PV
  6
C_SOLID_M
100
AcDbCircle
 10
-54.64999399999999
 20
-4.070319
 30
0.0
 40
1.3
100
AcDbArc
 50
242.5794859999999
 51
357.420475
  0
ARC
  5
100
330
1E
100
AcDbEntity
  8
MO_001_VIEW_PV
  6
C_SOLID_M
100
AcDbCircle
 10
-53.800003
 20
-5.542563999999999
 30
0.0
 40
1.8
100
AcDbArc
 50
66.919393
 51
173.0806
  0
ARC
  5
101
330
1E
100
AcDbEntity
  8
MO_001_VIEW_PV
  6
C_SOLID_M
100
AcDbCircle
 10
-57.0
 20
0.0
 30
0.0
 40
5.509999999999999
100
AcDbArc
 50
191.467364
 51
228.5326959999999
  0
ARC
  5
102
330
1E
100
AcDbEntity
  8
MO_001_VIEW_PV
  6
C_SOLID_M
100
AcDbCircle
 10
-57.0
 20
0.0
 30
0.0
 40
5.509999999999999
100
AcDbArc
 50
131.467358
 51
168.5327049999999
  0
ARC
  5
103
330
1E
100
AcDbEntity
  8
MO_001_VIEW_PV
  6
C_SOLID_M
100
AcDbCircle
 10
-57.0
 20
0.0
 30
0.0
 40
5.509999999999999
100
AcDbArc
 50
71.467343
 51
108.532703
  0
ARC
  5
104
330
1E
100
AcDbEntity
  8
MO_001_VIEW_PV
  6
C_SOLID_M
100
AcDbCircle
 10
-57.0
 20
0.0
 30
0.0
 40
5.509999999999999
100
AcDbArc
 50
311.4673599999999
 51
348.5326689999999
  0
ARC
  5
105
330
1E
100
AcDbEntity
  8
MO_001_VIEW_PV
  6
C_SOLID_M
100
AcDbCircle
 10
-57.0
 20
0.0
 30
0.0
 40
5.509999999999999
100
AcDbArc
 50
251.467365
 51
288.5326909999999
  0
LINE
  5
106
330
1E
100
AcDbEntity
  8
MO_001_VIEW_PV
  6
C_SOLID_M
100
AcDbLine
 10
-18.09998699999999
 20
3.886645999999999
 30
0.0
 11
-18.09998699999999
 21
5.370319999999999
 31
0.0
  0
LINE
  5
107
330
1E
100
AcDbEntity
  8
MO_001_VIEW_PV
  6
C_SOLID_M
100
AcDbLine
 10
-18.09998699999999
 20
-1.095439
 30
0.0
 11
-17.699987
 21
-1.095439
 31
0.0
  0
LINE
  5
108
330
1E
100
AcDbEntity
  8
MO_001_VIEW_PV
  6
C_SOLID_M
100
AcDbLine
 10
-18.09998699999999
 20
1.095439
 30
0.0
 11
-17.699987
 21
1.095439
 31
0.0
  0
LINE
  5
109
330
1E
100
AcDbEntity
  8
MO_001_VIEW_PV
  6
C_SOLID_M
100
AcDbLine
 10
-18.399988
 20
1.439067
 30
0.0
 11
-18.09998699999999
 21
1.439067
 31
0.0
  0
LINE
  5
10A
330
1E
100
AcDbEntity
  8
MO_001_VIEW_PV
  6
C_SOLID_M
100
AcDbLine
 10
-18.399988
 20
-1.439067
 30
0.0
 11
-18.09998699999999
 21
-1.439067
 31
0.0
  0
LINE
  5
10B
330
1E
100
AcDbEntity
  8
MO_001_VIEW_PV
  6
C_SOLID_M
100
AcDbLine
 10
-18.399988
 20
3.886645999999999
 30
0.0
 11
-18.09998699999999
 21
3.886645999999999
 31
0.0
  0
LINE
  5
10C
330
1E
100
AcDbEntity
  8
MO_001_VIEW_PV
  6
C_SOLID_M
100
AcDbLine
 10
-18.09998699999999
 20
4.128826999999999
 30
0.0
 11
-17.699987
 21
4.128826999999999
 31
0.0
  0
LINE
  5
10D
330
1E
100
AcDbEntity
  8
MO_001_VIEW_PV
  6
C_SOLID_M
100
AcDbLine
 10
-18.399988
 20
5.370319999999999
 30
0.0
 11
-18.09998699999999
 21
5.370319999999999
 31
0.0
  0
LINE
  5
10E
330
1E
100
AcDbEntity
  8
MO_001_VIEW_PV
  6
C_SOLID_M
100
AcDbLine
 10
-18.09998699999999
 20
5.325712999999999
 30
0.0
 11
-17.699987
 21
5.325712999999999
 31
0.0
  0
LINE
  5
10F
330
1E
100
AcDbEntity
  8
MO_001_VIEW_PV
  6
C_SOLID_M
100
AcDbLine
 10
-18.09998699999999
 20
-1.439067
 30
0.0
 11
-18.09998699999999
 21
1.439067
 31
0.0
  0
LINE
  5
110
330
1E
100
AcDbEntity
  8
MO_001_VIEW_PV
  6
C_SOLID_M
100
AcDbLine
 10
-18.09998699999999
 20
-3.886645999999999
 30
0.0
 11
-18.09998699999999
 21
-5.370319999999999
 31
0.0
  0
LINE
  5
111
330
1E
100
AcDbEntity
  8
MO_001_VIEW_PV
  6
C_SOLID_M
100
AcDbLine
 10
-18.399988
 20
-3.886645999999999
 30
0.0
 11
-18.09998699999999
 21
-3.886645999999999
 31
0.0
  0
LINE
  5
112
330
1E
100
AcDbEntity
  8
MO_001_VIEW_PV
  6
C_SOLID_M
100
AcDbLine
 10
-18.09998699999999
 20
-4.128826999999999
 30
0.0
 11
-17.699987
 21
-4.128826999999999
 31
0.0
  0
LINE
  5
113
330
1E
100
AcDbEntity
  8
MO_001_VIEW_PV
  6
C_SOLID_M
100
AcDbLine
 10
-18.399988
 20
-5.370319999999999
 30
0.0
 11
-18.09998699999999
 21
-5.370319999999999
 31
0.0
  0
LINE
  5
114
330
1E
100
AcDbEntity
  8
MO_001_VIEW_PV
  6
C_SOLID_M
100
AcDbLine
 10
-18.09998699999999
 20
-5.325712999999999
 30
0.0
 11
-17.699987
 21
-5.325712999999999
 31
0.0
  0
LINE
  5
115
330
1E
100
AcDbEntity
  8
MO_001_VIEW_PV
  6
C_SOLID_L
100
AcDbLine
 10
6.0
 20
-36.0
 30
0.0
 11
37.546394
 21
-36.0
 31
0.0
  0
CIRCLE
  5
116
330
1E
100
AcDbEntity
  8
MO_001_VIEW_PV
  6
C_SOLID_M
100
AcDbCircle
 10
-57.0
 20
11.1
 30
0.0
 40
1.0
  0
CIRCLE
  5
117
330
1E
100
AcDbEntity
  8
MO_001_VIEW_PV
  6
C_SOLID_M
100
AcDbCircle
 10
-66.61288499999999
 20
-5.549999999999999
 30
0.0
 40
1.0
  0
CIRCLE
  5
118
330
1E
100
AcDbEntity
  8
MO_001_VIEW_PV
  6
C_SOLID_M
100
AcDbCircle
 10
-47.38711499999999
 20
-5.550002
 30
0.0
 40
1.0
  0
TEXT
  5
119
330
1E
100
AcDbEntity
  8
MO_001_VIEW_PV
  6
C_SOLID_L
100
AcDbText
 10
8.625821999999999
 20
-34.934944
 30
0.0
 40
3.0
  1
2-M3 P0.5
100
AcDbText
  0
TEXT
  5
11A
330
1E
100
AcDbEntity
  8
MO_001_VIEW_PV
  6
C_SOLID_L
100
AcDbText
 10
94.50000000000001
 20
-15.071429
 30
0.0
 40
3.0
  1
(UL1430 AWG24)
 50
90.0
100
AcDbText
  0
TEXT
  5
11B
330
1E
100
AcDbEntity
  8
MO_001_VIEW_PV
  6
C_SOLID_L
100
AcDbText
 10
61.51171899999999
 20
-50.08359399999999
 30
0.0
 40
4.167187
  1
単位：mm
100
AcDbText
  0
TEXT
  5
11C
330
1E
100
AcDbEntity
  8
MO_001_VIEW_PV
  6
C_SOLID_L
100
AcDbText
 10
61.51171899999999
 20
-56.083594
 30
0.0
 40
4.167187
  1
図は励磁時を示す
100
AcDbText
  0
TEXT
  5
11D
330
1E
100
AcDbEntity
  8
MO_001_VIEW_PV
  6
C_SOLID_L
100
AcDbText
 10
-26.404688
 20
-46.958203
 30
0.0
 40
4.167187
  1
3EF PushPull
100
AcDbText
  0
DIMENSION
  5
11F
330
1E
100
AcDbEntity
  8
MO_001_VIEW_PV
  6
C_SOLID_M
100
AcDbDimension
  2
*D0
 10
-14.94999299999999
 20
30.0
 30
0.0
 11
-14.94999299999999
 21
30.0
 31
0.0
  3
STANDARD
100
AcDbAlignedDimension
 13
0.0
 23
14.69999999999999
 33
0.0
 14
-29.89998599999999
 24
2.234411999999999
 34
0.0
100
AcDbRotatedDimension
  0
DIMENSION
  5
121
330
1E
100
AcDbEntity
  8
MO_001_VIEW_PV
  6
C_SOLID_M
100
AcDbDimension
  2
*D1
 10
25.12809
 20
30.0
 30
0.0
 11
25.12809
 21
30.0
 31
0.0
  3
STANDARD
100
AcDbAlignedDimension
 13
15.900013
 23
2.18
 33
0.0
 14
0.0
 24
14.69999999999999
 34
0.0
100
AcDbRotatedDimension
  0
DIMENSION
  5
123
330
1E
100
AcDbEntity
  8
MO_001_VIEW_PV
  6
C_SOLID_M
100
AcDbDimension
  2
*D2
 10
25.963791
 20
24.0
 30
0.0
 11
25.963791
 21
24.0
 31
0.0
  3
STANDARD
100
AcDbAlignedDimension
 13
16.700012
 23
12.100005
 33
0.0
 14
0.0
 24
14.69999999999999
 34
0.0
100
AcDbRotatedDimension
  0
DIMENSION
  5
125
330
1E
100
AcDbEntity
  8
MO_001_VIEW_PV
  6
C_SOLID_M
100
AcDbDimension
  2
*D3
 10
-8.849994
 20
24.0
 30
0.0
 11
-8.849994
 21
24.0
 31
0.0
  1
18以下
  3
STANDARD
100
AcDbAlignedDimension
 13
0.0
 23
14.69999999999999
 33
0.0
 14
-17.699987
 24
15.0
 34
0.0
100
AcDbRotatedDimension
  0
DIMENSION
  5
127
330
1E
100
AcDbEntity
  8
MO_001_VIEW_PV
  6
C_SOLID_M
100
AcDbDimension
  2
*D4
 10
39.0
 20
0.0
 30
0.0
 11
39.0
 21
0.0
 31
0.0
  3
STANDARD
100
AcDbAlignedDimension
 13
60.0
 23
11.1
 33
0.0
 14
60.0
 24
-11.1
 34
0.0
 50
89.999523
100
AcDbRotatedDimension
  0
DIMENSION
  5
129
330
1E
100
AcDbEntity
  8
MO_001_VIEW_PV
  6
C_SOLID_M
100
AcDbDimension
  2
*D5
 10
63.0
 20
30.0
 30
0.0
 11
63.0
 21
30.0
 31
0.0
  1
%%C34以下
  3
STANDARD
100
AcDbAlignedDimension
 13
79.650002
 23
0.0
 33
0.0
 14
46.349998
 24
0.0
 34
0.0
100
AcDbRotatedDimension
  0
DIMENSION
  5
12B
330
1E
100
AcDbEntity
  8
MO_001_VIEW_PV
  6
C_SOLID_M
100
AcDbDimension
  2
*D6
 10
-27.0
 20
-33.0
 30
0.0
 11
-27.0
 21
-33.0
 31
0.0
  1
0.7
  3
STANDARD
100
AcDbAlignedDimension
 13
-17.699987
 23
-15.0
 33
0.0
 14
-18.399988
 24
-5.509999999999999
 34
0.0
100
AcDbRotatedDimension
  0
DIMENSION
  5
12D
330
1E
100
AcDbEntity
  8
MO_001_VIEW_PV
  6
C_SOLID_M
100
AcDbDimension
  2
*D7
 10
27.0
 20
-16.350067
 30
0.0
 11
27.0
 21
-16.350067
 31
0.0
  3
STANDARD
100
AcDbAlignedDimension
 13
15.700012
 23
-2.379999999999999
 33
0.0
 14
15.700012
 24
2.379999999999999
 34
0.0
 50
89.999523
100
AcDbRotatedDimension
  0
DIMENSION
  5
12F
330
1E
100
AcDbEntity
  8
MO_001_VIEW_PV
  6
C_SOLID_M
100
AcDbDimension
  2
*D8
 10
90.0
 20
12.0
 30
0.0
 11
90.0
 21
12.0
 31
0.0
  1
長さ250以上
  3
STANDARD
100
AcDbAlignedDimension
 13
69.550003
 23
-15.30751
 33
0.0
 14
68.800003
 24
-40.35633899999999
 34
0.0
 50
89.999523
100
AcDbRotatedDimension
  0
LINE
  5
130
330
1E
100
AcDbEntity
  8
MO_001_VIEW_PV
  6
C_SOLID_L
100
AcDbLine
 10
8.050003
 20
-12.6
 30
0.0
 11
6.0
 21
-36.00000099999999
 31
0.0
  0
POLYLINE
  5
131
330
1E
100
AcDbEntity
  8
MO_001_VIEW_PV
  6
C_SOLID_L
100
AcDb2dPolyline
 66
     1
 10
0.0
 20
0.0
 30
0.0
 70
     1
  0
VERTEX
  5
19D
330
131
100
AcDbEntity
  8
MO_001_VIEW_PV
  6
C_SOLID_L
100
AcDbVertex
100
AcDb2dVertex
 10
8.341694999999999
 20
-15.956524
 30
0.0
  0
VERTEX
  5
19E
330
131
100
AcDbEntity
  8
MO_001_VIEW_PV
  6
C_SOLID_L
100
AcDbVertex
100
AcDb2dVertex
 10
8.005669000000001
 20
-13.106062
 30
0.0
  0
VERTEX
  5
19F
330
131
100
AcDbEntity
  8
MO_001_VIEW_PV
  6
C_SOLID_L
100
AcDbVertex
100
AcDb2dVertex
 10
7.179124999999999
 20
-15.854675
 30
0.0
  0
SEQEND
  5
1A0
330
131
100
AcDbEntity
  8
MO_001_VIEW_PV
  6
C_SOLID_L
  0
ENDSEC
  0
SECTION
  2
OBJECTS
  0
DICTIONARY
  5
1A
330
0
100
AcDbDictionary
  3
ACAD_GROUP
350
1B
  3
ACAD_MLINESTYLE
350
1C
  3
ACAD_LAYOUT
350
193
  3
ACAD_PLOTSETTINGS
350
194
1001
ACAD
1000
TREAT_AS_HARD
1070
     0
  0
DICTIONARY
  5
199
330
1E
100
AcDbDictionary
  3
ACAD_LAYOUTSELFREF
350
19A
  0
DICTIONARY
  5
19B
330
1F
100
AcDbDictionary
  3
ACAD_LAYOUTSELFREF
350
19C
  0
DICTIONARY
  5
1B
102
{ACAD_REACTORS
330
1A
102
}
330
1A
100
AcDbDictionary
1001
ACAD
1000
TREAT_AS_HARD
1070
     0
  0
DICTIONARY
  5
1C
102
{ACAD_REACTORS
330
1A
102
}
330
1A
100
AcDbDictionary
  3
STANDARD
350
1D
1001
ACAD
1000
TREAT_AS_HARD
1070
     0
  0
DICTIONARY
  5
193
102
{ACAD_REACTORS
330
1A
102
}
330
1A
100
AcDbDictionary
1001
ACAD
1000
TREAT_AS_HARD
1070
     0
  0
DICTIONARY
  5
194
102
{ACAD_REACTORS
330
1A
102
}
330
1A
100
AcDbDictionary
1001
ACAD
1000
TREAT_AS_HARD
1070
     0
  0
XRECORD
  5
19A
102
{ACAD_REACTORS
330
199
102
}
330
199
100
AcDbXrecord
340
1E
  0
XRECORD
  5
19C
102
{ACAD_REACTORS
330
19B
102
}
330
19B
100
AcDbXrecord
340
1F
  0
MLINESTYLE
  5
1D
102
{ACAD_REACTORS
330
1C
102
}
330
1C
100
AcDbMlineStyle
  2
STANDARD
 70
     0
  3

 62
     0
 51
90.0
 52
90.0
 71
     2
 49
0.5
 62
   256
  6
BYLAYER
 49
-0.5
 62
   256
  6
BYLAYER
  0
ENDSEC
  0
EOF
