  0
SECTION
  2
HEADER
  9
$ACADVER
  1
AC1014
  9
$ACADMAINTVER
 70
     9
  9
$DWGCODEPAGE
  3
ANSI_932
  9
$INSBASE
 10
0.0
 20
0.0
 30
0.0
  9
$EXTMIN
 10
-68.5
 20
-53.08359400000003
 30
0.0
  9
$EXTMAX
 10
91.12765186666656
 20
31.125
 30
0.0
  9
$LIMMIN
 10
-68.5
 20
-56.20898399999999
  9
$LIMMAX
 10
85.99804699999998
 20
33.0
  9
$ORTHOMODE
 70
     0
  9
$REGENMODE
 70
     1
  9
$FILLMODE
 70
     1
  9
$QTEXTMODE
 70
     0
  9
$MIRRTEXT
 70
     1
  9
$DRAGMODE
 70
     2
  9
$LTSCALE
 40
1.0
  9
$OSMODE
 70
   301
  9
$ATTMODE
 70
     1
  9
$TEXTSIZE
 40
4.1672
  9
$TRACEWID
 40
0.05
  9
$TEXTSTYLE
  7
STANDARD
  9
$CLAYER
  8
0
  9
$CELTYPE
  6
CONTINUOUS
  9
$CECOLOR
 62
   256
  9
$CELTSCALE
 40
1.0
  9
$DELOBJ
 70
     1
  9
$DISPSILH
 70
     0
  9
$DIMSCALE
 40
1.0
  9
$DIMASZ
 40
0.18
  9
$DIMEXO
 40
0.0625
  9
$DIMDLI
 40
0.38
  9
$DIMRND
 40
0.0
  9
$DIMDLE
 40
0.0
  9
$DIMEXE
 40
0.18
  9
$DIMTP
 40
0.0
  9
$DIMTM
 40
0.0
  9
$DIMTXT
 40
0.18
  9
$DIMCEN
 40
0.09
  9
$DIMTSZ
 40
0.0
  9
$DIMTOL
 70
     0
  9
$DIMLIM
 70
     0
  9
$DIMTIH
 70
     1
  9
$DIMTOH
 70
     1
  9
$DIMSE1
 70
     0
  9
$DIMSE2
 70
     0
  9
$DIMTAD
 70
     0
  9
$DIMZIN
 70
     0
  9
$DIMBLK
  1

  9
$DIMASO
 70
     1
  9
$DIMSHO
 70
     1
  9
$DIMPOST
  1

  9
$DIMAPOST
  1

  9
$DIMALT
 70
     0
  9
$DIMALTD
 70
     2
  9
$DIMALTF
 40
25.4
  9
$DIMLFAC
 40
1.0
  9
$DIMTOFL
 70
     0
  9
$DIMTVP
 40
0.0
  9
$DIMTIX
 70
     0
  9
$DIMSOXD
 70
     0
  9
$DIMSAH
 70
     0
  9
$DIMBLK1
  1

  9
$DIMBLK2
  1

  9
$DIMSTYLE
  2
STANDARD
  9
$DIMCLRD
 70
     0
  9
$DIMCLRE
 70
     0
  9
$DIMCLRT
 70
     0
  9
$DIMTFAC
 40
1.0
  9
$DIMGAP
 40
0.09
  9
$DIMJUST
 70
     0
  9
$DIMSD1
 70
     0
  9
$DIMSD2
 70
     0
  9
$DIMTOLJ
 70
     1
  9
$DIMTZIN
 70
     0
  9
$DIMALTZ
 70
     0
  9
$DIMALTTZ
 70
     0
  9
$DIMFIT
 70
     3
  9
$DIMUPT
 70
     0
  9
$DIMUNIT
 70
     2
  9
$DIMDEC
 70
     4
  9
$DIMTDEC
 70
     4
  9
$DIMALTU
 70
     2
  9
$DIMALTTD
 70
     2
  9
$DIMTXSTY
  7
STANDARD
  9
$DIMAUNIT
 70
     0
  9
$LUNITS
 70
     2
  9
$LUPREC
 70
     6
  9
$SKETCHINC
 40
0.1
  9
$FILLETRAD
 40
0.0
  9
$AUNITS
 70
     0
  9
$AUPREC
 70
     4
  9
$MENU
  1
acad
  9
$ELEVATION
 40
0.0
  9
$PELEVATION
 40
0.0
  9
$THICKNESS
 40
0.0
  9
$LIMCHECK
 70
     0
  9
$BLIPMODE
 70
     0
  9
$CHAMFERA
 40
0.0
  9
$CHAMFERB
 40
0.0
  9
$CHAMFERC
 40
0.0
  9
$CHAMFERD
 40
0.0
  9
$SKPOLY
 70
     0
  9
$TDCREATE
 40
2376122.594768391
  9
$TDUPDATE
 40
2453066.432248622
  9
$TDINDWG
 40
0.0025558218
  9
$TDUSRTIMER
 40
0.0025551273
  9
$USRTIMER
 70
     1
  9
$ANGBASE
 50
0.0
  9
$ANGDIR
 70
     0
  9
$PDMODE
 70
     0
  9
$PDSIZE
 40
0.0
  9
$PLINEWID
 40
0.0
  9
$COORDS
 70
     1
  9
$SPLFRAME
 70
     0
  9
$SPLINETYPE
 70
     6
  9
$SPLINESEGS
 70
     8
  9
$ATTDIA
 70
     0
  9
$ATTREQ
 70
     1
  9
$HANDLING
 70
 10241
  9
$HANDSEED
  5
1AA
  9
$SURFTAB1
 70
     6
  9
$SURFTAB2
 70
     6
  9
$SURFTYPE
 70
     6
  9
$SURFU
 70
     6
  9
$SURFV
 70
     6
  9
$UCSNAME
  2
MO_001_VIEW_PV_P
  9
$UCSORG
 10
0.0
 20
0.0
 30
0.0
  9
$UCSXDIR
 10
1.0
 20
0.0
 30
0.0
  9
$UCSYDIR
 10
-0.0000000002051034
 20
1.0
 30
0.0
  9
$PUCSNAME
  2

  9
$PUCSORG
 10
0.0
 20
0.0
 30
0.0
  9
$PUCSXDIR
 10
1.0
 20
0.0
 30
0.0
  9
$PUCSYDIR
 10
0.0
 20
1.0
 30
0.0
  9
$USERI1
 70
     0
  9
$USERI2
 70
     0
  9
$USERI3
 70
     0
  9
$USERI4
 70
     0
  9
$USERI5
 70
     0
  9
$USERR1
 40
0.0
  9
$USERR2
 40
0.0
  9
$USERR3
 40
0.0
  9
$USERR4
 40
0.0
  9
$USERR5
 40
0.0
  9
$WORLDVIEW
 70
     1
  9
$SHADEDGE
 70
     3
  9
$SHADEDIF
 70
    70
  9
$TILEMODE
 70
     1
  9
$MAXACTVP
 70
    16
  9
$PINSBASE
 10
0.0
 20
0.0
 30
0.0
  9
$PLIMCHECK
 70
     0
  9
$PEXTMIN
 10
-68.5
 20
-56.20898399999999
 30
1.000000000000000E+20
  9
$PEXTMAX
 10
85.99804699999998
 20
33.0
 30
-1.000000000000000E+20
  9
$PLIMMIN
 10
0.0
 20
0.0
  9
$PLIMMAX
 10
12.0
 20
9.0
  9
$UNITMODE
 70
     0
  9
$VISRETAIN
 70
     0
  9
$PLINEGEN
 70
     0
  9
$PSLTSCALE
 70
     1
  9
$TREEDEPTH
 70
  3020
  9
$PICKSTYLE
 70
     1
  9
$CMLSTYLE
  2
STANDARD
  9
$CMLJUST
 70
     0
  9
$CMLSCALE
 40
1.0
  9
$PROXYGRAPHICS
 70
     1
  9
$MEASUREMENT
 70
     0
  0
ENDSEC
  0
SECTION
  2
CLASSES
  0
CLASS
  1
ACDBDICTIONARYWDFLT
  2
AcDbDictionaryWithDefault
  3
AutoCAD 2000
 90
        0
280
     0
281
     0
  0
CLASS
  1
ACDBPLACEHOLDER
  2
AcDbPlaceHolder
  3
AutoCAD 2000
 90
        0
280
     0
281
     0
  0
CLASS
  1
LAYOUT
  2
AcDbLayout
  3
AutoCAD 2000
 90
        0
280
     0
281
     0
  0
CLASS
  1
LONG_TRANSACTION
  2
AcDbLongTransaction
  3
AutoCAD 2000
 90
        0
280
     0
281
     0
  0
CLASS
  1
LWPOLYLINE
  2
AcDbPolyline
  3
AutoCAD 2000
 90
        0
280
     0
281
     1
  0
CLASS
  1
HATCH
  2
AcDbHatch
  3
AutoCAD 2000
 90
        0
280
     0
281
     1
  0
CLASS
  1
XRECORD
  2
AcDbXrecord
  3
AutoCAD 2000
 90
        0
280
     0
281
     0
  0
CLASS
  1
LONG_TRANSACTION
  2
AcDbLongTransaction
  3
AutoCAD 2000
 90
        0
280
     0
281
     0
  0
CLASS
  1
LWPOLYLINE
  2
AcDbPolyline
  3
AutoCAD 2000
 90
        0
280
     0
281
     1
  0
CLASS
  1
HATCH
  2
AcDbHatch
  3
AutoCAD 2000
 90
        0
280
     0
281
     1
  0
CLASS
  1
XRECORD
  2
AcDbXrecord
  3
AutoCAD 2000
 90
        0
280
     0
281
     0
  0
ENDSEC
  0
SECTION
  2
TABLES
  0
TABLE
  2
VPORT
  5
7
330
0
100
AcDbSymbolTable
 70
     2
  0
VPORT
  5
187
330
7
100
AcDbSymbolTableRecord
100
AcDbViewportTableRecord
  2
*ACTIVE
 70
     0
 10
0.0
 20
0.0
 11
1.0
 21
1.0
 12
7.381277747577698
 22
-8.97680812260404
 13
0.0
 23
0.0
 14
6.349999999999998
 24
6.349999999999998
 15
6.349999999999998
 25
6.349999999999998
 16
0.0
 26
0.0
 36
1.0
 17
0.0
 27
0.0
 37
0.0
 40
141.0623355299143
 41
1.630584192439862
 42
50.0
 43
0.0
 44
0.0
 50
0.0
 51
0.0
 71
     0
 72
   100
 73
     1
 74
     1
 75
     0
 76
     0
 77
     0
 78
     0
  0
ENDTAB
  0
TABLE
  2
LTYPE
  5
4
330
0
100
AcDbSymbolTable
 70
    37
  0
LTYPE
  5
12
330
4
100
AcDbSymbolTableRecord
100
AcDbLinetypeTableRecord
  2
BYBLOCK
 70
     0
  3

 72
    65
 73
     0
 40
0.0
  0
LTYPE
  5
13
330
4
100
AcDbSymbolTableRecord
100
AcDbLinetypeTableRecord
  2
BYLAYER
 70
     0
  3

 72
    65
 73
     0
 40
0.0
  0
LTYPE
  5
14
330
4
100
AcDbSymbolTableRecord
100
AcDbLinetypeTableRecord
  2
CONTINUOUS
 70
     0
  3
DXF Default line type
 72
    65
 73
     0
 40
0.0
  0
LTYPE
  5
20
330
4
100
AcDbSymbolTableRecord
100
AcDbLinetypeTableRecord
  2
DASHED
 70
     0
  3
DXF Dashed
 72
    65
 73
     2
 40
0.75
 49
0.5
 74
     0
 49
-0.25
 74
     0
  0
LTYPE
  5
21
330
4
100
AcDbSymbolTableRecord
100
AcDbLinetypeTableRecord
  2
HIDDEN
 70
     0
  3
DXF Hidden
 72
    65
 73
     2
 40
0.375
 49
0.25
 74
     0
 49
-0.125
 74
     0
  0
LTYPE
  5
22
330
4
100
AcDbSymbolTableRecord
100
AcDbLinetypeTableRecord
  2
CENTER
 70
     0
  3
DXF Center
 72
    65
 73
     4
 40
2.0
 49
1.25
 74
     0
 49
-0.25
 74
     0
 49
0.25
 74
     0
 49
-0.25
 74
     0
  0
LTYPE
  5
23
330
4
100
AcDbSymbolTableRecord
100
AcDbLinetypeTableRecord
  2
PHANTOM
 70
     0
  3
DXF Phantom
 72
    65
 73
     6
 40
2.5
 49
1.25
 74
     0
 49
-0.25
 74
     0
 49
0.25
 74
     0
 49
-0.25
 74
     0
 49
0.25
 74
     0
 49
-0.25
 74
     0
  0
LTYPE
  5
24
330
4
100
AcDbSymbolTableRecord
100
AcDbLinetypeTableRecord
  2
DOT
 70
     0
  3
DXF DOT
 72
    65
 73
     2
 40
0.25
 49
0.0
 74
     0
 49
-0.25
 74
     0
  0
LTYPE
  5
25
330
4
100
AcDbSymbolTableRecord
100
AcDbLinetypeTableRecord
  2
DASHDOT
 70
     0
  3
DXF Dash Dot
 72
    65
 73
     4
 40
1.0
 49
0.5
 74
     0
 49
-0.25
 74
     0
 49
0.0
 74
     0
 49
-0.25
 74
     0
  0
LTYPE
  5
26
330
4
100
AcDbSymbolTableRecord
100
AcDbLinetypeTableRecord
  2
BORDER
 70
     0
  3
DXF Border
 72
    65
 73
     6
 40
1.75
 49
0.5
 74
     0
 49
-0.25
 74
     0
 49
0.5
 74
     0
 49
-0.25
 74
     0
 49
0.0
 74
     0
 49
-0.25
 74
     0
  0
LTYPE
  5
27
330
4
100
AcDbSymbolTableRecord
100
AcDbLinetypeTableRecord
  2
DIVIDE
 70
     0
  3
DXF Divide
 72
    65
 73
     6
 40
1.25
 49
0.5
 74
     0
 49
-0.25
 74
     0
 49
0.0
 74
     0
 49
-0.25
 74
     0
 49
0.0
 74
     0
 49
-0.25
 74
     0
  0
LTYPE
  5
28
330
4
100
AcDbSymbolTableRecord
100
AcDbLinetypeTableRecord
  2
C_SOLID_L
 70
     0
  3
CADAM Solid Light
 72
    65
 73
     0
 40
0.0
  0
LTYPE
  5
29
330
4
100
AcDbSymbolTableRecord
100
AcDbLinetypeTableRecord
  2
C_SOLID_M
 70
     0
  3
CADAM Solid Medium
 72
    65
 73
     0
 40
0.0
  0
LTYPE
  5
2A
330
4
100
AcDbSymbolTableRecord
100
AcDbLinetypeTableRecord
  2
C_SOLID_H
 70
     0
  3
CADAM Solid Heavy
 72
    65
 73
     0
 40
0.0
  0
LTYPE
  5
2B
330
4
100
AcDbSymbolTableRecord
100
AcDbLinetypeTableRecord
  2
C_DASHED_L
 70
     0
  3
CADAM Dashed Light
 72
    65
 73
     2
 40
0.375
 49
0.25
 74
     0
 49
-0.125
 74
     0
  0
LTYPE
  5
2C
330
4
100
AcDbSymbolTableRecord
100
AcDbLinetypeTableRecord
  2
C_DASHED_M
 70
     0
  3
CADAM Dashed Medium
 72
    65
 73
     2
 40
0.5
 49
0.375
 74
     0
 49
-0.125
 74
     0
  0
LTYPE
  5
2D
330
4
100
AcDbSymbolTableRecord
100
AcDbLinetypeTableRecord
  2
C_CENTER_L
 70
     0
  3
CADAM Center Light
 72
    65
 73
     4
 40
2.0
 49
1.25
 74
     0
 49
-0.25
 74
     0
 49
0.25
 74
     0
 49
-0.25
 74
     0
  0
LTYPE
  5
2E
330
4
100
AcDbSymbolTableRecord
100
AcDbLinetypeTableRecord
  2
C_PHANTOM_L
 70
     0
  3
CADAM Phantom Light
 72
    65
 73
     6
 40
2.5
 49
1.25
 74
     0
 49
-0.25
 74
     0
 49
0.25
 74
     0
 49
-0.25
 74
     0
 49
0.25
 74
     0
 49
-0.25
 74
     0
  0
LTYPE
  5
2F
330
4
100
AcDbSymbolTableRecord
100
AcDbLinetypeTableRecord
  2
C_BREAK_M
 70
     0
  3
CADAM Break Medium
 72
    65
 73
     4
 40
1.0
 49
0.5
 74
     0
 49
-0.25
 74
     0
 49
0.0
 74
     0
 49
-0.25
 74
     0
  0
LTYPE
  5
30
330
4
100
AcDbSymbolTableRecord
100
AcDbLinetypeTableRecord
  2
C_NC
 70
     0
  3
CADAM NC
 72
    65
 73
     0
 40
0.0
  0
LTYPE
  5
31
330
4
100
AcDbSymbolTableRecord
100
AcDbLinetypeTableRecord
  2
DSH1
 70
     0
  3
CADAM Style2 Type 1 Dashed Line
 72
    65
 73
     2
 40
0.075
 49
0.04
 74
     0
 49
-0.035
 74
     0
  0
LTYPE
  5
32
330
4
100
AcDbSymbolTableRecord
100
AcDbLinetypeTableRecord
  2
DSH2
 70
     0
  3
CADAM Style2 Type 2 Dashed Line
 72
    65
 73
     2
 40
0.15
 49
0.11
 74
     0
 49
-0.04
 74
     0
  0
LTYPE
  5
33
330
4
100
AcDbSymbolTableRecord
100
AcDbLinetypeTableRecord
  2
DSH3
 70
     0
  3
CADAM Style2 Type 3 Dashed Line
 72
    65
 73
     2
 40
0.2
 49
0.15
 74
     0
 49
-0.05
 74
     0
  0
LTYPE
  5
34
330
4
100
AcDbSymbolTableRecord
100
AcDbLinetypeTableRecord
  2
DSH4
 70
     0
  3
CADAM Style2 Type 4 Dashed Line
 72
    65
 73
     2
 40
0.36
 49
0.28
 74
     0
 49
-0.08
 74
     0
  0
LTYPE
  5
35
330
4
100
AcDbSymbolTableRecord
100
AcDbLinetypeTableRecord
  2
DSH5
 70
     0
  3
CADAM Style2 Type 5 Dashed Line
 72
    65
 73
     2
 40
0.47
 49
0.39
 74
     0
 49
-0.08
 74
     0
  0
LTYPE
  5
36
330
4
100
AcDbSymbolTableRecord
100
AcDbLinetypeTableRecord
  2
DSH6
 70
     0
  3
CADAM Style2 Type 6 Dashed Line
 72
    65
 73
     2
 40
0.9
 49
0.8100000000000001
 74
     0
 49
-0.09
 74
     0
  0
LTYPE
  5
37
330
4
100
AcDbSymbolTableRecord
100
AcDbLinetypeTableRecord
  2
PL1
 70
     0
  3
Style 2 Type 1 Phantom Line
 72
    65
 73
     6
 40
1.0
 49
0.6
 74
     0
 49
-0.08
 74
     0
 49
0.08
 74
     0
 49
-0.08
 74
     0
 49
0.08
 74
     0
 49
-0.08
 74
     0
  0
LTYPE
  5
38
330
4
100
AcDbSymbolTableRecord
100
AcDbLinetypeTableRecord
  2
PL2
 70
     0
  3
Style 2 Type 2 Phantom Line
 72
    65
 73
     6
 40
1.08
 49
0.6
 74
     0
 49
-0.08
 74
     0
 49
0.12
 74
     0
 49
-0.08
 74
     0
 49
0.12
 74
     0
 49
-0.08
 74
     0
  0
LTYPE
  5
39
330
4
100
AcDbSymbolTableRecord
100
AcDbLinetypeTableRecord
  2
PL3
 70
     0
  3
Style 2 Type 3 Phantom Line
 72
    65
 73
     6
 40
2.0
 49
1.439999999999999
 74
     0
 49
-0.08
 74
     0
 49
0.16
 74
     0
 49
-0.08
 74
     0
 49
0.16
 74
     0
 49
-0.08
 74
     0
  0
LTYPE
  5
3A
330
4
100
AcDbSymbolTableRecord
100
AcDbLinetypeTableRecord
  2
CL1
 70
     0
  3
CADAM Style 2 Type 1 Center Line
 72
    65
 73
     4
 40
0.7
 49
0.45
 74
     0
 49
-0.06
 74
     0
 49
0.13
 74
     0
 49
-0.06
 74
     0
  0
LTYPE
  5
3B
330
4
100
AcDbSymbolTableRecord
100
AcDbLinetypeTableRecord
  2
CL2
 70
     0
  3
CADAM Style 2 Type 2 Center Line
 72
    65
 73
     4
 40
1.199999999999999
 49
1.01
 74
     0
 49
-0.06
 74
     0
 49
0.11
 74
     0
 49
-0.06
 74
     0
  0
LTYPE
  5
3C
330
4
100
AcDbSymbolTableRecord
100
AcDbLinetypeTableRecord
  2
CL3
 70
     0
  3
CADAM Style 2 Type 3 Center Line
 72
    65
 73
     4
 40
1.199999999999999
 49
0.98
 74
     0
 49
-0.06
 74
     0
 49
0.1
 74
     0
 49
-0.06
 74
     0
  0
LTYPE
  5
3D
330
4
100
AcDbSymbolTableRecord
100
AcDbLinetypeTableRecord
  2
CL4
 70
     0
  3
CADAM Style 2 Type 4 Center Line
 72
    65
 73
     4
 40
2.2
 49
1.929999999999999
 74
     0
 49
-0.07
 74
     0
 49
0.13
 74
     0
 49
-0.07
 74
     0
  0
LTYPE
  5
3E
330
4
100
AcDbSymbolTableRecord
100
AcDbLinetypeTableRecord
  2
CL5
 70
     0
  3
CADAM Style 2 Type 5 Center Line
 72
    65
 73
     4
 40
2.2
 49
1.879999999999999
 74
     0
 49
-0.07
 74
     0
 49
0.18
 74
     0
 49
-0.07
 74
     0
  0
LTYPE
  5
3F
330
4
100
AcDbSymbolTableRecord
100
AcDbLinetypeTableRecord
  2
SBK1
 70
     0
  3
CADAM Style 2 Type 1 SetBack Line
 72
    65
 73
     8
 40
2.7
 49
0.1
 74
     0
 49
-0.08
 74
     0
 49
0.1
 74
     0
 49
-0.8
 74
     0
 49
0.0
 74
     0
 49
0.0
 74
     0
 49
0.0
 74
     0
 49
0.0
 74
     0
  0
LTYPE
  5
40
330
4
100
AcDbSymbolTableRecord
100
AcDbLinetypeTableRecord
  2
SBK2
 70
     0
  3
CADAM Style 2 Type 2 SetBack Line
 72
    65
 73
     8
 40
3.709999999999998
 49
0.13
 74
     0
 49
-0.08
 74
     0
 49
0.13
 74
     0
 49
-0.8
 74
     0
 49
0.0
 74
     0
 49
0.0
 74
     0
 49
0.0
 74
     0
 49
0.0
 74
     0
  0
LTYPE
  5
41
330
4
100
AcDbSymbolTableRecord
100
AcDbLinetypeTableRecord
  2
STCH
 70
     0
  3
CADAM Style2 Stitch Line
 72
    65
 73
     2
 40
0.25
 49
0.0
 74
     0
 49
-0.25
 74
     0
  0
LTYPE
  5
42
330
4
100
AcDbSymbolTableRecord
100
AcDbLinetypeTableRecord
  2
MTCH
 70
     0
  3
CADAM Style2 Match Line
 72
    65
 73
     6
 40
2.0
 49
1.439999999999999
 74
     0
 49
-0.8
 74
     0
 49
0.16
 74
     0
 49
-0.08
 74
     0
 49
0.16
 74
     0
 49
-0.08
 74
     0
  0
LTYPE
  5
43
330
4
100
AcDbSymbolTableRecord
100
AcDbLinetypeTableRecord
  2
SLD
 70
     0
  3
CADAM Solid_EXT2
 72
    65
 73
     0
 40
0.0
  0
ENDTAB
  0
TABLE
  2
LAYER
  5
2
330
0
100
AcDbSymbolTable
 70
     7
  0
LAYER
  5
15
330
2
100
AcDbSymbolTableRecord
100
AcDbLayerTableRecord
  2
0
 70
     0
 62
     7
  6
CONTINUOUS
  0
LAYER
  5
44
330
2
100
AcDbSymbolTableRecord
100
AcDbLayerTableRecord
  2
MO_001_NOSHOW
 70
     1
 62
     7
  6
CONTINUOUS
  0
LAYER
  5
45
330
2
100
AcDbSymbolTableRecord
100
AcDbLayerTableRecord
  2
MO_001_VIEW_PV
 70
     0
 62
     7
  6
CONTINUOUS
  0
LAYER
  5
46
330
2
100
AcDbSymbolTableRecord
100
AcDbLayerTableRecord
  2
OVERLAY_MAP
 70
     1
 62
     7
  6
CONTINUOUS
  0
LAYER
  5
47
330
2
100
AcDbSymbolTableRecord
100
AcDbLayerTableRecord
  2
DITTOS
 70
     0
 62
     7
  6
CONTINUOUS
  0
LAYER
  5
48
330
2
100
AcDbSymbolTableRecord
100
AcDbLayerTableRecord
  2
SYMBOLS
 70
     0
 62
     7
  6
CONTINUOUS
  0
LAYER
  5
49
330
2
100
AcDbSymbolTableRecord
100
AcDbLayerTableRecord
  2
SETS
 70
     0
 62
     7
  6
CONTINUOUS
  0
ENDTAB
  0
TABLE
  2
STYLE
  5
3
330
0
100
AcDbSymbolTable
 70
     1
  0
STYLE
  5
18
330
3
100
AcDbSymbolTableRecord
100
AcDbTextStyleTableRecord
  2
STANDARD
 70
     0
 40
3.0
 41
1.0
 50
0.0
 71
     0
 42
4.1672
  3
monotxt.shx
  4
BIGFONT.shx
  0
ENDTAB
  0
TABLE
  2
VIEW
  5
5
330
0
100
AcDbSymbolTable
 70
     0
  0
ENDTAB
  0
TABLE
  2
UCS
  5
6
330
0
100
AcDbSymbolTable
 70
     1
  0
UCS
  5
4A
330
6
100
AcDbSymbolTableRecord
100
AcDbUCSTableRecord
  2
MO_001_VIEW_PV_P
 70
     0
 10
0.0
 20
0.0
 30
0.0
 11
1.0
 21
0.0
 31
0.0
 12
-0.0000000002051034
 22
1.0
 32
0.0
  0
ENDTAB
  0
TABLE
  2
APPID
  5
8
330
0
100
AcDbSymbolTable
 70
     1
  0
APPID
  5
17
330
8
100
AcDbSymbolTableRecord
100
AcDbRegAppTableRecord
  2
ACAD
 70
     0
  0
ENDTAB
  0
TABLE
  2
DIMSTYLE
  5
9
330
0
100
AcDbSymbolTable
 70
     1
  0
DIMSTYLE
105
19
102
{ACAD_REACTORS
330
E0
330
E2
330
E4
330
E6
330
EA
330
EC
330
EE
330
E8
102
}
330
9
100
AcDbSymbolTableRecord
100
AcDbDimStyleTableRecord
  2
STANDARD
 70
     0
  3

  4

  5

  6

  7

 40
1.0
 41
0.18
 42
0.0625
 43
0.38
 44
0.18
 45
0.0
 46
0.0
 47
0.0
 48
0.0
140
0.18
141
0.09
142
0.0
143
25.4
144
1.0
145
0.0
146
1.0
147
0.09
 71
     0
 72
     0
 73
     1
 74
     1
 75
     0
 76
     0
 77
     0
 78
     0
170
     0
171
     2
172
     0
173
     0
174
     0
175
     0
176
     0
177
     0
178
     0
270
     2
271
     4
272
     4
273
     2
274
     2
340
18
275
     0
280
     0
281
     0
282
     0
283
     1
284
     0
285
     0
286
     0
287
     3
288
     0
  0
ENDTAB
  0
TABLE
  2
BLOCK_RECORD
  5
C
330
0
100
AcDbSymbolTable
 70
     8
  0
BLOCK_RECORD
  5
1E
102
{ACAD_XDICTIONARY
360
153
102
}
330
C
100
AcDbSymbolTableRecord
100
AcDbBlockTableRecord
  2
*MODEL_SPACE
  0
BLOCK_RECORD
  5
1F
102
{ACAD_XDICTIONARY
360
155
102
}
330
C
100
AcDbSymbolTableRecord
100
AcDbBlockTableRecord
  2
*PAPER_SPACE
  0
BLOCK_RECORD
  5
DF
330
C
100
AcDbSymbolTableRecord
100
AcDbBlockTableRecord
  2
*D0
  0
BLOCK_RECORD
  5
E1
330
C
100
AcDbSymbolTableRecord
100
AcDbBlockTableRecord
  2
*D1
  0
BLOCK_RECORD
  5
E3
330
C
100
AcDbSymbolTableRecord
100
AcDbBlockTableRecord
  2
*D2
  0
BLOCK_RECORD
  5
E5
330
C
100
AcDbSymbolTableRecord
100
AcDbBlockTableRecord
  2
*D3
  0
BLOCK_RECORD
  5
E7
330
C
100
AcDbSymbolTableRecord
100
AcDbBlockTableRecord
  2
*D4
  0
BLOCK_RECORD
  5
E9
330
C
100
AcDbSymbolTableRecord
100
AcDbBlockTableRecord
  2
*D5
  0
BLOCK_RECORD
  5
EB
330
C
100
AcDbSymbolTableRecord
100
AcDbBlockTableRecord
  2
*D6
  0
BLOCK_RECORD
  5
ED
330
C
100
AcDbSymbolTableRecord
100
AcDbBlockTableRecord
  2
*D7
  0
ENDTAB
  0
ENDSEC
  0
SECTION
  2
BLOCKS
  0
BLOCK
  5
E
330
1E
100
AcDbEntity
  8
0
100
AcDbBlockBegin
  2
*MODEL_SPACE
 70
     0
 10
0.0
 20
0.0
 30
0.0
  3
*MODEL_SPACE
  1

  0
ENDBLK
  5
F
330
1E
100
AcDbEntity
  8
0
100
AcDbBlockEnd
  0
BLOCK
  5
10
330
1F
100
AcDbEntity
 67
     1
  8
0
100
AcDbBlockBegin
  2
*PAPER_SPACE
 70
     0
 10
0.0
 20
0.0
 30
0.0
  3
*PAPER_SPACE
  1

  0
ENDBLK
  5
11
330
1F
100
AcDbEntity
 67
     1
  8
0
100
AcDbBlockEnd
  0
BLOCK
  5
F5
330
DF
100
AcDbEntity
  8
0
100
AcDbBlockBegin
  2
*D0
 70
     1
 10
0.0
 20
0.0
 30
0.0
  3
*D0
  1

  0
TEXT
  5
F6
330
DF
100
AcDbEntity
  8
MO_001_VIEW_PV
  6
BYBLOCK
100
AcDbText
 10
18.375
 20
-11.035714
 30
0.0
 40
1.5
  1
%%P0.03
 50
90.0
100
AcDbText
  0
TEXT
  5
F7
330
DF
100
AcDbEntity
  8
MO_001_VIEW_PV
  6
BYBLOCK
100
AcDbText
 10
20.24999999999999
 20
-25.821429
 30
0.0
 40
3.0
  1
%%C3.97
 50
90.0
100
AcDbText
  0
LINE
  5
F8
330
DF
100
AcDbEntity
  8
MO_001_VIEW_PV
  6
BYBLOCK
100
AcDbLine
 10
21.0
 20
1.985
 30
0.0
 11
21.0
 21
-1.985
 31
0.0
  0
LINE
  5
F9
330
DF
100
AcDbEntity
  8
MO_001_VIEW_PV
  6
BYBLOCK
100
AcDbLine
 10
21.0
 20
1.985
 30
0.0
 11
21.0
 21
8.335
 31
0.0
  0
LINE
  5
FA
330
DF
100
AcDbEntity
  8
MO_001_VIEW_PV
  6
BYBLOCK
100
AcDbLine
 10
21.0
 20
-1.985
 30
0.0
 11
21.0
 21
-8.335
 31
0.0
  0
SOLID
  5
FB
330
DF
100
AcDbEntity
  8
MO_001_VIEW_PV
  6
BYBLOCK
100
AcDbTrace
 10
20.416488
 20
5.303259999999998
 30
0.0
 11
21.0
 21
2.493
 31
0.0
 12
21.58351199999999
 22
5.303259999999998
 32
0.0
 13
21.58351199999999
 23
5.303259999999998
 33
0.0
  0
SOLID
  5
FC
330
DF
100
AcDbEntity
  8
MO_001_VIEW_PV
  6
BYBLOCK
100
AcDbTrace
 10
21.58351199999999
 20
-5.303259999999998
 30
0.0
 11
21.0
 21
-2.493
 31
0.0
 12
20.416488
 22
-5.303259999999998
 32
0.0
 13
20.416488
 23
-5.303259999999998
 33
0.0
  0
LINE
  5
FD
330
DF
100
AcDbEntity
  8
MO_001_VIEW_PV
  6
BYBLOCK
100
AcDbLine
 10
10.879999
 20
1.985
 30
0.0
 11
23.28599899999999
 21
1.985
 31
0.0
  0
LINE
  5
FE
330
DF
100
AcDbEntity
  8
MO_001_VIEW_PV
  6
BYBLOCK
100
AcDbLine
 10
10.879999
 20
-1.985
 30
0.0
 11
23.28599899999999
 21
-1.985
 31
0.0
  0
LINE
  5
FF
330
DF
100
AcDbEntity
  8
MO_001_VIEW_PV
  6
BYBLOCK
100
AcDbLine
 10
21.0
 20
-1.985
 30
0.0
 11
21.0
 21
-26.785713
 31
0.0
  0
ENDBLK
  5
100
330
DF
100
AcDbEntity
  8
0
100
AcDbBlockEnd
  0
BLOCK
  5
101
330
E1
100
AcDbEntity
  8
0
100
AcDbBlockBegin
  2
*D1
 70
     1
 10
0.0
 20
0.0
 30
0.0
  3
*D1
  1

  0
TEXT
  5
102
330
E1
100
AcDbEntity
  8
MO_001_VIEW_PV
  6
BYBLOCK
100
AcDbText
 10
23.25522499999999
 20
29.625
 30
0.0
 40
1.5
  1
%%P0.5
100
AcDbText
  0
TEXT
  5
103
330
E1
100
AcDbEntity
  8
MO_001_VIEW_PV
  6
BYBLOCK
100
AcDbText
 10
11.469511
 20
27.75
 30
0.0
 40
3.0
  1
11.1
100
AcDbText
  0
LINE
  5
104
330
E1
100
AcDbEntity
  8
MO_001_VIEW_PV
  6
BYBLOCK
100
AcDbLine
 10
0.0
 20
27.0
 30
0.0
 11
11.08
 21
27.0
 31
0.0
  0
SOLID
  5
105
330
E1
100
AcDbEntity
  8
MO_001_VIEW_PV
  6
BYBLOCK
100
AcDbTrace
 10
3.318259999999998
 20
27.58351199999999
 30
0.0
 11
0.508
 21
27.0
 31
0.0
 12
3.318259999999998
 22
26.416488
 32
0.0
 13
3.318259999999998
 23
26.416488
 33
0.0
  0
SOLID
  5
106
330
E1
100
AcDbEntity
  8
MO_001_VIEW_PV
  6
BYBLOCK
100
AcDbTrace
 10
7.761739999999998
 20
26.416488
 30
0.0
 11
10.572
 21
27.0
 31
0.0
 12
7.761739999999998
 22
27.58351199999999
 32
0.0
 13
7.761739999999998
 23
27.58351199999999
 33
0.0
  0
LINE
  5
107
330
E1
100
AcDbEntity
  8
MO_001_VIEW_PV
  6
BYBLOCK
100
AcDbLine
 10
0.0
 20
12.55
 30
0.0
 11
0.0
 21
29.285999
 31
0.0
  0
LINE
  5
108
330
E1
100
AcDbEntity
  8
MO_001_VIEW_PV
  6
BYBLOCK
100
AcDbLine
 10
11.08
 20
1.784999999999999
 30
0.0
 11
11.08
 21
29.285999
 31
0.0
  0
LINE
  5
109
330
E1
100
AcDbEntity
  8
MO_001_VIEW_PV
  6
BYBLOCK
100
AcDbLine
 10
11.08
 20
27.0
 30
0.0
 11
29.57665399999999
 21
27.0
 31
0.0
  0
ENDBLK
  5
10A
330
E1
100
AcDbEntity
  8
0
100
AcDbBlockEnd
  0
BLOCK
  5
10B
330
E3
100
AcDbEntity
  8
0
100
AcDbBlockBegin
  2
*D2
 70
     1
 10
0.0
 20
0.0
 30
0.0
  3
*D2
  1

  0
TEXT
  5
10C
330
E3
100
AcDbEntity
  8
MO_001_VIEW_PV
  6
BYBLOCK
100
AcDbText
 10
-10.295714
 20
29.625
 30
0.0
 40
1.5
  1
%%P1.0
100
AcDbText
  0
TEXT
  5
10D
330
E3
100
AcDbEntity
  8
MO_001_VIEW_PV
  6
BYBLOCK
100
AcDbText
 10
-22.081428
 20
27.75
 30
0.0
 40
3.0
  1
27.0
100
AcDbText
  0
LINE
  5
10E
330
E3
100
AcDbEntity
  8
MO_001_VIEW_PV
  6
BYBLOCK
100
AcDbLine
 10
-27.019999
 20
27.0
 30
0.0
 11
0.0
 21
27.0
 31
0.0
  0
SOLID
  5
10F
330
E3
100
AcDbEntity
  8
MO_001_VIEW_PV
  6
BYBLOCK
100
AcDbTrace
 10
-23.70173799999999
 20
27.58351199999999
 30
0.0
 11
-26.51199899999999
 21
27.0
 31
0.0
 12
-23.70173799999999
 22
26.416488
 32
0.0
 13
-23.70173799999999
 23
26.416488
 33
0.0
  0
SOLID
  5
110
330
E3
100
AcDbEntity
  8
MO_001_VIEW_PV
  6
BYBLOCK
100
AcDbTrace
 10
-3.318259999999998
 20
26.416488
 30
0.0
 11
-0.508
 21
27.0
 31
0.0
 12
-3.318259999999998
 22
27.58351199999999
 32
0.0
 13
-3.318259999999998
 23
27.58351199999999
 33
0.0
  0
LINE
  5
111
330
E3
100
AcDbEntity
  8
MO_001_VIEW_PV
  6
BYBLOCK
100
AcDbLine
 10
-27.019999
 20
1.839411999999999
 30
0.0
 11
-27.019999
 21
29.285999
 31
0.0
  0
LINE
  5
112
330
E3
100
AcDbEntity
  8
MO_001_VIEW_PV
  6
BYBLOCK
100
AcDbLine
 10
0.0
 20
12.55
 30
0.0
 11
0.0
 21
29.285999
 31
0.0
  0
ENDBLK
  5
113
330
E3
100
AcDbEntity
  8
0
100
AcDbBlockEnd
  0
BLOCK
  5
114
330
E5
100
AcDbEntity
  8
0
100
AcDbBlockBegin
  2
*D3
 70
     1
 10
0.0
 20
0.0
 30
0.0
  3
*D3
  1

  0
TEXT
  5
115
330
E5
100
AcDbEntity
  8
MO_001_VIEW_PV
  6
BYBLOCK
100
AcDbText
 10
23.025626
 20
23.625
 30
0.0
 40
1.5
  1
%%P0.5
100
AcDbText
  0
TEXT
  5
116
330
E5
100
AcDbEntity
  8
MO_001_VIEW_PV
  6
BYBLOCK
100
AcDbText
 10
14.239912
 20
21.75
 30
0.0
 40
3.0
  1
9.5
100
AcDbText
  0
LINE
  5
117
330
E5
100
AcDbEntity
  8
MO_001_VIEW_PV
  6
BYBLOCK
100
AcDbLine
 10
0.0
 20
21.0
 30
0.0
 11
9.5
 21
21.0
 31
0.0
  0
LINE
  5
118
330
E5
100
AcDbEntity
  8
MO_001_VIEW_PV
  6
BYBLOCK
100
AcDbLine
 10
0.0
 20
21.0
 30
0.0
 11
-6.349999999999998
 21
21.0
 31
0.0
  0
LINE
  5
119
330
E5
100
AcDbEntity
  8
MO_001_VIEW_PV
  6
BYBLOCK
100
AcDbLine
 10
9.5
 20
21.0
 30
0.0
 11
15.84999999999999
 21
21.0
 31
0.0
  0
SOLID
  5
11A
330
E5
100
AcDbEntity
  8
MO_001_VIEW_PV
  6
BYBLOCK
100
AcDbTrace
 10
-3.318259999999998
 20
20.416488
 30
0.0
 11
-0.508
 21
21.0
 31
0.0
 12
-3.318259999999998
 22
21.58351199999999
 32
0.0
 13
-3.318259999999998
 23
21.58351199999999
 33
0.0
  0
SOLID
  5
11B
330
E5
100
AcDbEntity
  8
MO_001_VIEW_PV
  6
BYBLOCK
100
AcDbTrace
 10
12.81826
 20
21.58351199999999
 30
0.0
 11
10.00799999999999
 21
21.0
 31
0.0
 12
12.81826
 22
20.416488
 32
0.0
 13
12.81826
 23
20.416488
 33
0.0
  0
LINE
  5
11C
330
E5
100
AcDbEntity
  8
MO_001_VIEW_PV
  6
BYBLOCK
100
AcDbLine
 10
0.0
 20
12.55
 30
0.0
 11
0.0
 21
23.28599899999999
 31
0.0
  0
LINE
  5
11D
330
E5
100
AcDbEntity
  8
MO_001_VIEW_PV
  6
BYBLOCK
100
AcDbLine
 10
9.5
 20
9.899998999999999
 30
0.0
 11
9.5
 21
23.28599899999999
 31
0.0
  0
LINE
  5
11E
330
E5
100
AcDbEntity
  8
MO_001_VIEW_PV
  6
BYBLOCK
100
AcDbLine
 10
9.5
 20
21.0
 30
0.0
 11
29.34705499999999
 21
21.0
 31
0.0
  0
ENDBLK
  5
11F
330
E5
100
AcDbEntity
  8
0
100
AcDbBlockEnd
  0
BLOCK
  5
120
330
E7
100
AcDbEntity
  8
0
100
AcDbBlockBegin
  2
*D4
 70
     1
 10
0.0
 20
0.0
 30
0.0
  3
*D4
  1

  0
TEXT
  5
121
330
E7
100
AcDbEntity
  8
MO_001_VIEW_PV
  6
BYBLOCK
100
AcDbText
 10
-13.031429
 20
21.75
 30
0.0
 40
3.0
  1
15.2以下
100
AcDbText
  0
LINE
  5
122
330
E7
100
AcDbEntity
  8
MO_001_VIEW_PV
  6
BYBLOCK
100
AcDbLine
 10
-14.91999999999999
 20
21.0
 30
0.0
 11
0.0
 21
21.0
 31
0.0
  0
SOLID
  5
123
330
E7
100
AcDbEntity
  8
MO_001_VIEW_PV
  6
BYBLOCK
100
AcDbTrace
 10
-11.60174
 20
21.58351199999999
 30
0.0
 11
-14.412
 21
21.0
 31
0.0
 12
-11.60174
 22
20.416488
 32
0.0
 13
-11.60174
 23
20.416488
 33
0.0
  0
SOLID
  5
124
330
E7
100
AcDbEntity
  8
MO_001_VIEW_PV
  6
BYBLOCK
100
AcDbTrace
 10
-3.318259999999998
 20
20.416488
 30
0.0
 11
-0.508
 21
21.0
 31
0.0
 12
-3.318259999999998
 22
21.58351199999999
 32
0.0
 13
-3.318259999999998
 23
21.58351199999999
 33
0.0
  0
LINE
  5
125
330
E7
100
AcDbEntity
  8
MO_001_VIEW_PV
  6
BYBLOCK
100
AcDbLine
 10
-14.91999999999999
 20
12.5
 30
0.0
 11
-14.91999999999999
 21
23.28599899999999
 31
0.0
  0
LINE
  5
126
330
E7
100
AcDbEntity
  8
MO_001_VIEW_PV
  6
BYBLOCK
100
AcDbLine
 10
0.0
 20
12.55
 30
0.0
 11
0.0
 21
23.28599899999999
 31
0.0
  0
ENDBLK
  5
127
330
E7
100
AcDbEntity
  8
0
100
AcDbBlockEnd
  0
BLOCK
  5
128
330
E9
100
AcDbEntity
  8
0
100
AcDbBlockBegin
  2
*D5
 70
     1
 10
0.0
 20
0.0
 30
0.0
  3
*D5
  1

  0
TEXT
  5
129
330
E9
100
AcDbEntity
  8
MO_001_VIEW_PV
  6
BYBLOCK
100
AcDbText
 10
30.375
 20
3.214285999999998
 30
0.0
 40
1.5
  1
%%P0.3
 50
90.0
100
AcDbText
  0
TEXT
  5
12A
330
E9
100
AcDbEntity
  8
MO_001_VIEW_PV
  6
BYBLOCK
100
AcDbText
 10
32.25
 20
-8.571429
 30
0.0
 40
3.0
  1
18.3
 50
90.0
100
AcDbText
  0
LINE
  5
12B
330
E9
100
AcDbEntity
  8
MO_001_VIEW_PV
  6
BYBLOCK
100
AcDbLine
 10
33.0
 20
-9.15
 30
0.0
 11
33.0
 21
9.15
 31
0.0
  0
LINE
  5
12C
330
E9
100
AcDbEntity
  8
MO_001_VIEW_PV
  6
BYBLOCK
100
AcDbLine
 10
33.0
 20
-9.15
 30
0.0
 11
33.0
 21
-15.5
 31
0.0
  0
LINE
  5
12D
330
E9
100
AcDbEntity
  8
MO_001_VIEW_PV
  6
BYBLOCK
100
AcDbLine
 10
33.0
 20
9.15
 30
0.0
 11
33.0
 21
15.5
 31
0.0
  0
SOLID
  5
12E
330
E9
100
AcDbEntity
  8
MO_001_VIEW_PV
  6
BYBLOCK
100
AcDbTrace
 10
33.58351199999999
 20
-12.46826
 30
0.0
 11
33.0
 21
-9.657999999999999
 31
0.0
 12
32.416488
 22
-12.46826
 32
0.0
 13
32.416488
 23
-12.46826
 33
0.0
  0
SOLID
  5
12F
330
E9
100
AcDbEntity
  8
MO_001_VIEW_PV
  6
BYBLOCK
100
AcDbTrace
 10
32.416488
 20
12.46826
 30
0.0
 11
33.0
 21
9.657999999999999
 31
0.0
 12
33.58351199999999
 22
12.46826
 32
0.0
 13
33.58351199999999
 23
12.46826
 33
0.0
  0
LINE
  5
130
330
E9
100
AcDbEntity
  8
MO_001_VIEW_PV
  6
BYBLOCK
100
AcDbLine
 10
51.0
 20
-9.15
 30
0.0
 11
30.71400099999999
 21
-9.15
 31
0.0
  0
LINE
  5
131
330
E9
100
AcDbEntity
  8
MO_001_VIEW_PV
  6
BYBLOCK
100
AcDbLine
 10
51.0
 20
9.15
 30
0.0
 11
30.71400099999999
 21
9.15
 31
0.0
  0
LINE
  5
132
330
E9
100
AcDbEntity
  8
MO_001_VIEW_PV
  6
BYBLOCK
100
AcDbLine
 10
33.0
 20
-9.535714999999999
 30
0.0
 11
33.0
 21
-9.15
 31
0.0
  0
LINE
  5
133
330
E9
100
AcDbEntity
  8
MO_001_VIEW_PV
  6
BYBLOCK
100
AcDbLine
 10
33.0
 20
9.15
 30
0.0
 11
33.0
 21
9.535712999999999
 31
0.0
  0
ENDBLK
  5
134
330
E9
100
AcDbEntity
  8
0
100
AcDbBlockEnd
  0
BLOCK
  5
135
330
EB
100
AcDbEntity
  8
0
100
AcDbBlockBegin
  2
*D6
 70
     1
 10
0.0
 20
0.0
 30
0.0
  3
*D6
  1

  0
TEXT
  5
136
330
EB
100
AcDbEntity
  8
MO_001_VIEW_PV
  6
BYBLOCK
100
AcDbText
 10
47.928571
 20
27.75
 30
0.0
 40
3.0
  1
%%C30以下
100
AcDbText
  0
LINE
  5
137
330
EB
100
AcDbEntity
  8
MO_001_VIEW_PV
  6
BYBLOCK
100
AcDbLine
 10
39.69999699999998
 20
27.0
 30
0.0
 11
68.300003
 21
27.0
 31
0.0
  0
SOLID
  5
138
330
EB
100
AcDbEntity
  8
MO_001_VIEW_PV
  6
BYBLOCK
100
AcDbTrace
 10
43.018257
 20
27.58351199999999
 30
0.0
 11
40.207997
 21
27.0
 31
0.0
 12
43.018257
 22
26.416488
 32
0.0
 13
43.018257
 23
26.416488
 33
0.0
  0
SOLID
  5
139
330
EB
100
AcDbEntity
  8
MO_001_VIEW_PV
  6
BYBLOCK
100
AcDbTrace
 10
64.98174300000001
 20
26.416488
 30
0.0
 11
67.79200300000001
 21
27.0
 31
0.0
 12
64.98174300000001
 22
27.58351199999999
 32
0.0
 13
64.98174300000001
 23
27.58351199999999
 33
0.0
  0
LINE
  5
13A
330
EB
100
AcDbEntity
  8
MO_001_VIEW_PV
  6
BYBLOCK
100
AcDbLine
 10
39.69999699999998
 20
0.0
 30
0.0
 11
39.69999699999998
 21
29.285999
 31
0.0
  0
LINE
  5
13B
330
EB
100
AcDbEntity
  8
MO_001_VIEW_PV
  6
BYBLOCK
100
AcDbLine
 10
68.300003
 20
0.0
 30
0.0
 11
68.300003
 21
29.285999
 31
0.0
  0
ENDBLK
  5
13C
330
EB
100
AcDbEntity
  8
0
100
AcDbBlockEnd
  0
BLOCK
  5
13D
330
ED
100
AcDbEntity
  8
0
100
AcDbBlockBegin
  2
*D7
 70
     1
 10
0.0
 20
0.0
 30
0.0
  3
*D7
  1

  0
LINE
  5
13E
330
ED
100
AcDbEntity
  8
MO_001_VIEW_PV
  6
BYBLOCK
100
AcDbLine
 10
59.528839
 20
-13.187948
 30
0.0
 11
81.286003
 21
-13.187948
 31
0.0
  0
TEXT
  5
13F
330
ED
100
AcDbEntity
  8
MO_001_VIEW_PV
  6
BYBLOCK
100
AcDbText
 10
78.25
 20
6.518491
 30
0.0
 40
3.0
  1
長さ250以上
 50
90.0
100
AcDbText
  0
LINE
  5
140
330
ED
100
AcDbEntity
  8
MO_001_VIEW_PV
  6
BYBLOCK
100
AcDbLine
 10
79.0
 20
-37.30001099999999
 30
0.0
 11
79.0
 21
-13.187948
 31
0.0
  0
SOLID
  5
141
330
ED
100
AcDbEntity
  8
MO_001_VIEW_PV
  6
BYBLOCK
100
AcDbTrace
 10
78.416488
 20
-33.981751
 30
0.0
 11
79.0
 21
-36.79201099999998
 31
0.0
 12
79.583512
 22
-33.981751
 32
0.0
 13
79.583512
 23
-33.981751
 33
0.0
  0
SOLID
  5
142
330
ED
100
AcDbEntity
  8
MO_001_VIEW_PV
  6
BYBLOCK
100
AcDbTrace
 10
79.583512
 20
-16.50620799999999
 30
0.0
 11
79.0
 21
-13.695948
 31
0.0
 12
78.416488
 22
-16.50620799999999
 32
0.0
 13
78.416488
 23
-16.50620799999999
 33
0.0
  0
LINE
  5
143
330
ED
100
AcDbEntity
  8
MO_001_VIEW_PV
  6
BYBLOCK
100
AcDbLine
 10
59.128838
 20
-37.30001099999999
 30
0.0
 11
81.286003
 21
-37.30001099999999
 31
0.0
  0
LINE
  5
144
330
ED
100
AcDbEntity
  8
MO_001_VIEW_PV
  6
BYBLOCK
100
AcDbLine
 10
79.0
 20
-13.187948
 30
0.0
 11
79.0
 21
27.625633
 31
0.0
  0
ENDBLK
  5
145
330
ED
100
AcDbEntity
  8
0
100
AcDbBlockEnd
  0
ENDSEC
  0
SECTION
  2
ENTITIES
  0
TEXT
  5
4B
330
1E
100
AcDbEntity
  8
OVERLAY_MAP
  6
C_SOLID_L
100
AcDbText
 10
0.0
 20
6.349999999999998
 30
0.0
 40
4.1672
  1
Model Overlay Name
100
AcDbText
  0
TEXT
  5
4C
330
1E
100
AcDbEntity
  8
OVERLAY_MAP
  6
C_SOLID_L
100
AcDbText
 10
126.999998
 20
0.0
 30
0.0
 40
4.1672
  1
Number
100
AcDbText
  0
TEXT
  5
4D
330
1E
100
AcDbEntity
  8
OVERLAY_MAP
  6
C_SOLID_L
100
AcDbText
 10
177.7999969999999
 20
0.0
 30
0.0
 40
4.1672
  1
File Text
100
AcDbText
  0
TEXT
  5
4E
330
1E
100
AcDbEntity
  8
OVERLAY_MAP
  6
C_SOLID_L
100
AcDbText
 10
0.0
 20
-6.349999999999998
 30
0.0
 40
4.1672
  1
pp 2ec 
100
AcDbText
  0
TEXT
  5
4F
330
1E
100
AcDbEntity
  8
OVERLAY_MAP
  6
C_SOLID_L
100
AcDbText
 10
126.999998
 20
-6.349999999999998
 30
0.0
 40
4.1672
  1
001
100
AcDbText
  0
TEXT
  5
50
330
1E
100
AcDbEntity
  8
OVERLAY_MAP
  6
C_SOLID_L
100
AcDbText
 10
177.7999969999999
 20
-6.349999999999998
 30
0.0
 40
4.1672
  1
                                                               131800116
100
AcDbText
  0
ARC
  5
51
330
1E
100
AcDbEntity
  8
MO_001_VIEW_PV
  6
C_SOLID_M
100
AcDbCircle
 10
-51.0
 20
0.0
 30
0.0
 40
14.3
100
AcDbArc
 50
292.745101
 51
247.254924
  0
LINE
  5
52
330
1E
100
AcDbEntity
  8
MO_001_VIEW_PV
  6
C_CENTER_L
100
AcDbLine
 10
-68.5
 20
0.0
 30
0.0
 11
-33.5
 21
0.0
 31
0.0
  0
LINE
  5
53
330
1E
100
AcDbEntity
  8
MO_001_VIEW_PV
  6
C_CENTER_L
100
AcDbLine
 10
-51.0
 20
17.5
 30
0.0
 11
-51.0
 21
-17.5
 31
0.0
  0
ARC
  5
54
330
1E
100
AcDbEntity
  8
MO_001_VIEW_PV
  6
C_SOLID_M
100
AcDbCircle
 10
-55.75
 20
-13.48805
 30
0.0
 40
1.35
100
AcDbArc
 50
343.305119
 51
157.894084
  0
ARC
  5
55
330
1E
100
AcDbEntity
  8
MO_001_VIEW_PV
  6
C_SOLID_M
100
AcDbCircle
 10
-46.25
 20
-13.48805
 30
0.0
 40
1.35
100
AcDbArc
 50
22.105935
 51
196.694859
  0
LINE
  5
56
330
1E
100
AcDbEntity
  8
MO_001_VIEW_PV
  6
C_SOLID_M
100
AcDbLine
 10
-10.52000199999999
 20
14.3
 30
0.0
 11
-0.22
 21
14.3
 31
0.0
  0
LINE
  5
57
330
1E
100
AcDbEntity
  8
MO_001_VIEW_PV
  6
C_SOLID_M
100
AcDbLine
 10
-10.52000199999999
 20
-14.300003
 30
0.0
 11
-0.22
 21
-14.300003
 31
0.0
  0
LINE
  5
58
330
1E
100
AcDbEntity
  8
MO_001_VIEW_PV
  6
C_SOLID_M
100
AcDbLine
 10
-0.22
 20
14.3
 30
0.0
 11
-0.22
 21
-14.300003
 31
0.0
  0
LINE
  5
59
330
1E
100
AcDbEntity
  8
MO_001_VIEW_PV
  6
C_SOLID_M
100
AcDbLine
 10
-13.219999
 20
11.59999999999999
 30
0.0
 11
-13.219999
 21
-11.59999999999999
 31
0.0
  0
ARC
  5
5A
330
1E
100
AcDbEntity
  8
MO_001_VIEW_PV
  6
C_SOLID_M
100
AcDbCircle
 10
-10.52000199999999
 20
11.59999999999999
 30
0.0
 40
2.7
100
AcDbArc
 50
89.99998199999998
 51
180.0000189999999
  0
ARC
  5
5B
330
1E
100
AcDbEntity
  8
MO_001_VIEW_PV
  6
C_SOLID_M
100
AcDbCircle
 10
-10.52000199999999
 20
-11.59999999999999
 30
0.0
 40
2.7
100
AcDbArc
 50
180.000036
 51
215.482486
  0
LINE
  5
5C
330
1E
100
AcDbEntity
  8
MO_001_VIEW_PV
  6
C_CENTER_L
100
AcDbLine
 10
-30.0
 20
0.0
 30
0.0
 11
15.0
 21
0.0
 31
0.0
  0
CIRCLE
  5
5D
330
1E
100
AcDbEntity
  8
MO_001_VIEW_PV
  6
C_SOLID_M
100
AcDbCircle
 10
54.0
 20
0.0
 30
0.0
 40
14.3
  0
LINE
  5
5E
330
1E
100
AcDbEntity
  8
MO_001_VIEW_PV
  6
C_CENTER_L
100
AcDbLine
 10
71.5
 20
0.0
 30
0.0
 11
37.83858499999999
 21
0.0
 31
0.0
  0
LINE
  5
5F
330
1E
100
AcDbEntity
  8
MO_001_VIEW_PV
  6
C_CENTER_L
100
AcDbLine
 10
54.0
 20
17.5
 30
0.0
 11
54.0
 21
-17.5
 31
0.0
  0
LINE
  5
60
330
1E
100
AcDbEntity
  8
MO_001_VIEW_PV
  6
C_SOLID_M
100
AcDbLine
 10
0.0
 20
12.55
 30
0.0
 11
0.0
 21
-12.55
 31
0.0
  0
LINE
  5
61
330
1E
100
AcDbEntity
  8
MO_001_VIEW_PV
  6
C_SOLID_M
100
AcDbLine
 10
-0.22
 20
12.769999
 30
0.0
 11
0.0
 21
12.55
 31
0.0
  0
LINE
  5
62
330
1E
100
AcDbEntity
  8
MO_001_VIEW_PV
  6
C_SOLID_M
100
AcDbLine
 10
-0.000001
 20
-12.55
 30
0.0
 11
-0.22
 21
-12.769999
 31
0.0
  0
LINE
  5
63
330
1E
100
AcDbEntity
  8
MO_001_VIEW_PV
  6
C_SOLID_M
100
AcDbLine
 10
9.5
 20
9.899998999999999
 30
0.0
 11
9.5
 21
8.4
 31
0.0
  0
LINE
  5
64
330
1E
100
AcDbEntity
  8
MO_001_VIEW_PV
  6
C_SOLID_M
100
AcDbLine
 10
0.0
 20
10.29999899999999
 30
0.0
 11
9.099999999999999
 21
10.29999899999999
 31
0.0
  0
LINE
  5
65
330
1E
100
AcDbEntity
  8
MO_001_VIEW_PV
  6
C_SOLID_M
100
AcDbLine
 10
0.0
 20
8.0
 30
0.0
 11
9.099999999999999
 21
8.0
 31
0.0
  0
LINE
  5
66
330
1E
100
AcDbEntity
  8
MO_001_VIEW_PV
  6
C_SOLID_L
100
AcDbLine
 10
0.0
 20
9.9
 30
0.0
 11
9.5
 21
9.9
 31
0.0
  0
LINE
  5
67
330
1E
100
AcDbEntity
  8
MO_001_VIEW_PV
  6
C_SOLID_L
100
AcDbLine
 10
0.0
 20
8.4
 30
0.0
 11
9.5
 21
8.4
 31
0.0
  0
LINE
  5
68
330
1E
100
AcDbEntity
  8
MO_001_VIEW_PV
  6
C_SOLID_M
100
AcDbLine
 10
9.099999999999999
 20
10.29999899999999
 30
0.0
 11
9.099999999999999
 21
8.0
 31
0.0
  0
LINE
  5
69
330
1E
100
AcDbEntity
  8
MO_001_VIEW_PV
  6
C_SOLID_M
100
AcDbLine
 10
9.099999999999999
 20
10.29999899999999
 30
0.0
 11
9.5
 21
9.899998999999999
 31
0.0
  0
LINE
  5
6A
330
1E
100
AcDbEntity
  8
MO_001_VIEW_PV
  6
C_SOLID_M
100
AcDbLine
 10
9.099999
 20
7.999999
 30
0.0
 11
9.499999
 21
8.399999000000001
 31
0.0
  0
LINE
  5
6B
330
1E
100
AcDbEntity
  8
MO_001_VIEW_PV
  6
C_SOLID_M
100
AcDbLine
 10
9.5
 20
-9.899998999999999
 30
0.0
 11
9.5
 21
-8.4
 31
0.0
  0
LINE
  5
6C
330
1E
100
AcDbEntity
  8
MO_001_VIEW_PV
  6
C_SOLID_M
100
AcDbLine
 10
0.0
 20
-10.29999899999999
 30
0.0
 11
9.099999999999999
 21
-10.29999899999999
 31
0.0
  0
LINE
  5
6D
330
1E
100
AcDbEntity
  8
MO_001_VIEW_PV
  6
C_SOLID_M
100
AcDbLine
 10
0.0
 20
-8.0
 30
0.0
 11
9.099999999999999
 21
-8.0
 31
0.0
  0
LINE
  5
6E
330
1E
100
AcDbEntity
  8
MO_001_VIEW_PV
  6
C_SOLID_L
100
AcDbLine
 10
0.0
 20
-9.9
 30
0.0
 11
9.5
 21
-9.9
 31
0.0
  0
LINE
  5
6F
330
1E
100
AcDbEntity
  8
MO_001_VIEW_PV
  6
C_SOLID_L
100
AcDbLine
 10
0.0
 20
-8.4
 30
0.0
 11
9.5
 21
-8.4
 31
0.0
  0
LINE
  5
70
330
1E
100
AcDbEntity
  8
MO_001_VIEW_PV
  6
C_SOLID_M
100
AcDbLine
 10
9.099999999999999
 20
-10.29999899999999
 30
0.0
 11
9.099999999999999
 21
-8.0
 31
0.0
  0
LINE
  5
71
330
1E
100
AcDbEntity
  8
MO_001_VIEW_PV
  6
C_SOLID_M
100
AcDbLine
 10
9.100000999999997
 20
-10.300001
 30
0.0
 11
9.500002
 21
-9.9
 31
0.0
  0
LINE
  5
72
330
1E
100
AcDbEntity
  8
MO_001_VIEW_PV
  6
C_SOLID_M
100
AcDbLine
 10
9.099999
 20
-7.999999
 30
0.0
 11
9.499999
 21
-8.399999000000001
 31
0.0
  0
CIRCLE
  5
73
330
1E
100
AcDbEntity
  8
MO_001_VIEW_PV
  6
C_SOLID_M
100
AcDbCircle
 10
54.0
 20
0.0
 30
0.0
 40
12.85
  0
LINE
  5
74
330
1E
100
AcDbEntity
  8
MO_001_VIEW_PV
  6
C_CENTER_L
100
AcDbLine
 10
-1.539379999999999
 20
9.15
 30
0.0
 11
11.453003
 21
9.15
 31
0.0
  0
LINE
  5
75
330
1E
100
AcDbEntity
  8
MO_001_VIEW_PV
  6
C_CENTER_L
100
AcDbLine
 10
-1.539379999999999
 20
-9.15
 30
0.0
 11
11.453003
 21
-9.15
 31
0.0
  0
CIRCLE
  5
76
330
1E
100
AcDbEntity
  8
MO_001_VIEW_PV
  6
C_SOLID_L
100
AcDbCircle
 10
54.0
 20
9.15
 30
0.0
 40
0.75
  0
CIRCLE
  5
77
330
1E
100
AcDbEntity
  8
MO_001_VIEW_PV
  6
C_SOLID_M
100
AcDbCircle
 10
54.0
 20
9.15
 30
0.0
 40
1.149999999999999
  0
LINE
  5
78
330
1E
100
AcDbEntity
  8
MO_001_VIEW_PV
  6
C_CENTER_L
100
AcDbLine
 10
51.0
 20
9.15
 30
0.0
 11
57.0
 21
9.15
 31
0.0
  0
LINE
  5
79
330
1E
100
AcDbEntity
  8
MO_001_VIEW_PV
  6
C_CENTER_L
100
AcDbLine
 10
-1.539379999999999
 20
9.15
 30
0.0
 11
11.453003
 21
9.15
 31
0.0
  0
CIRCLE
  5
7A
330
1E
100
AcDbEntity
  8
MO_001_VIEW_PV
  6
C_SOLID_L
100
AcDbCircle
 10
54.0
 20
-9.15
 30
0.0
 40
0.75
  0
CIRCLE
  5
7B
330
1E
100
AcDbEntity
  8
MO_001_VIEW_PV
  6
C_SOLID_M
100
AcDbCircle
 10
54.0
 20
-9.15
 30
0.0
 40
1.149999999999999
  0
LINE
  5
7C
330
1E
100
AcDbEntity
  8
MO_001_VIEW_PV
  6
C_CENTER_L
100
AcDbLine
 10
51.0
 20
-9.15
 30
0.0
 11
57.0
 21
-9.15
 31
0.0
  0
LINE
  5
7D
330
1E
100
AcDbEntity
  8
MO_001_VIEW_PV
  6
C_SOLID_M
100
AcDbLine
 10
-14.91999999999999
 20
-12.5
 30
0.0
 11
-14.91999999999999
 21
12.5
 31
0.0
  0
LINE
  5
7E
330
1E
100
AcDbEntity
  8
MO_001_VIEW_PV
  6
C_SOLID_M
100
AcDbLine
 10
-14.91999999999999
 20
12.5
 30
0.0
 11
-13.42
 21
12.5
 31
0.0
  0
LINE
  5
7F
330
1E
100
AcDbEntity
  8
MO_001_VIEW_PV
  6
C_SOLID_M
100
AcDbLine
 10
-14.91999999999999
 20
-12.5
 30
0.0
 11
-13.42
 21
-12.5
 31
0.0
  0
LINE
  5
80
330
1E
100
AcDbEntity
  8
MO_001_VIEW_PV
  6
C_SOLID_M
100
AcDbLine
 10
-13.42
 20
-12.5
 30
0.0
 11
-13.42
 21
12.5
 31
0.0
  0
LINE
  5
81
330
1E
100
AcDbEntity
  8
MO_001_VIEW_PV
  6
C_SOLID_M
100
AcDbLine
 10
11.08
 20
-1.784999999999999
 30
0.0
 11
11.08
 21
1.784999999999999
 31
0.0
  0
LINE
  5
82
330
1E
100
AcDbEntity
  8
MO_001_VIEW_PV
  6
C_SOLID_M
100
AcDbLine
 10
0.0
 20
1.985
 30
0.0
 11
10.879999
 21
1.985
 31
0.0
  0
LINE
  5
83
330
1E
100
AcDbEntity
  8
MO_001_VIEW_PV
  6
C_SOLID_M
100
AcDbLine
 10
0.0
 20
-1.985
 30
0.0
 11
10.879999
 21
-1.985
 31
0.0
  0
LINE
  5
84
330
1E
100
AcDbEntity
  8
MO_001_VIEW_PV
  6
C_SOLID_M
100
AcDbLine
 10
-27.019999
 20
-1.839411999999999
 30
0.0
 11
-27.019999
 21
1.839411999999999
 31
0.0
  0
LINE
  5
85
330
1E
100
AcDbEntity
  8
MO_001_VIEW_PV
  6
C_SOLID_M
100
AcDbLine
 10
11.07999799999999
 20
-1.785000999999999
 30
0.0
 11
10.87999699999999
 21
-1.985000999999999
 31
0.0
  0
LINE
  5
86
330
1E
100
AcDbEntity
  8
MO_001_VIEW_PV
  6
C_SOLID_M
100
AcDbLine
 10
11.07999799999999
 20
1.785000999999999
 30
0.0
 11
10.87999699999999
 21
1.985000999999999
 31
0.0
  0
LINE
  5
87
330
1E
100
AcDbEntity
  8
MO_001_VIEW_PV
  6
C_SOLID_M
100
AcDbLine
 10
-26.619999
 20
-1.985000999999999
 30
0.0
 11
-27.019999
 21
-1.839413
 31
0.0
  0
LINE
  5
88
330
1E
100
AcDbEntity
  8
MO_001_VIEW_PV
  6
C_SOLID_M
100
AcDbLine
 10
-26.619999
 20
1.985000999999999
 30
0.0
 11
-27.019999
 21
1.839413
 31
0.0
  0
LINE
  5
89
330
1E
100
AcDbEntity
  8
MO_001_VIEW_PV
  6
C_SOLID_M
100
AcDbLine
 10
-26.620001
 20
-1.985
 30
0.0
 11
-26.620001
 21
1.985
 31
0.0
  0
LINE
  5
8A
330
1E
100
AcDbEntity
  8
MO_001_VIEW_PV
  6
C_SOLID_M
100
AcDbLine
 10
10.879999
 20
-1.985
 30
0.0
 11
10.879999
 21
1.985
 31
0.0
  0
LINE
  5
8B
330
1E
100
AcDbEntity
  8
MO_001_VIEW_PV
  6
C_SOLID_M
100
AcDbLine
 10
-26.620001
 20
1.985
 30
0.0
 11
-14.91999999999999
 21
1.985
 31
0.0
  0
LINE
  5
8C
330
1E
100
AcDbEntity
  8
MO_001_VIEW_PV
  6
C_SOLID_M
100
AcDbLine
 10
-26.620001
 20
-1.985
 30
0.0
 11
-14.91999999999999
 21
-1.985
 31
0.0
  0
LINE
  5
8D
330
1E
100
AcDbEntity
  8
MO_001_VIEW_PV
  6
C_SOLID_M
100
AcDbLine
 10
-13.219999
 20
-10.7
 30
0.0
 11
-13.219999
 21
10.7
 31
0.0
  0
LINE
  5
8E
330
1E
100
AcDbEntity
  8
MO_001_VIEW_PV
  6
C_SOLID_M
100
AcDbLine
 10
-13.42
 20
10.7
 30
0.0
 11
-13.219999
 21
10.7
 31
0.0
  0
LINE
  5
8F
330
1E
100
AcDbEntity
  8
MO_001_VIEW_PV
  6
C_SOLID_M
100
AcDbLine
 10
-13.42
 20
-10.7
 30
0.0
 11
-13.219999
 21
-10.7
 31
0.0
  0
LINE
  5
90
330
1E
100
AcDbEntity
  8
MO_001_VIEW_PV
  6
C_SOLID_M
100
AcDbLine
 10
-12.816745
 20
-13.265378
 30
0.0
 11
-12.365129
 21
-12.81376199999999
 31
0.0
  0
LINE
  5
91
330
1E
100
AcDbEntity
  8
MO_001_VIEW_PV
  6
C_SOLID_M
100
AcDbLine
 10
-11.685375
 20
-14.396748
 30
0.0
 11
-11.077017
 21
-13.788391
 31
0.0
  0
ARC
  5
92
330
1E
100
AcDbEntity
  8
MO_001_VIEW_PV
  6
C_SOLID_M
100
AcDbCircle
 10
-13.27560599999999
 20
-15.35561799999999
 30
0.0
 40
2.7
100
AcDbArc
 50
23.342742
 51
84.120132
  0
ARC
  5
93
330
1E
100
AcDbEntity
  8
MO_001_VIEW_PV
  6
C_SOLID_M
100
AcDbCircle
 10
-10.52000199999999
 20
-11.59999999999999
 30
0.0
 40
2.7
100
AcDbArc
 50
250.29275
 51
270.0000249999999
  0
LINE
  5
94
330
1E
100
AcDbEntity
  8
MO_001_VIEW_PV
  6
C_SOLID_M
100
AcDbLine
 10
-15.62852099999999
 20
-20.053604
 30
0.0
 11
-15.62852099999999
 21
-25.300003
 31
0.0
  0
LINE
  5
95
330
1E
100
AcDbEntity
  8
MO_001_VIEW_PV
  6
C_SOLID_M
100
AcDbLine
 10
-14.028521
 20
-20.053604
 30
0.0
 11
-14.028521
 21
-25.300003
 31
0.0
  0
ARC
  5
96
330
1E
100
AcDbEntity
  8
MO_001_VIEW_PV
  6
C_SOLID_M
100
AcDbCircle
 10
-6.028520999999998
 20
-20.053604
 30
0.0
 40
8.0
100
AcDbArc
 50
135.0
 51
180.000005
  0
ARC
  5
97
330
1E
100
AcDbEntity
  8
MO_001_VIEW_PV
  6
C_SOLID_M
100
AcDbCircle
 10
-6.028520999999998
 20
-20.053604
 30
0.0
 40
9.599999999999999
100
AcDbArc
 50
135.0
 51
180.000005
  0
ARC
  5
98
330
1E
100
AcDbEntity
  8
MO_001_VIEW_PV
  6
C_SOLID_M
100
AcDbCircle
 10
-15.22852099999998
 20
-25.600002
 30
0.0
 40
0.5
100
AcDbArc
 50
36.869788
 51
143.130207
  0
ARC
  5
99
330
1E
100
AcDbEntity
  8
MO_001_VIEW_PV
  6
C_SOLID_M
100
AcDbCircle
 10
-15.22852099999998
 20
-25.000004
 30
0.0
 40
0.5
100
AcDbArc
 50
216.8697929999999
 51
323.130212
  0
ARC
  5
9A
330
1E
100
AcDbEntity
  8
MO_001_VIEW_PV
  6
C_SOLID_M
100
AcDbCircle
 10
-14.42851799999998
 20
-25.000004
 30
0.0
 40
0.5
100
AcDbArc
 50
216.8697929999999
 51
323.130212
  0
LINE
  5
9B
330
1E
100
AcDbEntity
  8
MO_001_VIEW_PV
  6
C_SOLID_M
100
AcDbLine
 10
57.92883299999999
 20
-13.7497
 30
0.0
 11
57.92883299999999
 21
-25.300003
 31
0.0
  0
LINE
  5
9C
330
1E
100
AcDbEntity
  8
MO_001_VIEW_PV
  6
C_SOLID_M
100
AcDbLine
 10
59.528839
 20
-13.187948
 30
0.0
 11
59.528839
 21
-25.300003
 31
0.0
  0
ARC
  5
9D
330
1E
100
AcDbEntity
  8
MO_001_VIEW_PV
  6
C_SOLID_M
100
AcDbCircle
 10
58.328842
 20
-25.600002
 30
0.0
 40
0.5
100
AcDbArc
 50
36.869788
 51
143.130207
  0
ARC
  5
9E
330
1E
100
AcDbEntity
  8
MO_001_VIEW_PV
  6
C_SOLID_M
100
AcDbCircle
 10
58.328842
 20
-25.000004
 30
0.0
 40
0.5
100
AcDbArc
 50
216.8697929999999
 51
323.130212
  0
ARC
  5
9F
330
1E
100
AcDbEntity
  8
MO_001_VIEW_PV
  6
C_SOLID_M
100
AcDbCircle
 10
59.128845
 20
-25.000004
 30
0.0
 40
0.5
100
AcDbArc
 50
216.8697929999999
 51
323.130212
  0
LINE
  5
A0
330
1E
100
AcDbEntity
  8
MO_001_VIEW_PV
  6
C_SOLID_M
100
AcDbLine
 10
48.471169
 20
-13.187948
 30
0.0
 11
48.471169
 21
-25.300003
 31
0.0
  0
ARC
  5
A1
330
1E
100
AcDbEntity
  8
MO_001_VIEW_PV
  6
C_SOLID_M
100
AcDbCircle
 10
48.87116999999999
 20
-25.600002
 30
0.0
 40
0.5
100
AcDbArc
 50
36.869788
 51
143.130207
  0
ARC
  5
A2
330
1E
100
AcDbEntity
  8
MO_001_VIEW_PV
  6
C_SOLID_M
100
AcDbCircle
 10
48.87116999999999
 20
-25.000004
 30
0.0
 40
0.5
100
AcDbArc
 50
216.8697929999999
 51
323.130212
  0
ARC
  5
A3
330
1E
100
AcDbEntity
  8
MO_001_VIEW_PV
  6
C_SOLID_M
100
AcDbCircle
 10
49.67117299999999
 20
-25.000004
 30
0.0
 40
0.5
100
AcDbArc
 50
216.8697929999999
 51
323.130212
  0
LINE
  5
A4
330
1E
100
AcDbEntity
  8
MO_001_VIEW_PV
  6
C_SOLID_M
100
AcDbLine
 10
50.071167
 20
-13.7497
 30
0.0
 11
50.071167
 21
-25.300003
 31
0.0
  0
CIRCLE
  5
A5
330
1E
100
AcDbEntity
  8
MO_001_VIEW_PV
  6
C_SOLID_M
100
AcDbCircle
 10
54.0
 20
0.0
 30
0.0
 40
1.985
  0
CIRCLE
  5
A6
330
1E
100
AcDbEntity
  8
MO_001_VIEW_PV
  6
C_SOLID_M
100
AcDbCircle
 10
54.0
 20
0.0
 30
0.0
 40
2.6
  0
LINE
  5
A7
330
1E
100
AcDbEntity
  8
MO_001_VIEW_PV
  6
C_SOLID_M
100
AcDbLine
 10
57.92883299999999
 20
-32.30001099999999
 30
0.0
 11
57.92883299999999
 21
-26.30002199999999
 31
0.0
  0
LINE
  5
A8
330
1E
100
AcDbEntity
  8
MO_001_VIEW_PV
  6
C_SOLID_M
100
AcDbLine
 10
59.528839
 20
-32.30001099999999
 30
0.0
 11
59.528839
 21
-26.30002199999999
 31
0.0
  0
LINE
  5
A9
330
1E
100
AcDbEntity
  8
MO_001_VIEW_PV
  6
C_SOLID_M
100
AcDbLine
 10
48.471169
 20
-32.30001099999999
 30
0.0
 11
48.471169
 21
-26.30002199999999
 31
0.0
  0
LINE
  5
AA
330
1E
100
AcDbEntity
  8
MO_001_VIEW_PV
  6
C_SOLID_M
100
AcDbLine
 10
50.071167
 20
-32.30001099999999
 30
0.0
 11
50.071167
 21
-26.30002199999999
 31
0.0
  0
LINE
  5
AB
330
1E
100
AcDbEntity
  8
MO_001_VIEW_PV
  6
C_SOLID_M
100
AcDbLine
 10
57.92883299999999
 20
-32.30001099999999
 30
0.0
 11
59.528839
 21
-32.30001099999999
 31
0.0
  0
LINE
  5
AC
330
1E
100
AcDbEntity
  8
MO_001_VIEW_PV
  6
C_SOLID_M
100
AcDbLine
 10
48.471169
 20
-32.30001099999999
 30
0.0
 11
50.071167
 21
-32.30001099999999
 31
0.0
  0
ARC
  5
AD
330
1E
100
AcDbEntity
  8
MO_001_VIEW_PV
  6
C_SOLID_M
100
AcDbCircle
 10
59.12883
 20
-26.600002
 30
0.0
 40
0.5
100
AcDbArc
 50
36.869795
 51
143.130207
  0
ARC
  5
AE
330
1E
100
AcDbEntity
  8
MO_001_VIEW_PV
  6
C_SOLID_M
100
AcDbCircle
 10
59.12883
 20
-26.000004
 30
0.0
 40
0.5
100
AcDbArc
 50
216.8697929999999
 51
323.130205
  0
ARC
  5
AF
330
1E
100
AcDbEntity
  8
MO_001_VIEW_PV
  6
C_SOLID_M
100
AcDbCircle
 10
58.328827
 20
-26.600021
 30
0.0
 40
0.5
100
AcDbArc
 50
36.869795
 51
143.130207
  0
ARC
  5
B0
330
1E
100
AcDbEntity
  8
MO_001_VIEW_PV
  6
C_SOLID_M
100
AcDbCircle
 10
48.871155
 20
-26.600031
 30
0.0
 40
0.5
100
AcDbArc
 50
36.869795
 51
143.130207
  0
ARC
  5
B1
330
1E
100
AcDbEntity
  8
MO_001_VIEW_PV
  6
C_SOLID_M
100
AcDbCircle
 10
49.671158
 20
-26.60001199999999
 30
0.0
 40
0.5
100
AcDbArc
 50
36.869795
 51
143.130207
  0
ARC
  5
B2
330
1E
100
AcDbEntity
  8
MO_001_VIEW_PV
  6
C_SOLID_M
100
AcDbCircle
 10
49.671158
 20
-26.000013
 30
0.0
 40
0.5
100
AcDbArc
 50
216.8697929999999
 51
323.130205
  0
LINE
  5
B3
330
1E
100
AcDbEntity
  8
MO_001_VIEW_PV
  6
C_SOLID_M
100
AcDbLine
 10
59.128838
 20
-32.30001099999999
 30
0.0
 11
59.128838
 21
-37.30001099999999
 31
0.0
  0
LINE
  5
B4
330
1E
100
AcDbEntity
  8
MO_001_VIEW_PV
  6
C_SOLID_M
100
AcDbLine
 10
58.328835
 20
-32.30001099999999
 30
0.0
 11
58.328835
 21
-37.30001099999999
 31
0.0
  0
LINE
  5
B5
330
1E
100
AcDbEntity
  8
MO_001_VIEW_PV
  6
C_SOLID_M
100
AcDbLine
 10
58.328835
 20
-37.30001099999999
 30
0.0
 11
59.128838
 21
-37.30001099999999
 31
0.0
  0
LINE
  5
B6
330
1E
100
AcDbEntity
  8
MO_001_VIEW_PV
  6
C_SOLID_M
100
AcDbLine
 10
49.671165
 20
-32.30001099999999
 30
0.0
 11
49.671165
 21
-37.30001099999999
 31
0.0
  0
LINE
  5
B7
330
1E
100
AcDbEntity
  8
MO_001_VIEW_PV
  6
C_SOLID_M
100
AcDbLine
 10
48.871162
 20
-32.30001099999999
 30
0.0
 11
48.871162
 21
-37.30001099999999
 31
0.0
  0
LINE
  5
B8
330
1E
100
AcDbEntity
  8
MO_001_VIEW_PV
  6
C_SOLID_M
100
AcDbLine
 10
48.871162
 20
-37.30001099999999
 30
0.0
 11
49.671165
 21
-37.30001099999999
 31
0.0
  0
LINE
  5
B9
330
1E
100
AcDbEntity
  8
MO_001_VIEW_PV
  6
C_SOLID_M
100
AcDbLine
 10
-47.07116699999999
 20
-12.41651599999999
 30
0.0
 11
-47.07116699999999
 21
-25.300003
 31
0.0
  0
LINE
  5
BA
330
1E
100
AcDbEntity
  8
MO_001_VIEW_PV
  6
C_SOLID_M
100
AcDbLine
 10
-45.47116099999999
 20
-12.385367
 30
0.0
 11
-45.47116099999999
 21
-25.300003
 31
0.0
  0
ARC
  5
BB
330
1E
100
AcDbEntity
  8
MO_001_VIEW_PV
  6
C_SOLID_M
100
AcDbCircle
 10
-46.671158
 20
-25.600002
 30
0.0
 40
0.5
100
AcDbArc
 50
36.869795
 51
143.130207
  0
ARC
  5
BC
330
1E
100
AcDbEntity
  8
MO_001_VIEW_PV
  6
C_SOLID_M
100
AcDbCircle
 10
-46.671158
 20
-25.000004
 30
0.0
 40
0.5
100
AcDbArc
 50
216.8697929999999
 51
323.130205
  0
ARC
  5
BD
330
1E
100
AcDbEntity
  8
MO_001_VIEW_PV
  6
C_SOLID_M
100
AcDbCircle
 10
-45.871155
 20
-25.000004
 30
0.0
 40
0.5
100
AcDbArc
 50
216.8697929999999
 51
323.130205
  0
LINE
  5
BE
330
1E
100
AcDbEntity
  8
MO_001_VIEW_PV
  6
C_SOLID_M
100
AcDbLine
 10
-56.528839
 20
-12.385365
 30
0.0
 11
-56.528839
 21
-25.300003
 31
0.0
  0
ARC
  5
BF
330
1E
100
AcDbEntity
  8
MO_001_VIEW_PV
  6
C_SOLID_M
100
AcDbCircle
 10
-56.12883
 20
-25.600002
 30
0.0
 40
0.5
100
AcDbArc
 50
36.869795
 51
143.130207
  0
ARC
  5
C0
330
1E
100
AcDbEntity
  8
MO_001_VIEW_PV
  6
C_SOLID_M
100
AcDbCircle
 10
-56.12883
 20
-25.000004
 30
0.0
 40
0.5
100
AcDbArc
 50
216.8697929999999
 51
323.130205
  0
ARC
  5
C1
330
1E
100
AcDbEntity
  8
MO_001_VIEW_PV
  6
C_SOLID_M
100
AcDbCircle
 10
-55.328827
 20
-25.000004
 30
0.0
 40
0.5
100
AcDbArc
 50
216.8697929999999
 51
323.130205
  0
LINE
  5
C2
330
1E
100
AcDbEntity
  8
MO_001_VIEW_PV
  6
C_SOLID_M
100
AcDbLine
 10
-54.92883299999999
 20
-12.416513
 30
0.0
 11
-54.92883299999999
 21
-25.300003
 31
0.0
  0
LINE
  5
C3
330
1E
100
AcDbEntity
  8
MO_001_VIEW_PV
  6
C_SOLID_M
100
AcDbLine
 10
-47.07116699999999
 20
-32.30001099999999
 30
0.0
 11
-47.07116699999999
 21
-26.30002199999999
 31
0.0
  0
LINE
  5
C4
330
1E
100
AcDbEntity
  8
MO_001_VIEW_PV
  6
C_SOLID_M
100
AcDbLine
 10
-45.47116099999999
 20
-32.30001099999999
 30
0.0
 11
-45.47116099999999
 21
-26.30002199999999
 31
0.0
  0
LINE
  5
C5
330
1E
100
AcDbEntity
  8
MO_001_VIEW_PV
  6
C_SOLID_M
100
AcDbLine
 10
-56.528839
 20
-32.30001099999999
 30
0.0
 11
-56.528839
 21
-26.30002199999999
 31
0.0
  0
LINE
  5
C6
330
1E
100
AcDbEntity
  8
MO_001_VIEW_PV
  6
C_SOLID_M
100
AcDbLine
 10
-54.92883299999999
 20
-32.30001099999999
 30
0.0
 11
-54.92883299999999
 21
-26.30002199999999
 31
0.0
  0
LINE
  5
C7
330
1E
100
AcDbEntity
  8
MO_001_VIEW_PV
  6
C_SOLID_M
100
AcDbLine
 10
-47.07116699999999
 20
-32.30001099999999
 30
0.0
 11
-45.47116099999999
 21
-32.30001099999999
 31
0.0
  0
LINE
  5
C8
330
1E
100
AcDbEntity
  8
MO_001_VIEW_PV
  6
C_SOLID_M
100
AcDbLine
 10
-56.528839
 20
-32.30001099999999
 30
0.0
 11
-54.92883299999999
 21
-32.30001099999999
 31
0.0
  0
ARC
  5
C9
330
1E
100
AcDbEntity
  8
MO_001_VIEW_PV
  6
C_SOLID_M
100
AcDbCircle
 10
-45.87117
 20
-26.600002
 30
0.0
 40
0.5
100
AcDbArc
 50
36.869795
 51
143.130207
  0
ARC
  5
CA
330
1E
100
AcDbEntity
  8
MO_001_VIEW_PV
  6
C_SOLID_M
100
AcDbCircle
 10
-45.87117
 20
-26.000004
 30
0.0
 40
0.5
100
AcDbArc
 50
216.8697929999999
 51
323.130205
  0
ARC
  5
CB
330
1E
100
AcDbEntity
  8
MO_001_VIEW_PV
  6
C_SOLID_M
100
AcDbCircle
 10
-46.671173
 20
-26.600021
 30
0.0
 40
0.5
100
AcDbArc
 50
36.869795
 51
143.130207
  0
ARC
  5
CC
330
1E
100
AcDbEntity
  8
MO_001_VIEW_PV
  6
C_SOLID_M
100
AcDbCircle
 10
-56.12884499999999
 20
-26.600031
 30
0.0
 40
0.5
100
AcDbArc
 50
36.869795
 51
143.130207
  0
ARC
  5
CD
330
1E
100
AcDbEntity
  8
MO_001_VIEW_PV
  6
C_SOLID_M
100
AcDbCircle
 10
-55.328842
 20
-26.60001199999999
 30
0.0
 40
0.5
100
AcDbArc
 50
36.869795
 51
143.130207
  0
ARC
  5
CE
330
1E
100
AcDbEntity
  8
MO_001_VIEW_PV
  6
C_SOLID_M
100
AcDbCircle
 10
-55.328842
 20
-26.000013
 30
0.0
 40
0.5
100
AcDbArc
 50
216.8697929999999
 51
323.130205
  0
LINE
  5
CF
330
1E
100
AcDbEntity
  8
MO_001_VIEW_PV
  6
C_SOLID_M
100
AcDbLine
 10
-45.87116199999999
 20
-32.30001099999999
 30
0.0
 11
-45.87116199999999
 21
-37.30001099999999
 31
0.0
  0
LINE
  5
D0
330
1E
100
AcDbEntity
  8
MO_001_VIEW_PV
  6
C_SOLID_M
100
AcDbLine
 10
-46.671165
 20
-32.30001099999999
 30
0.0
 11
-46.671165
 21
-37.30001099999999
 31
0.0
  0
LINE
  5
D1
330
1E
100
AcDbEntity
  8
MO_001_VIEW_PV
  6
C_SOLID_M
100
AcDbLine
 10
-46.671165
 20
-37.30001099999999
 30
0.0
 11
-45.87116199999999
 21
-37.30001099999999
 31
0.0
  0
LINE
  5
D2
330
1E
100
AcDbEntity
  8
MO_001_VIEW_PV
  6
C_SOLID_M
100
AcDbLine
 10
-55.328842
 20
-32.30001099999999
 30
0.0
 11
-55.328842
 21
-37.30001099999999
 31
0.0
  0
LINE
  5
D3
330
1E
100
AcDbEntity
  8
MO_001_VIEW_PV
  6
C_SOLID_M
100
AcDbLine
 10
-56.12884499999999
 20
-32.30001099999999
 30
0.0
 11
-56.12884499999999
 21
-37.30001099999999
 31
0.0
  0
LINE
  5
D4
330
1E
100
AcDbEntity
  8
MO_001_VIEW_PV
  6
C_SOLID_M
100
AcDbLine
 10
-56.12884499999999
 20
-37.30001099999999
 30
0.0
 11
-55.328842
 21
-37.30001099999999
 31
0.0
  0
ARC
  5
D5
330
1E
100
AcDbEntity
  8
MO_001_VIEW_PV
  6
C_SOLID_M
100
AcDbCircle
 10
-51.0
 20
0.0
 30
0.0
 40
14.3
100
AcDbArc
 50
254.053254
 51
285.946734
  0
CIRCLE
  5
D6
330
1E
100
AcDbEntity
  8
MO_001_VIEW_PV
  6
C_SOLID_M
100
AcDbCircle
 10
-51.0
 20
0.0
 30
0.0
 40
12.5
  0
CIRCLE
  5
D7
330
1E
100
AcDbEntity
  8
MO_001_VIEW_PV
  6
C_SOLID_M
100
AcDbCircle
 10
-51.0
 20
0.0
 30
0.0
 40
1.839411999999999
  0
CIRCLE
  5
D8
330
1E
100
AcDbEntity
  8
MO_001_VIEW_PV
  6
C_SOLID_M
100
AcDbCircle
 10
-51.0
 20
0.0
 30
0.0
 40
1.985
  0
LINE
  5
D9
330
1E
100
AcDbEntity
  8
MO_001_VIEW_PV
  6
C_SOLID_L
100
AcDbLine
 10
0.0
 20
-33.0
 30
0.0
 11
36.440876
 21
-33.0
 31
0.0
  0
TEXT
  5
DA
330
1E
100
AcDbEntity
  8
MO_001_VIEW_PV
  6
C_SOLID_L
100
AcDbText
 10
-31.488281
 20
-47.08359399999999
 30
0.0
 40
4.167187
  1
2EC PushPull
100
AcDbText
  0
TEXT
  5
DB
330
1E
100
AcDbEntity
  8
MO_001_VIEW_PV
  6
C_SOLID_L
100
AcDbText
 10
83.49999999999999
 20
-13.071429
 30
0.0
 40
3.0
  1
(UL1430 AWG24)
 50
90.0
100
AcDbText
  0
TEXT
  5
DC
330
1E
100
AcDbEntity
  8
MO_001_VIEW_PV
  6
C_SOLID_L
100
AcDbText
 10
52.51171899999999
 20
-47.08359399999999
 30
0.0
 40
4.167187
  1
単位：mm
100
AcDbText
  0
TEXT
  5
DD
330
1E
100
AcDbEntity
  8
MO_001_VIEW_PV
  6
C_SOLID_L
100
AcDbText
 10
52.51171899999999
 20
-53.083594
 30
0.0
 40
4.167187
  1
図は励磁時を示す
100
AcDbText
  0
TEXT
  5
DE
330
1E
100
AcDbEntity
  8
MO_001_VIEW_PV
  6
C_SOLID_L
100
AcDbText
 10
2.080343
 20
-31.573788
 30
0.0
 40
3.0
  1
2-M2.3 P0.4
100
AcDbText
  0
DIMENSION
  5
E0
330
1E
100
AcDbEntity
  8
MO_001_VIEW_PV
  6
C_SOLID_M
100
AcDbDimension
  2
*D0
 10
21.0
 20
-15.0
 30
0.0
 11
21.0
 21
-15.0
 31
0.0
  3
STANDARD
100
AcDbAlignedDimension
 13
10.879999
 23
-1.985
 33
0.0
 14
10.879999
 24
1.985
 34
0.0
 50
89.999523
100
AcDbRotatedDimension
  0
DIMENSION
  5
E2
330
1E
100
AcDbEntity
  8
MO_001_VIEW_PV
  6
C_SOLID_M
100
AcDbDimension
  2
*D1
 10
20.040939
 20
27.0
 30
0.0
 11
20.040939
 21
27.0
 31
0.0
  3
STANDARD
100
AcDbAlignedDimension
 13
11.08
 23
1.784999999999999
 33
0.0
 14
0.0
 24
12.55
 34
0.0
100
AcDbRotatedDimension
  0
DIMENSION
  5
E4
330
1E
100
AcDbEntity
  8
MO_001_VIEW_PV
  6
C_SOLID_M
100
AcDbDimension
  2
*D2
 10
-13.50999899999999
 20
27.0
 30
0.0
 11
-13.50999899999999
 21
27.0
 31
0.0
  3
STANDARD
100
AcDbAlignedDimension
 13
0.0
 23
12.55
 33
0.0
 14
-27.019999
 24
1.839411999999999
 34
0.0
100
AcDbRotatedDimension
  0
DIMENSION
  5
E6
330
1E
100
AcDbEntity
  8
MO_001_VIEW_PV
  6
C_SOLID_M
100
AcDbDimension
  2
*D3
 10
21.31133999999998
 20
21.0
 30
0.0
 11
21.31133999999998
 21
21.0
 31
0.0
  3
STANDARD
100
AcDbAlignedDimension
 13
9.5
 23
9.899998999999999
 33
0.0
 14
0.0
 24
12.55
 34
0.0
100
AcDbRotatedDimension
  0
DIMENSION
  5
E8
330
1E
100
AcDbEntity
  8
MO_001_VIEW_PV
  6
C_SOLID_M
100
AcDbDimension
  2
*D4
 10
-7.459999999999999
 20
21.0
 30
0.0
 11
-7.459999999999999
 21
21.0
 31
0.0
  1
15以下
  3
STANDARD
100
AcDbAlignedDimension
 13
0.0
 23
12.55
 33
0.0
 14
-14.91999999999999
 24
12.5
 34
0.0
100
AcDbRotatedDimension
  0
DIMENSION
  5
EA
330
1E
100
AcDbEntity
  8
MO_001_VIEW_PV
  6
C_SOLID_M
100
AcDbDimension
  2
*D5
 10
33.0
 20
0.0
 30
0.0
 11
33.0
 21
0.0
 31
0.0
  3
STANDARD
100
AcDbAlignedDimension
 13
51.0
 23
9.15
 33
0.0
 14
51.0
 24
-9.15
 34
0.0
 50
89.999523
100
AcDbRotatedDimension
  0
DIMENSION
  5
EC
330
1E
100
AcDbEntity
  8
MO_001_VIEW_PV
  6
C_SOLID_M
100
AcDbDimension
  2
*D6
 10
55.0
 20
27.0
 30
0.0
 11
55.0
 21
27.0
 31
0.0
  1
%%C30以下
  3
STANDARD
100
AcDbAlignedDimension
 13
68.300003
 23
0.0
 33
0.0
 14
39.69999699999998
 24
0.0
 34
0.0
100
AcDbRotatedDimension
  0
DIMENSION
  5
EE
330
1E
100
AcDbEntity
  8
MO_001_VIEW_PV
  6
C_SOLID_M
100
AcDbDimension
  2
*D7
 10
79.0
 20
16.58992
 30
0.0
 11
79.0
 21
16.58992
 31
0.0
  1
長さ250以上
  3
STANDARD
100
AcDbAlignedDimension
 13
59.528839
 23
-13.187948
 33
0.0
 14
59.128838
 24
-37.30001099999999
 34
0.0
 50
89.999523
100
AcDbRotatedDimension
  0
LINE
  5
EF
330
1E
100
AcDbEntity
  8
MO_001_VIEW_PV
  6
C_SOLID_L
100
AcDbLine
 10
4.100000999999998
 20
-10.29999899999999
 30
0.0
 11
0.0
 21
-33.000001
 31
0.0
  0
LWPOLYLINE
  5
F0
330
1E
100
AcDbEntity
  8
MO_001_VIEW_PV
  6
C_SOLID_L
100
AcDbPolyline
 90
        3
 70
     1
 43
0.0
 10
4.084430999999998
 20
-13.669138
 10
4.009707999999998
 20
-10.79991099999999
 10
2.93599
 20
-13.46171
  0
ENDSEC
  0
SECTION
  2
OBJECTS
  0
DICTIONARY
  5
1A
330
0
100
AcDbDictionary
  3
ACAD_GROUP
350
1B
  3
ACAD_MLINESTYLE
350
1C
  3
ACAD_LAYOUT
350
14D
  3
ACAD_PLOTSETTINGS
350
14E
  3
ACAD_PLOTSTYLENAME
350
15F
  3
ACDBHEADERROUNDTRIPXREC
350
188
1001
ACAD
1000
TREAT_AS_HARD
1070
     0
  0
DICTIONARY
  5
153
330
1E
100
AcDbDictionary
  3
ACAD_LAYOUTSELFREF
350
1A8
  0
DICTIONARY
  5
155
330
1F
100
AcDbDictionary
  3
ACAD_LAYOUTSELFREF
350
1A9
  0
DICTIONARY
  5
1B
102
{ACAD_REACTORS
330
1A
102
}
330
1A
100
AcDbDictionary
1001
ACAD
1000
TREAT_AS_HARD
1070
     0
  0
DICTIONARY
  5
1C
102
{ACAD_REACTORS
330
1A
102
}
330
1A
100
AcDbDictionary
  3
STANDARD
350
1D
1001
ACAD
1000
TREAT_AS_HARD
1070
     0
  0
DICTIONARY
  5
14D
102
{ACAD_REACTORS
330
1A
102
}
330
1A
100
AcDbDictionary
1001
ACAD
1000
TREAT_AS_HARD
1070
     0
  0
DICTIONARY
  5
14E
102
{ACAD_REACTORS
330
1A
102
}
330
1A
100
AcDbDictionary
1001
ACAD
1000
TREAT_AS_HARD
1070
     0
  0
ACDBDICTIONARYWDFLT
  5
15F
102
{ACAD_REACTORS
330
1A
102
}
330
1A
100
AcDbDictionary
281
     1
  3
Normal
350
160
100
AcDbDictionaryWithDefault
340
160
  0
DICTIONARY
  5
188
102
{ACAD_REACTORS
330
1A
102
}
330
1A
100
AcDbDictionary
  3
TSTACKALIGN
350
189
  3
TSTACKSIZE
350
18A
  3
HYPERLINKBASE
350
18B
  3
STYLESHEET
350
18C
  3
LAYOUTDICT
350
18D
  3
PLOTSETDICT
350
18E
  3
PLOTSTYLNAMDICT
350
18F
  3
LWETCUNION
350
190
  3
INSUNITS
350
191
  3
CEPSNTYPE
350
192
  3
FINGERPRINTGUID
350
193
  3
VERSIONGUID
350
194
  3
PSVPSCALE
350
195
  3
PUCSORTHOREF
350
196
  3
PUCSORTHOVIEW
350
197
  3
PUCSBASE
350
198
  3
PUCSORGTOP
350
199
  3
PUCSORGBOTTOM
350
19A
  3
PUCSORGLEFT
350
19B
  3
PUCSORGRIGHT
350
19C
  3
PUCSORGFRONT
350
19D
  3
PUCSORGBACK
350
19E
  3
UCSORTHOREF
350
19F
  3
UCSORTHOVIEW
350
1A0
  3
UCSBASE
350
1A1
  3
UCSORGTOP
350
1A2
  3
UCSORGBOTTOM
350
1A3
  3
UCSORGLEFT
350
1A4
  3
UCSORGRIGHT
350
1A5
  3
UCSORGFRONT
350
1A6
  3
UCSORGBACK
350
1A7
  0
XRECORD
  5
1A8
102
{ACAD_REACTORS
330
153
102
}
330
153
100
AcDbXrecord
340
1E
  0
XRECORD
  5
1A9
102
{ACAD_REACTORS
330
155
102
}
330
155
100
AcDbXrecord
340
1F
  0
MLINESTYLE
  5
1D
102
{ACAD_REACTORS
330
1C
102
}
330
1C
100
AcDbMlineStyle
  2
STANDARD
 70
     0
  3

 62
     0
 51
90.0
 52
90.0
 71
     2
 49
0.5
 62
   256
  6
BYLAYER
 49
-0.5
 62
   256
  6
BYLAYER
  0
ACDBPLACEHOLDER
  5
160
102
{ACAD_REACTORS
330
15F
102
}
330
15F
100
AcDbPlaceHolder
280
     0
  0
XRECORD
  5
189
102
{ACAD_REACTORS
330
188
102
}
330
188
100
AcDbXrecord
 90
        1
  0
XRECORD
  5
18A
102
{ACAD_REACTORS
330
188
102
}
330
188
100
AcDbXrecord
 90
       70
  0
XRECORD
  5
18B
102
{ACAD_REACTORS
330
188
102
}
330
188
100
AcDbXrecord
  1

  0
XRECORD
  5
18C
102
{ACAD_REACTORS
330
188
102
}
330
188
100
AcDbXrecord
  1

  0
XRECORD
  5
18D
102
{ACAD_REACTORS
330
188
102
}
330
188
100
AcDbXrecord
340
14D
  0
XRECORD
  5
18E
102
{ACAD_REACTORS
330
188
102
}
330
188
100
AcDbXrecord
340
14E
  0
XRECORD
  5
18F
102
{ACAD_REACTORS
330
188
102
}
330
188
100
AcDbXrecord
340
15F
  0
XRECORD
  5
190
102
{ACAD_REACTORS
330
188
102
}
330
188
100
AcDbXrecord
 90
    10781
  0
XRECORD
  5
191
102
{ACAD_REACTORS
330
188
102
}
330
188
100
AcDbXrecord
 90
        0
  0
XRECORD
  5
192
102
{ACAD_REACTORS
330
188
102
}
330
188
100
AcDbXrecord
 90
        0
  0
XRECORD
  5
193
102
{ACAD_REACTORS
330
188
102
}
330
188
100
AcDbXrecord
  1
{6459D283-CAEE-4F46-8FCF-3CB0AC8B402D}
  0
XRECORD
  5
194
102
{ACAD_REACTORS
330
188
102
}
330
188
100
AcDbXrecord
  1
{429C6E1A-5297-44F0-8F6B-02DADA9C61ED}
  0
XRECORD
  5
195
102
{ACAD_REACTORS
330
188
102
}
330
188
100
AcDbXrecord
 40
0.0
  0
XRECORD
  5
196
102
{ACAD_REACTORS
330
188
102
}
330
188
100
AcDbXrecord
340
0
  0
XRECORD
  5
197
102
{ACAD_REACTORS
330
188
102
}
330
188
100
AcDbXrecord
 70
     0
  0
XRECORD
  5
198
102
{ACAD_REACTORS
330
188
102
}
330
188
100
AcDbXrecord
340
0
  0
XRECORD
  5
199
102
{ACAD_REACTORS
330
188
102
}
330
188
100
AcDbXrecord
 10
0.0
 20
0.0
 30
0.0
  0
XRECORD
  5
19A
102
{ACAD_REACTORS
330
188
102
}
330
188
100
AcDbXrecord
 10
0.0
 20
0.0
 30
0.0
  0
XRECORD
  5
19B
102
{ACAD_REACTORS
330
188
102
}
330
188
100
AcDbXrecord
 10
0.0
 20
0.0
 30
0.0
  0
XRECORD
  5
19C
102
{ACAD_REACTORS
330
188
102
}
330
188
100
AcDbXrecord
 10
0.0
 20
0.0
 30
0.0
  0
XRECORD
  5
19D
102
{ACAD_REACTORS
330
188
102
}
330
188
100
AcDbXrecord
 10
0.0
 20
0.0
 30
0.0
  0
XRECORD
  5
19E
102
{ACAD_REACTORS
330
188
102
}
330
188
100
AcDbXrecord
 10
0.0
 20
0.0
 30
0.0
  0
XRECORD
  5
19F
102
{ACAD_REACTORS
330
188
102
}
330
188
100
AcDbXrecord
340
0
  0
XRECORD
  5
1A0
102
{ACAD_REACTORS
330
188
102
}
330
188
100
AcDbXrecord
 70
     0
  0
XRECORD
  5
1A1
102
{ACAD_REACTORS
330
188
102
}
330
188
100
AcDbXrecord
340
0
  0
XRECORD
  5
1A2
102
{ACAD_REACTORS
330
188
102
}
330
188
100
AcDbXrecord
 10
0.0
 20
0.0
 30
0.0
  0
XRECORD
  5
1A3
102
{ACAD_REACTORS
330
188
102
}
330
188
100
AcDbXrecord
 10
0.0
 20
0.0
 30
0.0
  0
XRECORD
  5
1A4
102
{ACAD_REACTORS
330
188
102
}
330
188
100
AcDbXrecord
 10
0.0
 20
0.0
 30
0.0
  0
XRECORD
  5
1A5
102
{ACAD_REACTORS
330
188
102
}
330
188
100
AcDbXrecord
 10
0.0
 20
0.0
 30
0.0
  0
XRECORD
  5
1A6
102
{ACAD_REACTORS
330
188
102
}
330
188
100
AcDbXrecord
 10
0.0
 20
0.0
 30
0.0
  0
XRECORD
  5
1A7
102
{ACAD_REACTORS
330
188
102
}
330
188
100
AcDbXrecord
 10
0.0
 20
0.0
 30
0.0
  0
ENDSEC
  0
EOF
